<?xml version="1.0" standalone="no"?>
<!DOCTYPE svg PUBLIC "-//W3C//DTD SVG 1.1//EN" "http://www.w3.org/Graphics/SVG/1.1/DTD/svg11.dtd">
<svg xmlns="http://www.w3.org/2000/svg">
<defs >
<font id="Assistant" horiz-adv-x="458" ><font-face
    font-family="Assistant ExtraLight"
    units-per-em="1000"
    panose-1="0 0 0 0 0 0 0 0 0 0"
    ascent="1021"
    descent="-287"
    alphabetic="0" />
<glyph unicode=" " horiz-adv-x="200" />
<glyph unicode="!" horiz-adv-x="282" d="M116 194L106 582L104 670H178L176 582L166 194H116ZM141 -12Q119 -12 103 4T86 46Q86 73 102 89T141 105Q164 105 180 89T196 46Q196 20 180 4T141 -12Z" />
<glyph unicode="&quot;" horiz-adv-x="409" d="M97 443L83 605L81 691H159L157 605L143 443H97ZM265 443L251 605L249 691H327L325 605L311 443H265Z" />
<glyph unicode="#" horiz-adv-x="492" d="M91 0L116 207H35V259H122L141 412H55V464H147L171 650H219L196 464H333L357 650H405L382 464H462V412H376L357 259H442V207H351L326 0H277L302 207H165L140 0H91ZM171 259H308L327 412H190L171 259Z" />
<glyph unicode="$" horiz-adv-x="492" d="M245 -12Q208 -12 173 -2T108 27T54 66L88 116Q120 90 158 70T245 49Q302 49 331 78T361 157Q361 200 341 227T288 274T220 311T152 349T100 403T79 484Q79 534 101 571T163 629T254 650Q313 650 350 629T418 575L379
531Q351 559 324 574T255 589Q208 589 180 561T151 488Q151 450 171 426T223 384T291 350T359 310T412 252T432 162Q432 109 409 70T343 10T245 -12ZM223 -110V12H278V-110H223ZM223 622V748H278V622H223Z" />
<glyph unicode="%" horiz-adv-x="817" d="M200 -12L563 669H614L251 -12H200ZM183 261Q138 261 105 285T54 356T36 469Q36 568 76 621T183 675Q250 675 290 622T330 469Q330 403 312 357T261 286T183 261ZM183 307Q224 307 249 348T274 469Q274 549 249 589T183
629Q143 629 118 589T92 469Q92 390 117 349T183 307ZM634 -12Q589 -12 556 12T505 83T487 196Q487 295 527 348T634 402Q701 402 741 349T781 196Q781 130 763 84T711 13T634 -12ZM634 34Q675 34 699 75T724 196Q724 276 700 316T634 356Q594 356 569 316T543
196Q543 117 568 76T634 34Z" />
<glyph unicode="&amp;" horiz-adv-x="600" d="M231 -12Q173 -12 129 11T59 75T33 169Q33 217 55 253T110 319T182 373T255 423T310 476T332 540Q332 570 318 593T268 616Q229 616 207 588T184 517Q184 470 206 417T266 312T350 212T442 129Q481 99 518 79T586
49L566 -12Q528 -1 486 22T399 80Q346 122 297 175T207 287T144 404T120 515Q120 559 138 593T190 648T268 669Q327 669 359 634T392 542Q392 500 372 467T318 405T248 350T179 298T125 241T104 173Q104 135 122 107T170 63T239 47Q281 47 320 69T391 125Q432 170
461 227T509 352H577Q556 279 523 212T442 90Q401 45 350 17T231 -12Z" />
<glyph unicode="&apos;" horiz-adv-x="242" d="M97 443L83 605L81 691H159L157 605L143 443H97Z" />
<glyph unicode="(" horiz-adv-x="297" d="M215 -176Q154 -75 119 35T83 278Q83 410 118 521T215 732L260 710Q202 615 173 504T144 278Q144 163 173 53T260 -154L215 -176Z" />
<glyph unicode=")" horiz-adv-x="297" d="M82 -176L37 -154Q95 -58 124 52T153 278Q153 393 124 504T37 710L82 732Q144 632 179 521T214 278Q214 146 179 36T82 -176Z" />
<glyph unicode="*" horiz-adv-x="412" d="M137 431L100 457L156 550L61 589L75 631L175 605L184 712H228L237 607L337 631L351 589L255 550L312 457L275 431L207 516L137 431Z" />
<glyph unicode="+" horiz-adv-x="492" d="M216 105V302H34V358H216V555H276V358H458V302H276V105H216Z" />
<glyph unicode="," horiz-adv-x="242" d="M66 -166L47 -122Q88 -104 111 -72T134 2L124 72L163 15Q156 5 146 2T124 -2Q101 -2 85 11T68 52Q68 77 85 91T125 105Q156 105 173 81T190 15Q190 -47 157 -94T66 -166Z" />
<glyph unicode="-" horiz-adv-x="308" d="M41 222V279H268V222H41Z" />
<glyph unicode="." horiz-adv-x="242" d="M121 -12Q99 -12 83 4T66 46Q66 73 82 89T121 105Q144 105 160 89T176 46Q176 20 160 4T121 -12Z" />
<glyph unicode="/" horiz-adv-x="352" d="M10 -160L287 710H341L64 -160H10Z" />
<glyph unicode="0" horiz-adv-x="492" d="M246 -12Q152 -12 99 74T45 321Q45 482 98 566T246 650Q341 650 394 566T447 321Q447 161 394 75T246 -12ZM246 47Q285 47 314 76T360 166T376 321Q376 416 360 475T315 563T246 591Q207 591 178 563T133 476T116 321Q116
227 132 166T178 76T246 47Z" />
<glyph unicode="1" horiz-adv-x="451" d="M49 0V61H196V546H80V593Q123 601 155 612T213 638H269V61H402V0H49Z" />
<glyph unicode="2" horiz-adv-x="492" d="M40 0V43Q138 142 206 216T309 350T344 462Q344 518 314 554T218 590Q178 590 143 568T79 512L36 554Q76 597 121 623T227 650Q285 650 327 627T393 563T416 465Q416 404 382 342T286 211T147 58Q173 60 201 61T254 63H447V0H40Z" />
<glyph unicode="3" horiz-adv-x="492" d="M235 -12Q184 -12 145 1T77 34T27 78L64 126Q93 96 132 73T231 49Q291 49 329 82T368 172Q368 211 348 241T282 287T159 304V361Q228 361 268 377T327 422T345 485Q345 533 314 561T230 590Q189 590 154 572T91 524L51
571Q88 605 132 627T232 650Q286 650 328 631T394 577T419 490Q419 432 387 394T301 337V333Q340 324 372 303T423 248T442 170Q442 113 414 73T339 10T235 -12Z" />
<glyph unicode="4" horiz-adv-x="492" d="M305 0V436Q305 461 307 496T310 556H306Q294 534 281 513T254 468L95 238H463V180H17V227L296 638H374V0H305Z" />
<glyph unicode="5" horiz-adv-x="492" d="M232 -12Q181 -12 143 0T76 33T25 75L62 123Q91 94 129 72T226 49Q266 49 299 68T351 121T370 201Q370 270 332 308T230 347Q196 347 172 337T118 308L78 333L99 638H412V575H163L145 376Q169 389 193 396T247 404Q302
404 346 383T417 317T444 204Q444 135 414 87T336 13T232 -12Z" />
<glyph unicode="6" horiz-adv-x="492" d="M266 -12Q219 -12 179 7T111 65T66 160T49 293Q49 391 69 459T122 569T199 630T290 650Q340 650 376 632T439 584L398 538Q378 562 351 575T292 589Q245 589 206 561T142 469T118 293Q118 215 135 160T185 75T267 46Q299
46 325 64T367 116T382 191Q382 234 369 266T328 315T259 333Q227 333 189 312T116 240L114 300Q145 341 187 365T271 389Q326 389 366 367T429 301T451 191Q451 131 426 86T359 14T266 -12Z" />
<glyph unicode="7" horiz-adv-x="492" d="M180 0Q185 122 205 219T264 401T366 575H44V638H450V594Q393 521 357 454T301 317T270 171T255 0H180Z" />
<glyph unicode="8" horiz-adv-x="492" d="M248 -12Q189 -12 142 10T68 73T41 163Q41 205 59 238T105 296T163 337V341Q128 366 101 402T73 488Q73 537 96 573T160 630T250 650Q334 650 381 603T429 481Q429 447 415 417T380 364T340 325V321Q368 304 393 283T435
231T451 158Q451 110 426 72T355 11T248 -12ZM250 43Q289 43 318 58T364 99T381 159Q381 203 356 230T290 276T202 314Q162 288 135 252T107 169Q107 133 125 105T176 60T250 43ZM293 344Q328 375 346 408T365 478Q365 510 352 537T312 579T249 595Q202 595 172
566T141 488Q141 449 162 423T219 378T293 344Z" />
<glyph unicode="9" horiz-adv-x="492" d="M202 -12Q152 -12 115 7T53 54L94 100Q113 76 141 63T199 49Q247 49 286 77T349 169T373 345Q373 423 357 478T307 563T225 592Q192 592 166 574T125 523T110 447Q110 404 123 372T164 323T233 305Q265 305 303 326T376
399L378 338Q348 298 306 274T221 249Q166 249 125 271T62 338T40 447Q40 507 65 553T133 624T225 650Q273 650 312 631T381 574T426 478T443 345Q443 248 423 180T369 69T292 8T202 -12Z" />
<glyph unicode=":" horiz-adv-x="242" d="M121 354Q99 354 83 370T66 412Q66 439 82 455T121 471Q144 471 160 455T176 412Q176 386 160 370T121 354ZM121 -12Q99 -12 83 4T66 46Q66 73 82 89T121 105Q144 105 160 89T176 46Q176 20 160 4T121 -12Z" />
<glyph unicode=";" horiz-adv-x="242" d="M121 354Q99 354 83 370T66 412Q66 439 82 455T121 471Q144 471 160 455T176 412Q176 386 160 370T121 354ZM66 -166L47 -122Q88 -104 111 -72T134 2L124 72L163 15Q156 5 146 2T124 -2Q101 -2 85 11T68 52Q68 77 85 91T125
105Q156 105 173 81T190 15Q190 -47 157 -94T66 -166Z" />
<glyph unicode="&lt;" horiz-adv-x="492" d="M458 135L34 302V362L458 529V465L242 384L109 334V330L242 280L458 199V135Z" />
<glyph unicode="=" horiz-adv-x="492" d="M34 408V464H458V408H34ZM34 452V508H458V452H34Z" />
<glyph unicode="&gt;" horiz-adv-x="492" d="M34 135V199L251 280L384 330V334L251 384L34 465V529L458 362V302L34 135Z" />
<glyph unicode="?" horiz-adv-x="419" d="M160 194Q154 241 166 278T199 345T244 402T283 458T299 519Q299 547 288 570T255 607T198 621Q165 621 135 606T80 562L38 601Q69 636 111 659T206 682Q256 682 293 663T350 608T371 524Q371 485 355 453T315 392T269
334T234 270T225 194H160ZM195 -12Q173 -12 157 4T140 46Q140 73 156 89T195 105Q218 105 234 89T250 46Q250 20 234 4T195 -12Z" />
<glyph unicode="@" horiz-adv-x="839" d="M399 -153Q326 -153 263 -130T152 -61T78 50T51 203Q51 303 84 384T174 523T306 612T463 643Q563 643 636 602T748 487T788 315Q788 250 770 201T723 118T660 68T592 51Q551 51 523 70T490 127H488Q463 98 432 78T367
58Q317 58 282 94T247 198Q247 237 260 277T299 352T359 407T438 428Q464 428 484 417T519 380H521L531 420H581L543 223Q513 102 599 102Q630 102 661 126T714 198T735 312Q735 374 717 425T664 514T577 572T457 593Q390 593 328 566T215 487T135 365T106 206Q106
132 128 75T190 -21T285 -82T404 -103Q451 -103 492 -90T568 -57L588 -101Q545 -127 498 -140T399 -153ZM379 109Q402 109 425 124T476 170L505 333Q490 357 475 366T438 376Q398 376 369 349T323 282T307 202Q307 152 328 131T379 109Z" />
<glyph unicode="A" horiz-adv-x="539" d="M4 0L229 657H311L535 0H457L338 372Q320 428 304 482T270 595H266Q251 537 235 483T199 372L79 0H4ZM118 207V266H418V207H118Z" />
<glyph unicode="B" horiz-adv-x="585" d="M92 0V657H282Q349 657 399 641T478 589T506 496Q506 447 481 408T408 354V350Q469 339 506 300T544 192Q544 128 513 85T426 21T297 0H92ZM166 59H285Q373 59 422 92T471 194Q471 258 423 288T285 318H166V59ZM166 375H267Q355
375 394 405T433 487Q433 548 392 573T271 598H166V375Z" />
<glyph unicode="C" horiz-adv-x="569" d="M336 -12Q254 -12 190 28T89 145T52 328Q52 408 73 470T134 578T226 646T341 669Q401 669 446 645T519 589L478 540Q452 569 419 586T342 604Q278 604 230 571T156 476T129 330Q129 245 154 183T227 87T339 53Q387 53
425 73T495 129L536 83Q498 38 449 13T336 -12Z" />
<glyph unicode="D" horiz-adv-x="613" d="M92 0V657H253Q354 657 422 619T525 507T560 331Q560 228 526 154T423 40T256 0H92ZM166 61H247Q327 61 379 94T458 187T484 331Q484 415 458 474T380 564T247 596H166V61Z" />
<glyph unicode="E" horiz-adv-x="524" d="M92 0V657H465V594H166V377H418V315H166V63H475V0H92Z" />
<glyph unicode="F" horiz-adv-x="490" d="M92 0V657H465V594H166V362H419V300H166V0H92Z" />
<glyph unicode="G" horiz-adv-x="614" d="M345 -12Q259 -12 193 28T90 145T52 328Q52 408 74 470T137 578T231 646T351 669Q419 669 464 644T538 589L497 540Q472 567 438 585T353 604Q284 604 234 571T157 476T129 330Q129 245 155 183T231 87T352 53Q390 53
424 64T478 95V274H334V336H546V64Q515 31 464 10T345 -12Z" />
<glyph unicode="H" horiz-adv-x="648" d="M92 0V657H166V379H483V657H557V0H483V314H166V0H92Z" />
<glyph unicode="I" horiz-adv-x="257" d="M92 0V657H166V0H92Z" />
<glyph unicode="J" horiz-adv-x="475" d="M210 -12Q149 -12 105 14T34 91L87 128Q110 89 138 71T204 53Q258 53 285 87T312 197V657H386V190Q386 134 368 88T312 15T210 -12Z" />
<glyph unicode="K" horiz-adv-x="573" d="M92 0V657H166V318H168L453 657H537L330 408L568 0H485L284 351L166 212V0H92Z" />
<glyph unicode="L" horiz-adv-x="481" d="M92 0V657H166V63H456V0H92Z" />
<glyph unicode="M" horiz-adv-x="721" d="M92 0V657H183L312 297Q324 263 336 228T360 158H364Q376 193 387 228T411 297L538 657H630V0H561V380Q561 408 562 441T566 507T570 570H566L514 421L386 68H334L205 421L153 570H149Q151 541 153 508T157 441T159 380V0H92Z" />
<glyph unicode="N" horiz-adv-x="644" d="M92 0V657H168L416 231L488 96H492Q489 146 486 198T482 301V657H552V0H476L228 426L156 561H152Q156 512 159 462T162 360V0H92Z" />
<glyph unicode="O" horiz-adv-x="661" d="M331 -12Q249 -12 187 30T88 149T52 331Q52 436 88 512T186 628T331 669Q412 669 475 629T573 512T609 331Q609 226 574 149T475 30T331 -12ZM331 53Q391 53 436 87T507 184T532 331Q532 415 507 476T437 570T331 604Q270
604 225 571T154 476T129 331Q129 247 154 185T224 88T331 53Z" />
<glyph unicode="P" horiz-adv-x="562" d="M92 0V657H274Q347 657 402 639T487 579T518 466Q518 398 488 354T404 288T278 266H166V0H92ZM166 327H267Q357 327 400 360T444 466Q444 540 399 568T263 597H166V327Z" />
<glyph unicode="Q" horiz-adv-x="661" d="M331 -12Q249 -12 187 30T88 149T52 331Q52 436 88 512T186 628T331 669Q412 669 475 629T573 512T609 331Q609 226 574 149T475 30T331 -12ZM530 -163Q437 -163 376 -116T289 2L367 7Q380 -28 405 -52T463 -88T537 -100Q559
-100 575 -97T605 -90L620 -149Q606 -154 582 -158T530 -163ZM331 50Q391 50 436 84T507 182T532 331Q532 415 507 476T437 570T331 604Q270 604 225 571T154 476T129 331Q129 245 154 182T224 85T331 50Z" />
<glyph unicode="R" horiz-adv-x="563" d="M92 0V657H293Q359 657 410 640T490 582T519 475Q519 411 490 369T410 305T293 284H166V0H92ZM453 0L278 304L338 340L537 0H453ZM166 344H281Q361 344 403 376T445 475Q445 542 403 569T281 597H166V344Z" />
<glyph unicode="S" horiz-adv-x="530" d="M271 -12Q202 -12 144 15T43 86L88 137Q124 99 171 76T272 53Q340 53 378 84T416 167Q416 202 401 223T361 259T304 288L209 330Q179 343 148 364T97 417T76 498Q76 548 102 586T174 647T278 669Q337 669 386 646T469
588L429 541Q400 570 363 587T278 604Q221 604 186 577T150 502Q150 469 167 448T209 414T260 389L355 347Q393 331 423 309T472 254T491 172Q491 121 465 79T389 13T271 -12Z" />
<glyph unicode="T" horiz-adv-x="533" d="M230 0V594H28V657H505V594H304V0H230Z" />
<glyph unicode="U" horiz-adv-x="643" d="M321 -12Q273 -12 231 2T157 49T107 134T89 266V657H163V266Q163 185 184 139T241 73T321 53Q366 53 402 72T461 138T483 266V657H554V266Q554 188 536 135T486 49T412 3T321 -12Z" />
<glyph unicode="V" horiz-adv-x="509" d="M213 0L1 657H80L190 295Q208 236 222 186T254 77H258Q277 135 291 185T323 295L433 657H508L298 0H213Z" />
<glyph unicode="W" horiz-adv-x="782" d="M166 0L24 657H101L173 292Q183 239 193 186T213 79H217Q228 132 240 185T264 292L359 657H427L521 292Q534 239 546 186T570 79H574Q584 133 593 186T613 292L685 657H757L618 0H530L425 409Q417 448 409 484T393 558H389Q381
520 373 484T355 409L253 0H166Z" />
<glyph unicode="X" horiz-adv-x="505" d="M16 0L208 340L28 657H110L204 482Q217 460 229 439T256 388H260Q274 417 284 438T307 482L399 657H477L297 336L490 0H408L307 183Q295 208 281 233T250 288H246Q232 258 219 233T193 183L93 0H16Z" />
<glyph unicode="Y" horiz-adv-x="468" d="M197 0V258L0 657H79L167 466Q184 430 199 395T232 323H236Q254 360 271 395T304 466L392 657H469L271 258V0H197Z" />
<glyph unicode="Z" horiz-adv-x="539" d="M46 0V44L400 594H78V657H492V613L138 63H495V0H46Z" />
<glyph unicode="[" horiz-adv-x="297" d="M95 -152V708H269V666H150V-110H269V-152H95Z" />
<glyph unicode="\" horiz-adv-x="352" d="M288 -160L12 710H66L342 -160H288Z" />
<glyph unicode="]" horiz-adv-x="297" d="M28 -152V-110H147V666H28V708H202V-152H28Z" />
<glyph unicode="^" horiz-adv-x="492" d="M61 285L213 670H279L431 285H367L298 468L248 601H244L195 468L126 285H61Z" />
<glyph unicode="_" horiz-adv-x="500" d="M12 -124V-73H488V-124H12Z" />
<glyph unicode="`" horiz-adv-x="540" d="M288 573L134 726L186 774L326 610L288 573Z" />
<glyph unicode="a" horiz-adv-x="501" d="M195 -12Q155 -12 123 4T72 50T53 124Q53 204 125 246T355 306Q355 338 347 368T316 417T251 436Q207 436 170 419T104 383L75 433Q96 447 125 462T189 487T263 497Q321 497 357 472T410 403T427 300V0H367L361 59H358Q323
30 282 9T195 -12ZM214 47Q251 47 284 64T355 115V257Q269 247 219 230T147 187T125 129Q125 86 151 67T214 47Z" />
<glyph unicode="b" horiz-adv-x="551" d="M293 -12Q259 -12 223 4T153 50H150L143 0H85V714H157V516L155 427Q189 457 229 477T310 497Q374 497 417 467T481 381T503 250Q503 167 474 109T396 19T293 -12ZM281 50Q324 50 357 74T409 143T428 249Q428 304 415 346T372
411T294 435Q262 435 228 418T157 365V103Q191 74 224 62T281 50Z" />
<glyph unicode="c" horiz-adv-x="454" d="M273 -12Q209 -12 158 18T77 104T47 242Q47 322 79 379T164 467T278 497Q326 497 360 480T419 439L381 391Q360 411 336 423T281 436Q235 436 200 412T144 343T123 242Q123 184 142 141T197 73T279 49Q314 49 344 63T397
99L429 50Q397 21 357 5T273 -12Z" />
<glyph unicode="d" horiz-adv-x="552" d="M248 -12Q158 -12 104 54T49 242Q49 320 78 377T156 465T260 497Q303 497 334 482T398 440L395 524V714H467V0H407L401 59H398Q370 30 332 9T248 -12ZM264 50Q299 50 331 67T395 119V382Q362 411 333 423T271 435Q230
435 197 411T144 343T124 242Q124 153 160 102T264 50Z" />
<glyph unicode="e" horiz-adv-x="492" d="M277 -12Q213 -12 161 18T78 105T47 242Q47 320 78 377T158 466T264 497Q324 497 367 469T432 391T455 270Q455 259 454 247T451 226H104L103 279H390Q390 357 357 397T265 438Q229 438 195 418T139 354T117 242Q117 177
140 134T201 69T286 47Q322 47 352 58T409 86L436 38Q405 18 367 3T277 -12Z" />
<glyph unicode="f" horiz-adv-x="284" d="M96 0V569Q96 618 111 653T156 707T233 726Q254 726 274 722T311 710L295 654Q281 661 267 663T239 666Q204 666 187 641T169 568V0H96ZM30 425V480L99 485H274V425H30Z" />
<glyph unicode="g" horiz-adv-x="500" d="M247 -226Q187 -226 142 -210T72 -165T47 -95Q47 -63 66 -34T118 17V21Q100 33 88 52T75 100Q75 131 92 154T128 190V194Q105 213 86 247T66 324Q66 377 90 415T155 475T245 497Q265 497 282 494T312 485H480V428H377Q396
410 408 383T420 323Q420 271 397 234T334 175T245 154Q226 154 207 158T171 171Q157 160 148 146T138 111Q138 87 156 72T224 56H321Q405 56 446 29T488 -59Q488 -103 459 -141T375 -202T247 -226ZM257 -174Q305 -174 340 -159T396 -120T416 -69Q416 -34 391 -20T315
-6H226Q215 -6 198 -4T164 2Q136 -18 124 -40T111 -85Q111 -126 150 -150T257 -174ZM245 204Q274 204 298 219T338 261T353 324Q353 361 339 387T300 428T245 443Q200 443 168 412T136 324Q136 288 151 261T190 219T245 204Z" />
<glyph unicode="h" horiz-adv-x="540" d="M85 0V714H157V516L155 414Q190 449 229 473T317 497Q394 497 429 449T465 308V0H392V299Q392 369 370 401T296 433Q257 433 227 414T157 355V0H85Z" />
<glyph unicode="i" horiz-adv-x="242" d="M85 0V485H157V0H85ZM122 589Q101 589 87 603T72 640Q72 661 86 675T122 689Q144 689 158 675T172 640Q172 617 158 603T122 589Z" />
<glyph unicode="j" horiz-adv-x="242" d="M33 -220Q12 -220 -5 -216T-36 -208L-21 -152Q-12 -155 0 -157T26 -160Q63 -160 75 -134T87 -63L88 485H160V-64Q160 -113 147 -148T106 -201T33 -220ZM33 -220Q12 -220 -5 -216T-36 -208L-21 -152Q-12 -155 0 -157T26
-160Q63 -160 75 -134T87 -63L88 485H160V-64Q160 -113 147 -148T106 -201T33 -220ZM122 589Q101 589 87 603T72 640Q72 661 86 675T122 689Q144 689 158 675T172 640Q172 617 158 603T122 589Z" />
<glyph unicode="k" horiz-adv-x="487" d="M85 0V714H156V220H159L374 485H455L293 291L477 0H398L251 240L156 128V0H85Z" />
<glyph unicode="l" horiz-adv-x="250" d="M164 -12Q136 -12 119 -1T93 33T85 89V714H157V83Q157 65 164 57T180 49Q183 49 187 49T198 51L208 -5Q200 -8 190 -10T164 -12Z" />
<glyph unicode="m" horiz-adv-x="825" d="M85 0V485H145L151 413H154Q186 448 224 472T305 497Q362 497 393 472T439 403Q478 445 517 471T600 497Q675 497 711 449T747 308V0H674V299Q674 369 652 401T579 433Q550 433 519 414T452 355V0H379V299Q379 369 357
401T285 433Q227 433 157 355V0H85Z" />
<glyph unicode="n" horiz-adv-x="543" d="M85 0V485H145L151 413H154Q189 449 228 473T317 497Q394 497 429 449T465 308V0H392V299Q392 369 370 401T296 433Q257 433 227 414T157 355V0H85Z" />
<glyph unicode="o" horiz-adv-x="540" d="M270 -12Q211 -12 160 18T78 104T47 242Q47 322 78 379T160 467T270 497Q329 497 379 467T461 380T493 242Q493 161 462 105T380 18T270 -12ZM270 49Q314 49 347 73T399 140T418 242Q418 299 400 343T348 411T270 436Q227
436 194 412T142 343T123 242Q123 184 141 141T193 73T270 49Z" />
<glyph unicode="p" horiz-adv-x="552" d="M85 -208V485H145L151 427H154Q187 455 227 476T311 497Q374 497 417 467T481 380T503 250Q503 167 474 109T396 19T293 -12Q259 -12 225 3T155 45L157 -41V-208H85ZM281 50Q324 50 357 74T409 143T428 249Q428 304 415
346T372 411T294 435Q262 435 229 418T157 365V103Q192 74 224 62T281 50Z" />
<glyph unicode="q" horiz-adv-x="552" d="M395 -208V-32L398 58Q368 29 330 9T248 -12Q158 -12 104 54T49 242Q49 320 78 377T156 465T260 497Q302 497 334 482T399 439H402L409 485H467V-208H395ZM264 50Q299 50 331 67T395 119V382Q362 411 333 423T271 435Q230
435 197 411T144 343T124 242Q124 153 160 102T264 50Z" />
<glyph unicode="r" horiz-adv-x="340" d="M85 0V485H145L151 396H154Q179 442 214 469T292 497Q307 497 319 495T342 487L328 423Q316 427 307 429T282 431Q251 431 217 406T157 316V0H85Z" />
<glyph unicode="s" horiz-adv-x="416" d="M209 -12Q157 -12 110 7T29 55L66 104Q97 79 131 62T212 45Q262 45 287 69T312 126Q312 152 295 169T253 199T199 222Q165 234 131 251T75 294T52 361Q52 418 95 457T217 497Q261 497 299 481T364 443L329 396Q304 414
278 426T217 439Q169 439 146 417T123 365Q123 341 138 326T179 299T232 277Q268 264 302 248T360 204T383 130Q383 92 363 60T304 8T209 -12Z" />
<glyph unicode="t" horiz-adv-x="331" d="M232 -12Q156 -12 127 32T98 146V425H25V480L101 485L110 622H171V485H304V425H171V144Q171 99 187 74T248 48Q261 48 276 52T304 61L319 6Q299 -1 276 -6T232 -12Z" />
<glyph unicode="u" horiz-adv-x="540" d="M225 -12Q150 -12 114 36T78 177V485H150V186Q150 116 173 84T247 51Q285 51 316 71T383 137V485H456V0H395L389 77H386Q352 37 314 13T225 -12Z" />
<glyph unicode="v" horiz-adv-x="459" d="M189 0L12 485H87L183 202Q194 167 206 131T229 60H233Q244 95 256 131T279 202L375 485H447L273 0H189Z" />
<glyph unicode="w" horiz-adv-x="710" d="M161 0L24 485H99L175 196Q183 162 190 129T204 62H208Q216 96 224 129T242 196L320 485H393L472 196Q481 162 489 129T506 62H510Q518 96 525 129T542 196L616 485H686L554 0H464L390 271Q382 306 374 340T357 410H353Q344
374 336 339T318 269L246 0H161Z" />
<glyph unicode="x" horiz-adv-x="436" d="M14 0L174 253L26 485H105L173 374Q185 354 197 334T222 294H226Q238 314 249 334T271 374L334 485H410L263 246L422 0H343L268 118Q256 140 242 162T215 205H211Q198 184 186 162T160 118L90 0H14Z" />
<glyph unicode="y" horiz-adv-x="459" d="M86 -212Q70 -212 56 -209T31 -202L45 -143Q53 -146 63 -148T83 -151Q125 -151 153 -120T196 -40L208 -3L12 485H87L191 207Q202 176 215 141T239 71H243Q254 104 264 139T285 207L376 485H447L263 -45Q246 -91 223 -129T167
-189T86 -212Z" />
<glyph unicode="z" horiz-adv-x="419" d="M30 0V39L293 425H59V485H385V446L122 60H394V0H30Z" />
<glyph unicode="{" horiz-adv-x="297" d="M227 -152Q168 -152 140 -125T112 -20Q112 16 114 48T118 111T120 176Q120 206 103 230T34 255V301Q68 302 87 313T113 342T120 379Q120 413 118 444T114 508T112 576Q112 653 140 680T227 708H269V666H242Q200 666 186
644T171 571Q171 526 174 483T177 387Q177 340 164 315T119 280V276Q151 267 164 241T177 169Q177 117 174 74T171 -15Q171 -65 185 -87T242 -110H269V-152H227Z" />
<glyph unicode="|" horiz-adv-x="237" d="M92 -250V750H145V-250H92Z" />
<glyph unicode="}" horiz-adv-x="297" d="M28 -152V-110H55Q97 -110 111 -88T126 -15Q126 31 123 74T120 169Q120 215 133 241T178 276V280Q146 289 133 314T120 387Q120 440 123 483T126 571Q126 621 112 643T55 666H28V708H70Q129 708 157 681T185 576Q185 540
183 508T179 445T177 379Q177 360 184 342T210 313T263 301V255Q212 254 195 230T177 176Q177 142 179 111T183 48T185 -20Q185 -97 157 -124T70 -152H28Z" />
<glyph unicode="~" horiz-adv-x="492" d="M334 259Q305 259 282 272T238 302T197 332T156 345Q135 345 116 331T79 284L37 312Q63 359 95 380T158 401Q188 401 211 388T255 358T295 328T336 315Q358 315 377 329T413 376L455 346Q430 301 398 280T334 259Z" />
<glyph unicode="&#xa0;" horiz-adv-x="200" />
<glyph unicode="&#xa1;" horiz-adv-x="282" d="M104 -185L106 -98L116 291H166L176 -98L178 -185H104ZM141 380Q119 380 103 396T86 439Q86 465 102 481T141 497Q164 497 180 481T196 439Q196 413 180 397T141 380Z" />
<glyph unicode="&#xa2;" horiz-adv-x="492" d="M293 72Q225 72 173 100T91 181T61 310Q61 387 93 440T179 520T298 548Q346 548 380 531T439 490L403 444Q382 464 357 475T301 487Q251 487 214 465T155 404T134 310Q134 230 178 182T299 133Q335 133 364 147T417
182L450 135Q417 107 377 90T293 72ZM260 -31V653H308V-31H260Z" />
<glyph unicode="&#xa3;" horiz-adv-x="492" d="M54 0V44Q107 73 133 122T160 228Q160 269 148 309T124 390T111 470Q111 525 134 566T197 628T293 650Q346 650 383 629T445 576L402 534Q383 559 358 574T297 589Q242 589 213 556T183 468Q183 429 194 391T215
313T226 227Q226 172 210 136T162 67V63H447V0H54ZM53 287V335L120 338H369V287H53Z" />
<glyph unicode="&#xa4;" horiz-adv-x="492" d="M67 105L28 146L92 212Q74 236 65 265T55 329Q55 364 64 393T91 447L28 513L67 554L134 485Q183 524 246 524Q309 524 358 485L425 554L465 513L400 447Q417 423 427 394T437 329Q437 294 427 265T400 212L465 146L425
105L358 174Q335 155 306 145T246 135Q182 135 134 174L67 105ZM246 190Q280 190 308 207T352 256T369 329Q369 370 353 401T308 451T246 469Q213 469 185 451T140 402T123 329Q123 287 140 256T185 208T246 190Z" />
<glyph unicode="&#xa5;" horiz-adv-x="492" d="M209 0V160H47V204H209V271H47V314H190L25 638H101L183 461Q199 428 214 395T245 326H249Q266 362 281 395T312 461L394 638H468L301 314H446V271H282V204H446V160H282V0H209Z" />
<glyph unicode="&#xa6;" horiz-adv-x="237" d="M92 288V750H145V288H92ZM92 -250V215H145V-250H92Z" />
<glyph unicode="&#xa7;" horiz-adv-x="492" d="M336 142L296 180Q338 197 360 218T382 278Q382 315 362 338T309 377T241 409T174 442T122 487T101 557Q101 590 117 619T166 666T248 684Q294 684 332 667T399 627L363 580Q339 600 312 613T251 626Q207 626 188
606T168 560Q168 531 188 512T239 479T306 449T373 412T425 361T446 284Q446 247 432 221T393 176T336 142ZM235 -61Q183 -61 140 -42T65 8L110 49Q135 25 164 11T235 -4Q277 -4 300 17T324 69Q324 99 304 118T253 153T186 183T118 218T67 269T47 345Q47 396 78
431T155 486L189 448Q154 430 133 408T111 350Q111 316 131 293T183 254T251 223T319 190T371 143T391 73Q391 34 371 4T316 -43T235 -61Z" />
<glyph unicode="&#xa8;" horiz-adv-x="540" d="M364 590Q345 590 332 603T318 636Q318 656 331 669T364 683Q385 683 398 670T411 636Q411 617 398 604T364 590ZM176 590Q156 590 143 603T129 636Q129 656 142 669T176 683Q196 683 209 670T222 636Q222 617 209
604T176 590Z" />
<glyph unicode="&#xa9;" horiz-adv-x="744" d="M372 -11Q307 -11 249 12T146 79T76 185T50 323Q50 399 75 460T145 564T248 630T372 653Q437 653 495 630T598 564T668 460T694 323Q694 247 669 185T598 80T495 13T372 -11ZM379 125Q329 125 289 148T224 216T199
323Q199 381 225 423T292 488T382 511Q424 511 453 495T506 455L474 419Q453 439 433 450T385 461Q329 461 294 423T259 323Q259 254 292 215T381 176Q415 176 440 189T487 221L514 182Q487 158 456 142T379 125ZM372 28Q429 28 479 49T568 109T628 202T650 323Q650
389 628 442T568 534T480 594T372 615Q315 615 265 594T176 535T115 443T93 323Q93 257 115 203T175 109T264 49T372 28Z" />
<glyph unicode="&#xaa;" horiz-adv-x="343" d="M136 389Q93 389 66 415T39 483Q39 536 86 564T239 602Q238 635 225 657T175 680Q148 680 120 669T72 645L51 684Q75 698 109 712T183 726Q243 726 268 691T294 595V397H250L243 435H239Q219 417 194 403T136 389ZM153
435Q174 435 195 445T239 477V566Q158 558 126 538T94 487Q94 461 110 448T153 435Z" />
<glyph unicode="&#xab;" horiz-adv-x="422" d="M181 67L44 224V280L181 437L214 409L95 252L214 94L181 67ZM335 67L198 224V280L335 437L368 409L249 252L368 94L335 67Z" />
<glyph unicode="&#xac;" horiz-adv-x="492" d="M399 105V302H34V358H458V105H399Z" />
<glyph unicode="&#xad;" horiz-adv-x="308" d="M41 222V279H268V222H41Z" />
<glyph unicode="&#xae;" horiz-adv-x="417" d="M209 321Q157 321 115 345T47 414T22 516Q22 575 47 619T114 688T209 713Q260 713 302 688T370 619T395 516Q395 458 370 414T303 346T209 321ZM209 355Q251 355 284 375T338 432T358 516Q358 564 338 600T285 658T209
679Q167 679 133 658T80 601T60 516Q60 469 79 433T133 376T209 355ZM137 417V621H212Q243 621 266 607T289 557Q289 539 279 523T251 501L298 417H255L218 489H176V417H137ZM176 520H202Q223 520 235 528T248 554Q248 570 239 579T205 589H176V520Z" />
<glyph unicode="&#xaf;" horiz-adv-x="540" d="M140 602V654H400V602H140Z" />
<glyph unicode="&#xb0;" horiz-adv-x="326" d="M163 434Q131 434 103 449T58 492T41 558Q41 597 58 625T103 669T163 685Q196 685 224 670T269 626T286 558Q286 520 269 492T224 449T163 434ZM163 476Q197 476 218 499T240 558Q240 595 219 618T163 642Q130 642
109 619T87 558Q87 523 108 500T163 476Z" />
<glyph unicode="&#xb1;" horiz-adv-x="492" d="M216 122V305H34V361H216V555H276V361H458V305H276V122H216ZM34 0V56H458V0H34Z" />
<glyph unicode="&#xb2;" horiz-adv-x="372" d="M59 407V441Q121 497 162 538T225 612T246 675Q246 715 225 737T168 760Q143 760 121 744T82 702L47 734Q69 767 102 788T175 809Q233 809 268 778T303 683Q303 645 284 610T230 538T152 456H323V407H59Z" />
<glyph unicode="&#xb3;" horiz-adv-x="366" d="M180 395Q132 395 96 417T37 471L76 501Q94 474 120 458T177 441Q210 441 234 460T258 514Q258 550 225 568T133 586V624Q186 624 214 645T243 698Q243 727 224 745T169 763Q147 763 126 749T88 714L53 745Q77 774
107 791T177 809Q211 809 239 797T284 761T301 705Q301 670 281 646T230 608Q264 600 290 576T316 511Q316 475 298 449T248 409T180 395Z" />
<glyph unicode="&#xb4;" horiz-adv-x="540" d="M252 573L214 610L354 774L406 726L252 573Z" />
<glyph unicode="&#xb5;" horiz-adv-x="540" d="M67 -185L69 -98L79 291H129L139 -98L141 -185H67ZM225 -12Q150 -12 114 36T78 177V485H150V186Q150 116 173 84T247 51Q285 51 316 71T383 137V485H456V0H395L389 77H386Q352 37 314 13T225 -12Z" />
<glyph unicode="&#xb6;" horiz-adv-x="548" d="M292 231Q220 231 163 253T74 322T41 445Q41 523 72 569T157 636T280 657H324V231H292ZM378 -80V657H452V-80H378Z" />
<glyph unicode="&#xb7;" horiz-adv-x="242" d="M121 264Q99 264 83 280T66 322Q66 349 82 365T121 381Q144 381 160 365T176 322Q176 296 160 280T121 264Z" />
<glyph unicode="&#xb8;" horiz-adv-x="540" d="M186 -224L178 -186Q241 -182 264 -170T288 -136Q288 -116 271 -105T210 -88L253 3H302L273 -64Q307 -72 326 -88T345 -135Q345 -177 304 -198T186 -224Z" />
<glyph unicode="&#xb9;" horiz-adv-x="348" d="M167 407V719H83V757Q115 763 136 773T177 797H225V407H167Z" />
<glyph unicode="&#xba;" horiz-adv-x="363" d="M181 389Q140 389 106 409T51 467T30 558Q30 611 51 648T106 706T181 726Q222 726 256 706T311 649T332 558Q332 505 311 468T256 410T181 389ZM181 436Q224 436 249 470T274 558Q274 613 249 646T181 680Q138 680
113 647T88 558Q88 504 113 470T181 436Z" />
<glyph unicode="&#xbb;" horiz-adv-x="422" d="M87 67L54 94L173 252L54 409L87 437L223 280V224L87 67ZM241 67L208 94L327 252L208 409L241 437L377 280V224L241 67Z" />
<glyph unicode="&#xbc;" horiz-adv-x="789" d="M186 -12L549 669H600L237 -12H186ZM159 279V591H75V629Q107 635 128 644T169 669H217V279H159ZM643 0V224L648 331H644L592 249L527 149H754V107H466V136L633 390H696V0H643Z" />
<glyph unicode="&#xbd;" horiz-adv-x="803" d="M169 -12L532 669H583L220 -12H169ZM159 279V591H75V629Q107 635 128 644T169 669H217V279H159ZM490 0V34Q552 90 593 131T656 205T677 268Q677 308 656 330T599 353Q574 353 552 337T513 295L478 327Q500 360 533
381T606 402Q664 402 699 371T734 276Q734 238 714 203T660 131T583 49H754V0H490Z" />
<glyph unicode="&#xbe;" horiz-adv-x="803" d="M221 -12L584 669H635L272 -12H221ZM180 267Q132 267 96 289T37 343L76 373Q94 346 120 330T177 313Q210 313 234 332T258 386Q258 422 225 440T133 458V496Q186 496 214 517T243 570Q243 599 224 617T169 635Q147
635 126 621T88 586L53 617Q77 646 107 663T177 681Q211 681 239 669T284 633T301 577Q301 542 281 518T230 480Q264 472 290 448T316 383Q316 347 298 321T248 281T180 267ZM657 0V224L662 331H658L606 249L541 149H768V107H480V136L647 390H710V0H657Z" />
<glyph unicode="&#xbf;" horiz-adv-x="419" d="M213 -197Q163 -197 126 -178T69 -123T48 -40Q48 0 64 32T104 93T150 151T186 214T194 291H259Q265 244 253 207T220 140T175 82T136 27T120 -35Q120 -62 131 -85T164 -122T221 -136Q255 -136 285 -121T339 -78L381
-116Q351 -150 309 -173T213 -197ZM224 380Q202 380 186 396T169 439Q169 465 185 481T224 497Q247 497 263 481T279 439Q279 413 263 397T224 380Z" />
<glyph unicode="&#xc0;" horiz-adv-x="539" d="M4 0L229 657H311L535 0H457L338 372Q320 428 304 482T270 595H266Q251 537 235 483T199 372L79 0H4ZM118 207V266H418V207H118ZM286 699L139 814L181 863L318 736L286 699Z" />
<glyph unicode="&#xc1;" horiz-adv-x="539" d="M4 0L229 657H311L535 0H457L338 372Q320 428 304 482T270 595H266Q251 537 235 483T199 372L79 0H4ZM118 207V266H418V207H118ZM250 699L218 736L355 863L397 814L250 699Z" />
<glyph unicode="&#xc2;" horiz-adv-x="539" d="M4 0L229 657H311L535 0H457L338 372Q320 428 304 482T270 595H266Q251 537 235 483T199 372L79 0H4ZM118 207V266H418V207H118ZM156 701L124 725L230 838H306L412 725L380 701L270 795H266L156 701Z" />
<glyph unicode="&#xc3;" horiz-adv-x="539" d="M4 0L229 657H311L535 0H457L338 372Q320 428 304 482T270 595H266Q251 537 235 483T199 372L79 0H4ZM118 207V266H418V207H118ZM344 711Q316 711 296 722T259 748T228 773T194 784Q174 784 161 767T144 716L94 719Q97
774 123 806T192 839Q220 839 240 828T277 803T308 777T342 766Q362 766 375 784T392 835L442 831Q440 776 414 744T344 711Z" />
<glyph unicode="&#xc4;" horiz-adv-x="539" d="M4 0L229 657H311L535 0H457L338 372Q320 428 304 482T270 595H266Q251 537 235 483T199 372L79 0H4ZM118 207V266H418V207H118ZM369 718Q350 718 337 730T324 764Q324 784 337 796T369 809Q390 809 402 797T415
764Q415 743 403 731T369 718ZM167 718Q147 718 134 730T121 764Q121 784 134 796T167 809Q187 809 199 797T212 764Q212 743 200 731T167 718Z" />
<glyph unicode="&#xc5;" horiz-adv-x="539" d="M4 0L229 657H311L535 0H457L338 372Q320 428 304 482T270 595H266Q251 537 235 483T199 372L79 0H4ZM118 207V266H418V207H118ZM268 699Q227 699 200 723T173 788Q173 829 200 853T268 878Q308 878 335 854T363
788Q363 748 336 724T268 699ZM268 733Q289 733 304 747T320 788Q320 814 305 829T268 844Q246 844 231 829T215 788Q215 761 230 747T268 733Z" />
<glyph unicode="&#xc6;" horiz-adv-x="819" d="M12 0L361 657H761V594H478V377H713V315H478V63H771V0H404V598H400Q373 544 345 489T288 379L89 0H12ZM161 198V257H450V198H161Z" />
<glyph unicode="&#xc8;" horiz-adv-x="524" d="M92 0V657H465V594H166V377H418V315H166V63H475V0H92ZM302 699L155 814L197 863L334 736L302 699Z" />
<glyph unicode="&#xc9;" horiz-adv-x="524" d="M92 0V657H465V594H166V377H418V315H166V63H475V0H92ZM266 699L234 736L371 863L413 814L266 699Z" />
<glyph unicode="&#xca;" horiz-adv-x="524" d="M92 0V657H465V594H166V377H418V315H166V63H475V0H92ZM172 701L140 725L246 838H322L428 725L396 701L286 795H282L172 701Z" />
<glyph unicode="&#xcb;" horiz-adv-x="524" d="M92 0V657H465V594H166V377H418V315H166V63H475V0H92ZM385 718Q366 718 353 730T340 764Q340 784 353 796T385 809Q406 809 418 797T431 764Q431 743 419 731T385 718ZM183 718Q163 718 150 730T137 764Q137 784
150 796T183 809Q203 809 215 797T228 764Q228 743 216 731T183 718Z" />
<glyph unicode="&#xcc;" horiz-adv-x="257" d="M92 0V657H166V0H92ZM147 699L0 814L42 863L179 736L147 699Z" />
<glyph unicode="&#xcd;" horiz-adv-x="257" d="M92 0V657H166V0H92ZM111 699L79 736L216 863L258 814L111 699Z" />
<glyph unicode="&#xce;" horiz-adv-x="257" d="M92 0V657H166V0H92ZM17 701L-15 725L91 838H167L273 725L241 701L131 795H127L17 701Z" />
<glyph unicode="&#xcf;" horiz-adv-x="257" d="M92 0V657H166V0H92ZM230 718Q211 718 198 730T185 764Q185 784 198 796T230 809Q251 809 263 797T276 764Q276 743 264 731T230 718ZM28 718Q8 718 -5 730T-18 764Q-18 784 -5 796T28 809Q48 809 60 797T73 764Q73
743 61 731T28 718Z" />
<glyph unicode="&#xd0;" horiz-adv-x="634" d="M34 323V364L115 367H340V323H34ZM113 0V657H275Q376 657 444 619T547 507T582 331Q582 228 548 154T445 40T278 0H113ZM187 61H269Q349 61 401 94T479 187T505 331Q505 415 479 474T401 564T269 596H187V61Z" />
<glyph unicode="&#xd1;" horiz-adv-x="644" d="M92 0V657H168L416 231L488 96H492Q489 146 486 198T482 301V657H552V0H476L228 426L156 561H152Q156 512 159 462T162 360V0H92ZM402 711Q374 711 354 722T317 748T286 773T252 784Q232 784 219 767T202 716L152
719Q155 774 181 806T250 839Q278 839 298 828T335 803T366 777T400 766Q420 766 433 784T450 835L500 831Q498 776 472 744T402 711Z" />
<glyph unicode="&#xd2;" horiz-adv-x="661" d="M331 -12Q249 -12 187 30T88 149T52 331Q52 436 88 512T186 628T331 669Q412 669 475 629T573 512T609 331Q609 226 574 149T475 30T331 -12ZM331 53Q391 53 436 87T507 184T532 331Q532 415 507 476T437 570T331
604Q270 604 225 571T154 476T129 331Q129 247 154 185T224 88T331 53ZM349 699L202 814L244 863L381 736L349 699Z" />
<glyph unicode="&#xd3;" horiz-adv-x="661" d="M331 -12Q249 -12 187 30T88 149T52 331Q52 436 88 512T186 628T331 669Q412 669 475 629T573 512T609 331Q609 226 574 149T475 30T331 -12ZM331 53Q391 53 436 87T507 184T532 331Q532 415 507 476T437 570T331
604Q270 604 225 571T154 476T129 331Q129 247 154 185T224 88T331 53ZM313 699L281 736L418 863L460 814L313 699Z" />
<glyph unicode="&#xd4;" horiz-adv-x="661" d="M331 -12Q249 -12 187 30T88 149T52 331Q52 436 88 512T186 628T331 669Q412 669 475 629T573 512T609 331Q609 226 574 149T475 30T331 -12ZM331 53Q391 53 436 87T507 184T532 331Q532 415 507 476T437 570T331
604Q270 604 225 571T154 476T129 331Q129 247 154 185T224 88T331 53ZM219 701L187 725L293 838H369L475 725L443 701L333 795H329L219 701Z" />
<glyph unicode="&#xd5;" horiz-adv-x="661" d="M331 -12Q249 -12 187 30T88 149T52 331Q52 436 88 512T186 628T331 669Q412 669 475 629T573 512T609 331Q609 226 574 149T475 30T331 -12ZM331 53Q391 53 436 87T507 184T532 331Q532 415 507 476T437 570T331
604Q270 604 225 571T154 476T129 331Q129 247 154 185T224 88T331 53ZM407 711Q379 711 359 722T322 748T291 773T257 784Q237 784 224 767T207 716L157 719Q160 774 186 806T255 839Q283 839 303 828T340 803T371 777T405 766Q425 766 438 784T455 835L505 831Q503
776 477 744T407 711Z" />
<glyph unicode="&#xd6;" horiz-adv-x="661" d="M331 -12Q249 -12 187 30T88 149T52 331Q52 436 88 512T186 628T331 669Q412 669 475 629T573 512T609 331Q609 226 574 149T475 30T331 -12ZM331 53Q391 53 436 87T507 184T532 331Q532 415 507 476T437 570T331
604Q270 604 225 571T154 476T129 331Q129 247 154 185T224 88T331 53ZM432 718Q413 718 400 730T387 764Q387 784 400 796T432 809Q453 809 465 797T478 764Q478 743 466 731T432 718ZM230 718Q210 718 197 730T184 764Q184 784 197 796T230 809Q250 809 262 797T275
764Q275 743 263 731T230 718Z" />
<glyph unicode="&#xd7;" horiz-adv-x="492" d="M90 128L51 169L207 330L51 490L90 531L246 369L402 531L442 490L286 330L442 169L402 128L246 290L90 128Z" />
<glyph unicode="&#xd8;" horiz-adv-x="661" d="M93 -28L51 4L571 685L613 653L93 -28ZM333 -12Q252 -12 189 30T91 149T55 331Q55 436 90 512T189 628T333 669Q415 669 477 629T576 512T612 331Q612 226 576 149T478 30T333 -12ZM333 53Q394 53 439 87T510 184T535
331Q535 415 510 476T440 570T333 604Q273 604 228 571T157 476T132 331Q132 247 157 185T227 88T333 53Z" />
<glyph unicode="&#xd9;" horiz-adv-x="643" d="M321 -12Q273 -12 231 2T157 49T107 134T89 266V657H163V266Q163 185 184 139T241 73T321 53Q366 53 402 72T461 138T483 266V657H554V266Q554 188 536 135T486 49T412 3T321 -12ZM339 699L192 814L234 863L371 736L339
699Z" />
<glyph unicode="&#xda;" horiz-adv-x="643" d="M321 -12Q273 -12 231 2T157 49T107 134T89 266V657H163V266Q163 185 184 139T241 73T321 53Q366 53 402 72T461 138T483 266V657H554V266Q554 188 536 135T486 49T412 3T321 -12ZM303 699L271 736L408 863L450 814L303
699Z" />
<glyph unicode="&#xdb;" horiz-adv-x="643" d="M321 -12Q273 -12 231 2T157 49T107 134T89 266V657H163V266Q163 185 184 139T241 73T321 53Q366 53 402 72T461 138T483 266V657H554V266Q554 188 536 135T486 49T412 3T321 -12ZM209 701L177 725L283 838H359L465
725L433 701L323 795H319L209 701Z" />
<glyph unicode="&#xdc;" horiz-adv-x="643" d="M321 -12Q273 -12 231 2T157 49T107 134T89 266V657H163V266Q163 185 184 139T241 73T321 53Q366 53 402 72T461 138T483 266V657H554V266Q554 188 536 135T486 49T412 3T321 -12ZM422 718Q403 718 390 730T377 764Q377
784 390 796T422 809Q443 809 455 797T468 764Q468 743 456 731T422 718ZM220 718Q200 718 187 730T174 764Q174 784 187 796T220 809Q240 809 252 797T265 764Q265 743 253 731T220 718Z" />
<glyph unicode="&#xdd;" horiz-adv-x="468" d="M197 0V258L0 657H79L167 466Q184 430 199 395T232 323H236Q254 360 271 395T304 466L392 657H469L271 258V0H197ZM216 699L184 736L321 863L363 814L216 699Z" />
<glyph unicode="&#xde;" horiz-adv-x="578" d="M92 0V657H166V545H288Q360 545 414 527T498 467T528 354Q528 286 498 242T414 176T288 154H166V0H92ZM166 214H277Q367 214 410 248T454 354Q454 428 410 456T277 484H166V214Z" />
<glyph unicode="&#xdf;" horiz-adv-x="567" d="M382 -12Q341 -12 307 1T242 38L272 89Q300 67 325 56T380 45Q424 45 446 71T469 130Q469 161 455 181T417 215T369 241T321 269T284 308T269 366Q269 401 282 426T314 472T346 518T360 574Q360 613 338 638T273
664Q219 664 188 625T157 504V0H85V519Q85 582 107 628T172 699T274 724Q324 724 359 705T412 653T431 581Q431 543 417 516T385 467T352 424T338 374Q338 349 352 333T390 304T438 278T486 247T523 203T538 134Q538 93 519 60T465 8T382 -12Z" />
<glyph unicode="&#xe0;" horiz-adv-x="501" d="M195 -12Q155 -12 123 4T72 50T53 124Q53 204 125 246T355 306Q355 338 347 368T316 417T251 436Q207 436 170 419T104 383L75 433Q96 447 125 462T189 487T263 497Q321 497 357 472T410 403T427 300V0H367L361 59H358Q323
30 282 9T195 -12ZM214 47Q251 47 284 64T355 115V257Q269 247 219 230T147 187T125 129Q125 86 151 67T214 47ZM287 573L133 726L185 774L325 610L287 573Z" />
<glyph unicode="&#xe1;" horiz-adv-x="501" d="M195 -12Q155 -12 123 4T72 50T53 124Q53 204 125 246T355 306Q355 338 347 368T316 417T251 436Q207 436 170 419T104 383L75 433Q96 447 125 462T189 487T263 497Q321 497 357 472T410 403T427 300V0H367L361 59H358Q323
30 282 9T195 -12ZM214 47Q251 47 284 64T355 115V257Q269 247 219 230T147 187T125 129Q125 86 151 67T214 47ZM251 573L213 610L353 774L405 726L251 573Z" />
<glyph unicode="&#xe2;" horiz-adv-x="501" d="M195 -12Q155 -12 123 4T72 50T53 124Q53 204 125 246T355 306Q355 338 347 368T316 417T251 436Q207 436 170 419T104 383L75 433Q96 447 125 462T189 487T263 497Q321 497 357 472T410 403T427 300V0H367L361 59H358Q323
30 282 9T195 -12ZM214 47Q251 47 284 64T355 115V257Q269 247 219 230T147 187T125 129Q125 86 151 67T214 47ZM150 569L118 598L233 739H305L420 598L388 569L271 685H267L150 569Z" />
<glyph unicode="&#xe3;" horiz-adv-x="501" d="M195 -12Q155 -12 123 4T72 50T53 124Q53 204 125 246T355 306Q355 338 347 368T316 417T251 436Q207 436 170 419T104 383L75 433Q96 447 125 462T189 487T263 497Q321 497 357 472T410 403T427 300V0H367L361 59H358Q323
30 282 9T195 -12ZM214 47Q251 47 284 64T355 115V257Q269 247 219 230T147 187T125 129Q125 86 151 67T214 47ZM342 578Q315 578 296 591T260 621T230 651T196 664Q173 664 162 642T148 582L98 585Q100 623 110 652T141 700T197 718Q224 718 243 705T278 675T309
644T342 631Q366 631 377 654T390 714L440 710Q438 674 428 644T398 596T342 578Z" />
<glyph unicode="&#xe4;" horiz-adv-x="501" d="M195 -12Q155 -12 123 4T72 50T53 124Q53 204 125 246T355 306Q355 338 347 368T316 417T251 436Q207 436 170 419T104 383L75 433Q96 447 125 462T189 487T263 497Q321 497 357 472T410 403T427 300V0H367L361 59H358Q323
30 282 9T195 -12ZM214 47Q251 47 284 64T355 115V257Q269 247 219 230T147 187T125 129Q125 86 151 67T214 47ZM363 590Q344 590 331 603T317 636Q317 656 330 669T363 683Q384 683 397 670T410 636Q410 617 397 604T363 590ZM175 590Q155 590 142 603T128 636Q128
656 141 669T175 683Q195 683 208 670T221 636Q221 617 208 604T175 590Z" />
<glyph unicode="&#xe5;" horiz-adv-x="501" d="M195 -12Q155 -12 123 4T72 50T53 124Q53 204 125 246T355 306Q355 338 347 368T316 417T251 436Q207 436 170 419T104 383L75 433Q96 447 125 462T189 487T263 497Q321 497 357 472T410 403T427 300V0H367L361 59H358Q323
30 282 9T195 -12ZM214 47Q251 47 284 64T355 115V257Q269 247 219 230T147 187T125 129Q125 86 151 67T214 47ZM269 553Q221 553 192 580T163 650Q163 693 192 720T269 748Q318 748 346 721T375 650Q375 608 347 581T269 553ZM269 587Q294 587 311 604T328 650Q328
679 311 696T269 714Q245 714 228 697T210 650Q210 621 227 604T269 587Z" />
<glyph unicode="&#xe6;" horiz-adv-x="785" d="M202 -12Q162 -12 130 3T79 49T60 124Q60 204 132 246T357 306Q357 339 349 369T319 417T254 436Q213 436 176 419T111 383L82 433Q103 447 131 462T193 487T262 497Q318 497 353 468T402 389Q430 439 471 468T563
497Q622 497 663 469T726 390T747 269Q747 257 747 246T744 226H425Q426 173 447 133T503 71T581 48Q618 48 646 59T701 89L728 38Q697 18 660 3T572 -12Q531 -12 500 1T444 35T401 81Q353 37 301 13T202 -12ZM221 47Q256 47 298 68T376 126Q368 146 363 174T357
232L356 257Q234 242 183 211T132 129Q132 86 158 67T221 47ZM425 275H682Q682 355 651 396T562 438Q527 438 498 418T449 362T425 275Z" />
<glyph unicode="&#xe7;" horiz-adv-x="454" d="M273 -12Q209 -12 158 18T77 104T47 242Q47 322 79 379T164 467T278 497Q326 497 360 480T419 439L381 391Q360 411 336 423T281 436Q235 436 200 412T144 343T123 242Q123 184 142 141T197 73T279 49Q314 49 344
63T397 99L429 50Q397 21 357 5T273 -12ZM186 -224L178 -186Q241 -182 264 -170T288 -136Q288 -116 271 -105T210 -88L253 3H302L273 -64Q307 -72 326 -88T345 -135Q345 -177 304 -198T186 -224Z" />
<glyph unicode="&#xe8;" horiz-adv-x="492" d="M277 -12Q213 -12 161 18T78 105T47 242Q47 320 78 377T158 466T264 497Q324 497 367 469T432 391T455 270Q455 259 454 247T451 226H104L103 279H390Q390 357 357 397T265 438Q229 438 195 418T139 354T117 242Q117
177 140 134T201 69T286 47Q322 47 352 58T409 86L436 38Q405 18 367 3T277 -12ZM284 573L130 726L182 774L322 610L284 573Z" />
<glyph unicode="&#xe9;" horiz-adv-x="492" d="M277 -12Q213 -12 161 18T78 105T47 242Q47 320 78 377T158 466T264 497Q324 497 367 469T432 391T455 270Q455 259 454 247T451 226H104L103 279H390Q390 357 357 397T265 438Q229 438 195 418T139 354T117 242Q117
177 140 134T201 69T286 47Q322 47 352 58T409 86L436 38Q405 18 367 3T277 -12ZM248 573L210 610L350 774L402 726L248 573Z" />
<glyph unicode="&#xea;" horiz-adv-x="492" d="M277 -12Q213 -12 161 18T78 105T47 242Q47 320 78 377T158 466T264 497Q324 497 367 469T432 391T455 270Q455 259 454 247T451 226H104L103 279H390Q390 357 357 397T265 438Q229 438 195 418T139 354T117 242Q117
177 140 134T201 69T286 47Q322 47 352 58T409 86L436 38Q405 18 367 3T277 -12ZM147 569L115 598L230 739H302L417 598L385 569L268 685H264L147 569Z" />
<glyph unicode="&#xeb;" horiz-adv-x="492" d="M277 -12Q213 -12 161 18T78 105T47 242Q47 320 78 377T158 466T264 497Q324 497 367 469T432 391T455 270Q455 259 454 247T451 226H104L103 279H390Q390 357 357 397T265 438Q229 438 195 418T139 354T117 242Q117
177 140 134T201 69T286 47Q322 47 352 58T409 86L436 38Q405 18 367 3T277 -12ZM360 590Q341 590 328 603T314 636Q314 656 327 669T360 683Q381 683 394 670T407 636Q407 617 394 604T360 590ZM172 590Q152 590 139 603T125 636Q125 656 138 669T172 683Q192
683 205 670T218 636Q218 617 205 604T172 590Z" />
<glyph unicode="&#xec;" horiz-adv-x="242" d="M85 0V485H157V0H85ZM140 573L-14 726L38 774L178 610L140 573Z" />
<glyph unicode="&#xed;" horiz-adv-x="242" d="M85 0V485H157V0H85ZM104 573L66 610L206 774L258 726L104 573Z" />
<glyph unicode="&#xee;" horiz-adv-x="242" d="M85 0V485H157V0H85ZM3 569L-29 598L86 739H158L273 598L241 569L124 685H120L3 569Z" />
<glyph unicode="&#xef;" horiz-adv-x="242" d="M85 0V485H157V0H85ZM216 590Q197 590 184 603T170 636Q170 656 183 669T216 683Q237 683 250 670T263 636Q263 617 250 604T216 590ZM28 590Q8 590 -5 603T-19 636Q-19 656 -6 669T28 683Q48 683 61 670T74 636Q74
617 61 604T28 590Z" />
<glyph unicode="&#xf0;" horiz-adv-x="542" d="M268 -12Q213 -12 165 16T86 96T55 222Q55 289 82 339T155 417T261 445Q306 445 346 424T413 356L414 303Q379 355 343 371T271 388Q224 388 191 366T141 307T124 222Q124 170 144 131T197 71T270 49Q317 49 348
75T394 147T410 253Q410 343 391 409T335 525T249 611T140 682L173 729Q233 697 288 656T386 558T455 427T481 256Q481 176 454 116T380 22T268 -12ZM148 504L127 541L454 710L475 672L148 504Z" />
<glyph unicode="&#xf1;" horiz-adv-x="543" d="M85 0V485H145L151 413H154Q189 449 228 473T317 497Q394 497 429 449T465 308V0H392V299Q392 369 370 401T296 433Q257 433 227 414T157 355V0H85ZM364 578Q337 578 318 591T282 621T252 651T218 664Q195 664 184
642T170 582L120 585Q122 623 132 652T163 700T219 718Q246 718 265 705T300 675T331 644T364 631Q388 631 399 654T412 714L462 710Q460 674 450 644T420 596T364 578Z" />
<glyph unicode="&#xf2;" horiz-adv-x="540" d="M270 -12Q211 -12 160 18T78 104T47 242Q47 322 78 379T160 467T270 497Q329 497 379 467T461 380T493 242Q493 161 462 105T380 18T270 -12ZM270 49Q314 49 347 73T399 140T418 242Q418 299 400 343T348 411T270
436Q227 436 194 412T142 343T123 242Q123 184 141 141T193 73T270 49ZM288 573L134 726L186 774L326 610L288 573Z" />
<glyph unicode="&#xf3;" horiz-adv-x="540" d="M270 -12Q211 -12 160 18T78 104T47 242Q47 322 78 379T160 467T270 497Q329 497 379 467T461 380T493 242Q493 161 462 105T380 18T270 -12ZM270 49Q314 49 347 73T399 140T418 242Q418 299 400 343T348 411T270
436Q227 436 194 412T142 343T123 242Q123 184 141 141T193 73T270 49ZM252 573L214 610L354 774L406 726L252 573Z" />
<glyph unicode="&#xf4;" horiz-adv-x="540" d="M270 -12Q211 -12 160 18T78 104T47 242Q47 322 78 379T160 467T270 497Q329 497 379 467T461 380T493 242Q493 161 462 105T380 18T270 -12ZM270 49Q314 49 347 73T399 140T418 242Q418 299 400 343T348 411T270
436Q227 436 194 412T142 343T123 242Q123 184 141 141T193 73T270 49ZM151 569L119 598L234 739H306L421 598L389 569L272 685H268L151 569Z" />
<glyph unicode="&#xf5;" horiz-adv-x="540" d="M270 -12Q211 -12 160 18T78 104T47 242Q47 322 78 379T160 467T270 497Q329 497 379 467T461 380T493 242Q493 161 462 105T380 18T270 -12ZM270 49Q314 49 347 73T399 140T418 242Q418 299 400 343T348 411T270
436Q227 436 194 412T142 343T123 242Q123 184 141 141T193 73T270 49ZM343 578Q316 578 297 591T261 621T231 651T197 664Q174 664 163 642T149 582L99 585Q101 623 111 652T142 700T198 718Q225 718 244 705T279 675T310 644T343 631Q367 631 378 654T391 714L441
710Q439 674 429 644T399 596T343 578Z" />
<glyph unicode="&#xf6;" horiz-adv-x="540" d="M270 -12Q211 -12 160 18T78 104T47 242Q47 322 78 379T160 467T270 497Q329 497 379 467T461 380T493 242Q493 161 462 105T380 18T270 -12ZM270 49Q314 49 347 73T399 140T418 242Q418 299 400 343T348 411T270
436Q227 436 194 412T142 343T123 242Q123 184 141 141T193 73T270 49ZM364 590Q345 590 332 603T318 636Q318 656 331 669T364 683Q385 683 398 670T411 636Q411 617 398 604T364 590ZM176 590Q156 590 143 603T129 636Q129 656 142 669T176 683Q196 683 209 670T222
636Q222 617 209 604T176 590Z" />
<glyph unicode="&#xf7;" horiz-adv-x="492" d="M34 302V358H458V302H34ZM246 99Q225 99 211 113T196 150Q196 172 210 186T246 200Q268 200 282 186T296 150Q296 128 282 114T246 99ZM246 459Q225 459 211 473T196 510Q196 532 210 546T246 560Q268 560 282 546T296
510Q296 488 282 474T246 459Z" />
<glyph unicode="&#xf8;" horiz-adv-x="540" d="M80 -23L46 4L460 507L494 480L80 -23ZM270 -12Q211 -12 160 18T78 104T47 242Q47 322 78 379T160 467T270 497Q329 497 379 467T461 380T493 242Q493 161 462 105T380 18T270 -12ZM270 47Q314 47 348 71T401 138T421
239Q421 300 402 344T349 413T270 437Q227 437 193 413T140 346T120 245Q120 184 139 140T192 71T270 47Z" />
<glyph unicode="&#xf9;" horiz-adv-x="540" d="M225 -12Q150 -12 114 36T78 177V485H150V186Q150 116 173 84T247 51Q285 51 316 71T383 137V485H456V0H395L389 77H386Q352 37 314 13T225 -12ZM291 573L137 726L189 774L329 610L291 573Z" />
<glyph unicode="&#xfa;" horiz-adv-x="540" d="M225 -12Q150 -12 114 36T78 177V485H150V186Q150 116 173 84T247 51Q285 51 316 71T383 137V485H456V0H395L389 77H386Q352 37 314 13T225 -12ZM255 573L217 610L357 774L409 726L255 573Z" />
<glyph unicode="&#xfb;" horiz-adv-x="540" d="M225 -12Q150 -12 114 36T78 177V485H150V186Q150 116 173 84T247 51Q285 51 316 71T383 137V485H456V0H395L389 77H386Q352 37 314 13T225 -12ZM154 569L122 598L237 739H309L424 598L392 569L275 685H271L154 569Z" />
<glyph unicode="&#xfc;" horiz-adv-x="540" d="M225 -12Q150 -12 114 36T78 177V485H150V186Q150 116 173 84T247 51Q285 51 316 71T383 137V485H456V0H395L389 77H386Q352 37 314 13T225 -12ZM367 590Q348 590 335 603T321 636Q321 656 334 669T367 683Q388 683
401 670T414 636Q414 617 401 604T367 590ZM179 590Q159 590 146 603T132 636Q132 656 145 669T179 683Q199 683 212 670T225 636Q225 617 212 604T179 590Z" />
<glyph unicode="&#xfd;" horiz-adv-x="459" d="M86 -212Q70 -212 56 -209T31 -202L45 -143Q53 -146 63 -148T83 -151Q125 -151 153 -120T196 -40L208 -3L12 485H87L191 207Q202 176 215 141T239 71H243Q254 104 264 139T285 207L376 485H447L263 -45Q246 -91 223
-129T167 -189T86 -212ZM223 573L185 610L325 774L377 726L223 573Z" />
<glyph unicode="&#xfe;" horiz-adv-x="552" d="M85 -208V714H157V517L156 432Q189 458 228 477T308 497Q372 497 415 467T481 380T503 250Q503 167 474 109T396 19T293 -12Q258 -12 224 2T156 43L157 -41V-208H85ZM281 50Q324 50 357 74T409 143T428 249Q428 304
415 346T372 411T294 435Q262 435 229 418T157 365V103Q192 74 224 62T281 50Z" />
<glyph unicode="&#xff;" horiz-adv-x="459" d="M86 -212Q70 -212 56 -209T31 -202L45 -143Q53 -146 63 -148T83 -151Q125 -151 153 -120T196 -40L208 -3L12 485H87L191 207Q202 176 215 141T239 71H243Q254 104 264 139T285 207L376 485H447L263 -45Q246 -91 223
-129T167 -189T86 -212ZM335 590Q316 590 303 603T289 636Q289 656 302 669T335 683Q356 683 369 670T382 636Q382 617 369 604T335 590ZM147 590Q127 590 114 603T100 636Q100 656 113 669T147 683Q167 683 180 670T193 636Q193 617 180 604T147 590Z" />
<glyph unicode="&#x2013;" horiz-adv-x="480" d="M41 225V277H439V225H41Z" />
<glyph unicode="&#x2014;" horiz-adv-x="800" d="M41 225V277H759V225H41Z" />
<glyph unicode="&#x2018;" horiz-adv-x="242" d="M115 441Q88 441 73 463T57 526Q57 584 83 626T158 698L180 663Q144 638 126 610T107 538L119 474L79 523Q88 532 96 536T115 540Q134 540 149 528T165 493Q165 469 151 455T115 441Z" />
<glyph unicode="&#x2019;" horiz-adv-x="242" d="M83 442L61 477Q98 502 116 531T135 602L122 666L163 617Q154 608 146 604T126 600Q107 600 92 612T77 647Q77 672 91 685T126 699Q154 699 169 677T185 614Q185 556 159 514T83 442Z" />
<glyph unicode="&#x201a;" horiz-adv-x="242" d="M83 -142L61 -107Q98 -82 116 -53T135 18L122 82L163 33Q154 24 146 20T126 16Q107 16 92 28T77 63Q77 88 91 101T126 115Q154 115 169 93T185 30Q185 -28 159 -70T83 -142Z" />
<glyph unicode="&#x201c;" horiz-adv-x="409" d="M115 441Q88 441 73 463T57 526Q57 584 83 626T158 698L180 663Q144 638 126 610T107 538L119 474L79 523Q88 532 96 536T115 540Q134 540 149 528T165 493Q165 469 151 455T115 441ZM283 441Q256 441 241 463T225
526Q225 584 251 626T326 698L348 663Q312 638 294 610T275 538L287 474L247 523Q256 532 264 536T283 540Q302 540 317 528T333 493Q333 469 319 455T283 441Z" />
<glyph unicode="&#x201d;" horiz-adv-x="409" d="M83 442L61 477Q98 502 116 531T135 602L122 666L163 617Q154 608 146 604T126 600Q107 600 92 612T77 647Q77 672 91 685T126 699Q154 699 169 677T185 614Q185 556 159 514T83 442ZM251 442L229 477Q266 502
284 531T303 602L290 666L331 617Q322 608 314 604T294 600Q275 600 260 612T245 647Q245 672 259 685T294 699Q322 699 337 677T353 614Q353 556 327 514T251 442Z" />
<glyph unicode="&#x201e;" horiz-adv-x="409" d="M83 -142L61 -107Q98 -82 116 -53T135 18L122 82L163 33Q154 24 146 20T126 16Q107 16 92 28T77 63Q77 88 91 101T126 115Q154 115 169 93T185 30Q185 -28 159 -70T83 -142ZM251 -142L229 -107Q266 -82 284 -53T303
18L290 82L331 33Q322 24 314 20T294 16Q275 16 260 28T245 63Q245 88 259 101T294 115Q322 115 337 93T353 30Q353 -28 327 -70T251 -142Z" />
<glyph unicode="&#x2022;" horiz-adv-x="298" d="M149 145Q120 145 96 160T56 201T40 263Q40 299 55 325T95 366T149 381Q178 381 203 366T243 325T258 263Q258 228 243 202T203 160T149 145Z" />
<glyph unicode="&#x2039;" horiz-adv-x="268" d="M181 67L44 224V280L181 437L214 409L95 252L214 94L181 67Z" />
<glyph unicode="&#x203a;" horiz-adv-x="268" d="M87 67L54 94L173 252L54 409L87 437L223 280V224L87 67Z" />
</font>
</defs>
</svg>
