<?xml version="1.0" standalone="no"?>
<!DOCTYPE svg PUBLIC "-//W3C//DTD SVG 1.1//EN" "http://www.w3.org/Graphics/SVG/1.1/DTD/svg11.dtd">
<svg xmlns="http://www.w3.org/2000/svg">
<defs >
<font id="Assistant" horiz-adv-x="458" ><font-face
    font-family="Assistant ExtraLight"
    units-per-em="1000"
    panose-1="0 0 0 0 0 0 0 0 0 0"
    ascent="1021"
    descent="-287"
    alphabetic="0" />
<glyph unicode=" " horiz-adv-x="200" />
<glyph unicode="!" horiz-adv-x="332" d="M121 226L102 544L98 670H235L230 544L211 226H121ZM166 -12Q131 -12 107 13T82 76Q82 114 106 139T166 164Q203 164 226 139T250 76Q250 39 227 14T166 -12Z" />
<glyph unicode="&quot;" horiz-adv-x="519" d="M108 367L81 561L77 687H215L211 561L184 367H108ZM335 367L308 561L304 687H442L438 561L411 367H335Z" />
<glyph unicode="#" horiz-adv-x="523" d="M87 0L110 190H35V278H120L134 394H55V482H145L167 650H246L226 482H334L355 650H434L414 482H493V394H403L389 278H473V190H379L356 0H275L298 190H190L167 0H87ZM200 278H308L323 394H215L200 278Z" />
<glyph unicode="$" horiz-adv-x="523" d="M246 -12Q213 -12 176 -3T104 23T41 66L101 159Q139 130 174 115T246 99Q291 99 311 118T332 173Q332 201 313 221T264 257T199 290T135 330T85 383T66 461Q66 518 91 560T161 625T268 648Q332 648 376 625T455 564L386
486Q359 511 334 524T275 537Q238 537 218 520T197 468Q197 442 216 424T265 391T330 360T394 321T444 265T463 183Q463 126 438 82T365 13T246 -12ZM216 -110V43H308V-110H216ZM216 604V746H308V604H216Z" />
<glyph unicode="%" horiz-adv-x="845" d="M205 -12L559 665H639L285 -12H205ZM188 266Q141 266 105 290T48 361T27 474Q27 572 72 626T188 680Q258 680 303 626T348 474Q348 408 328 362T271 291T188 266ZM188 343Q215 343 233 373T252 474Q252 545 234 574T188
603Q161 603 142 574T123 474Q123 403 142 373T188 343ZM657 -12Q610 -12 574 13T518 84T497 196Q497 294 542 348T657 402Q727 402 772 348T818 196Q818 131 797 85T740 13T657 -12ZM657 65Q685 65 703 95T722 196Q722 267 704 296T657 325Q631 325 612 296T593
196Q593 125 612 95T657 65Z" />
<glyph unicode="&amp;" horiz-adv-x="658" d="M241 -12Q172 -12 124 13T51 81T26 174Q26 226 48 263T104 328T178 376T251 418T308 463T330 520Q330 544 319 559T282 574Q256 574 238 554T219 497Q219 457 242 412T305 322T393 236T491 164Q531 139 569 122T640
99L607 -12Q560 -2 510 20T409 77Q349 118 295 169T198 278T131 391T106 497Q106 542 127 580T188 642T280 665Q351 665 393 626T435 520Q435 477 415 444T363 383T295 333T228 286T176 238T156 182Q156 155 168 135T204 104T258 93Q293 93 328 111T396 161Q435
200 464 251T511 366H636Q614 293 579 226T490 99Q444 50 383 19T241 -12Z" />
<glyph unicode="&apos;" horiz-adv-x="292" d="M108 367L81 561L77 687H215L211 561L184 367H108Z" />
<glyph unicode="(" horiz-adv-x="338" d="M206 -178Q143 -76 109 35T74 278Q74 410 108 521T206 735L291 699Q236 602 210 494T184 278Q184 171 210 63T291 -142L206 -178Z" />
<glyph unicode=")" horiz-adv-x="338" d="M132 -178L47 -142Q102 -45 128 63T154 278Q154 386 128 494T47 699L132 735Q195 633 229 522T264 278Q264 146 230 35T132 -178Z" />
<glyph unicode="*" horiz-adv-x="451" d="M147 360L89 403L147 504L41 552L63 620L177 596L189 712H262L274 595L387 620L410 552L303 504L362 403L304 360L226 449L147 360Z" />
<glyph unicode="+" horiz-adv-x="523" d="M211 96V282H34V379H211V565H312V379H489V282H312V96H211Z" />
<glyph unicode="," horiz-adv-x="292" d="M75 -190L47 -117Q100 -97 128 -64T155 7L152 102L199 23Q188 14 175 10T147 5Q114 5 89 25T63 84Q63 120 89 142T150 164Q197 164 222 129T247 31Q247 -48 203 -106T75 -190Z" />
<glyph unicode="-" horiz-adv-x="329" d="M43 204V302H286V204H43Z" />
<glyph unicode="." horiz-adv-x="292" d="M146 -12Q111 -12 87 13T62 76Q62 114 86 139T146 164Q183 164 206 139T230 76Q230 39 207 14T146 -12Z" />
<glyph unicode="/" horiz-adv-x="341" d="M13 -160L225 710H315L103 -160H13Z" />
<glyph unicode="0" horiz-adv-x="523" d="M262 -12Q160 -12 99 73T38 321Q38 483 99 565T262 648Q363 648 424 565T485 321Q485 159 424 74T262 -12ZM262 94Q288 94 309 114T343 183T356 321Q356 408 344 456T310 523T262 542Q235 542 214 523T180 456T168 321Q168
233 180 184T213 114T262 94Z" />
<glyph unicode="1" horiz-adv-x="478" d="M40 0V111H180V495H62V580Q112 589 147 602T216 636H317V111H438V0H40Z" />
<glyph unicode="2" horiz-adv-x="523" d="M38 0V79Q121 158 184 222T282 340T317 440Q317 488 293 514T222 540Q188 540 159 520T106 474L31 548Q77 597 125 622T241 648Q303 648 349 623T422 553T448 448Q448 393 418 337T340 224T235 108Q260 111 289 113T342
115H479V0H38Z" />
<glyph unicode="3" horiz-adv-x="523" d="M242 -12Q191 -12 150 0T78 32T23 78L86 165Q115 137 150 118T229 99Q278 99 307 120T337 181Q337 211 322 232T270 265T161 277V375Q220 375 253 386T301 418T316 465Q316 501 294 520T233 540Q198 540 169 525T111 483L42
567Q85 604 133 626T239 648Q303 648 351 628T426 569T453 475Q453 425 425 390T346 333V329Q383 318 412 298T457 246T474 173Q474 114 443 73T358 10T242 -12Z" />
<glyph unicode="4" horiz-adv-x="523" d="M296 0V377Q296 406 298 446T301 516H297Q285 490 272 465T245 412L151 260H499V156H19V250L258 636H423V0H296Z" />
<glyph unicode="5" horiz-adv-x="523" d="M245 -12Q193 -12 152 0T80 32T23 77L85 164Q114 137 148 118T226 99Q260 99 285 111T324 147T338 206Q338 257 309 284T233 311Q205 311 185 304T136 277L74 317L92 636H446V521H210L199 390Q218 399 235 403T274 407Q328
407 374 386T447 321T475 209Q475 139 443 90T359 14T245 -12Z" />
<glyph unicode="6" horiz-adv-x="523" d="M279 -12Q233 -12 191 6T115 62T62 160T42 302Q42 392 63 457T120 565T201 627T297 648Q358 648 403 626T477 573L405 491Q388 510 361 523T305 537Q267 537 236 515T186 442T167 302Q167 223 182 177T222 111T277 91Q300
91 319 103T350 139T362 200Q362 235 351 256T319 288T273 299Q247 299 219 283T168 227L162 318Q188 355 227 375T299 396Q353 396 395 375T462 311T487 200Q487 134 459 87T383 14T279 -12Z" />
<glyph unicode="7" horiz-adv-x="523" d="M162 0Q168 108 185 194T238 358T334 521H44V636H481V552Q425 484 392 424T340 302T313 166T300 0H162Z" />
<glyph unicode="8" horiz-adv-x="523" d="M261 -12Q199 -12 149 10T71 72T42 163Q42 201 57 230T97 282T152 321V325Q116 353 91 389T66 474Q66 527 92 566T163 627T266 648Q353 648 405 601T457 474Q457 443 445 417T414 369T373 333V329Q403 313 428 291T468
237T483 163Q483 113 455 74T378 12T261 -12ZM264 84Q290 84 310 93T343 121T355 168Q355 198 338 217T288 252T215 285Q192 265 176 238T160 178Q160 149 174 128T211 95T264 84ZM302 366Q323 390 334 414T345 465Q345 491 336 510T308 541T263 552Q231 552 209
532T187 474Q187 446 201 427T242 394T302 366Z" />
<glyph unicode="9" horiz-adv-x="523" d="M225 -12Q164 -12 119 10T45 63L117 145Q134 126 161 113T217 99Q255 99 286 121T336 194T355 334Q355 413 340 459T300 525T245 545Q222 545 203 533T172 497T160 436Q160 402 171 380T203 348T249 337Q275 337 303 353T354
409L360 318Q335 281 296 261T223 240Q169 240 127 261T60 325T35 436Q35 501 63 549T139 622T243 648Q289 648 331 630T407 573T460 476T480 334Q480 244 459 179T402 71T321 9T225 -12Z" />
<glyph unicode=":" horiz-adv-x="292" d="M146 318Q111 318 87 343T62 406Q62 444 86 469T146 494Q183 494 206 469T230 406Q230 369 207 344T146 318ZM146 -12Q111 -12 87 13T62 76Q62 114 86 139T146 164Q183 164 206 139T230 76Q230 39 207 14T146 -12Z" />
<glyph unicode=";" horiz-adv-x="292" d="M146 318Q111 318 87 343T62 406Q62 444 86 469T146 494Q183 494 206 469T230 406Q230 369 207 344T146 318ZM75 -190L47 -117Q100 -97 128 -64T155 7L152 102L199 23Q188 14 175 10T147 5Q114 5 89 25T63 84Q63 120 89
142T150 164Q197 164 222 129T247 31Q247 -48 203 -106T75 -190Z" />
<glyph unicode="&lt;" horiz-adv-x="523" d="M489 109L34 284V380L489 556V443L308 382L173 334V330L308 283L489 222V109Z" />
<glyph unicode="=" horiz-adv-x="523" d="M34 397V494H489V397H34ZM34 423V520H489V423H34Z" />
<glyph unicode="&gt;" horiz-adv-x="523" d="M34 109V222L216 283L351 330V334L216 382L34 443V556L489 380V284L34 109Z" />
<glyph unicode="?" horiz-adv-x="457" d="M155 226Q149 268 160 301T191 361T232 411T268 457T283 503Q283 525 275 540T250 563T211 572Q183 572 161 559T116 524L41 593Q76 632 123 657T228 682Q281 682 323 664T390 608T414 513Q414 475 399 447T362 393T318
344T284 291T275 226H155ZM215 -12Q180 -12 156 13T131 76Q131 114 155 139T215 164Q252 164 275 139T299 76Q299 39 276 14T215 -12Z" />
<glyph unicode="@" horiz-adv-x="894" d="M424 -169Q349 -169 282 -146T162 -77T79 40T49 205Q49 310 84 394T181 539T323 633T495 666Q602 666 680 621T802 497T845 313Q845 245 825 194T772 109T700 58T622 40Q579 40 548 59T508 116H506Q485 87 451 68T386
49Q329 49 293 89T256 198Q256 243 271 286T313 364T376 420T456 441Q481 441 500 430T533 392H535L549 433H633L589 216Q566 125 636 125Q666 125 694 147T740 211T758 310Q758 364 742 413T693 500T609 560T484 582Q419 582 358 556T249 480T171 362T142 209Q142
135 165 80T229 -12T323 -67T435 -85Q475 -85 516 -74T589 -46L619 -121Q574 -146 526 -157T424 -169ZM415 136Q432 136 448 147T485 183L510 322Q501 338 489 345T460 353Q429 353 406 330T371 272T359 206Q359 170 374 153T415 136Z" />
<glyph unicode="A" horiz-adv-x="568" d="M-5 0L203 653H366L573 0H428L338 336Q324 386 311 441T283 548H279Q267 496 254 441T226 336L135 0H-5ZM127 163V269H439V163H127Z" />
<glyph unicode="B" horiz-adv-x="603" d="M79 0V653H298Q365 653 419 638T504 588T536 491Q536 447 513 406T448 350V346Q500 334 534 296T569 192Q569 126 535 84T444 21T316 0H79ZM216 106H304Q368 106 401 129T435 201Q435 246 402 266T304 287H216V106ZM216
389H290Q348 389 375 411T402 471Q402 512 375 529T291 547H216V389Z" />
<glyph unicode="C" horiz-adv-x="580" d="M348 -12Q265 -12 197 26T88 139T47 323Q47 404 71 467T137 575T235 642T352 665Q415 665 464 640T546 581L473 493Q448 516 420 531T355 546Q308 546 270 520T210 445T188 328Q188 258 208 209T265 133T353 107Q394 107
426 125T484 170L557 84Q517 37 464 13T348 -12Z" />
<glyph unicode="D" horiz-adv-x="632" d="M79 0V653H260Q360 653 433 618T545 512T585 329Q585 218 546 145T435 36T268 0H79ZM216 111H252Q310 111 353 133T420 202T444 329Q444 408 421 454T354 521T252 542H216V111Z" />
<glyph unicode="E" horiz-adv-x="545" d="M79 0V653H483V538H216V395H443V280H216V115H493V0H79Z" />
<glyph unicode="F" horiz-adv-x="520" d="M79 0V653H485V538H216V375H446V260H216V0H79Z" />
<glyph unicode="G" horiz-adv-x="635" d="M363 -12Q273 -12 202 26T89 139T47 323Q47 404 71 467T139 575T240 642T362 665Q433 665 483 640T565 581L493 493Q468 516 439 531T367 546Q314 546 274 520T211 445T188 328Q188 258 209 209T272 133T377 107Q399 107
420 112T454 129V251H341V363H576V67Q543 34 487 11T363 -12Z" />
<glyph unicode="H" horiz-adv-x="670" d="M79 0V653H216V398H454V653H591V0H454V278H216V0H79Z" />
<glyph unicode="I" horiz-adv-x="295" d="M79 0V653H216V0H79Z" />
<glyph unicode="J" horiz-adv-x="504" d="M224 -12Q152 -12 102 17T19 104L112 173Q131 139 155 123T207 107Q249 107 270 132T292 225V653H429V213Q429 151 408 100T341 19T224 -12Z" />
<glyph unicode="K" horiz-adv-x="609" d="M79 0V653H216V376H220L427 653H578L379 394L613 0H463L298 286L216 180V0H79Z" />
<glyph unicode="L" horiz-adv-x="513" d="M79 0V653H216V115H478V0H79Z" />
<glyph unicode="M" horiz-adv-x="757" d="M79 0V653H230L339 353Q349 324 358 293T378 230H382Q392 261 401 292T421 353L527 653H678V0H553V259Q553 290 556 328T563 406T570 476H566L513 323L416 58H338L241 323L189 476H185Q188 445 192 406T199 329T202 259V0H79Z" />
<glyph unicode="N" horiz-adv-x="662" d="M79 0V653H220L401 314L466 172H470Q465 224 459 286T453 405V653H583V0H443L262 339L196 481H192Q197 428 203 367T210 250V0H79Z" />
<glyph unicode="O" horiz-adv-x="681" d="M341 -12Q254 -12 188 29T84 146T47 329Q47 435 84 510T187 625T341 665Q428 665 494 625T597 510T634 329Q634 223 597 147T494 29T341 -12ZM341 107Q387 107 421 134T475 211T494 329Q494 397 475 445T422 520T341 546Q294
546 260 520T207 446T188 329Q188 261 206 211T259 134T341 107Z" />
<glyph unicode="P" horiz-adv-x="592" d="M79 0V653H297Q369 653 427 634T519 569T554 446Q554 371 520 323T429 251T301 228H216V0H79ZM216 337H292Q357 337 388 364T420 446Q420 500 387 522T288 544H216V337Z" />
<glyph unicode="Q" horiz-adv-x="681" d="M341 -12Q254 -12 188 29T84 146T47 329Q47 435 84 510T187 625T341 665Q428 665 494 625T597 510T634 329Q634 223 597 147T494 29T341 -12ZM553 -179Q448 -179 377 -127T273 5L413 18Q425 -13 449 -32T505 -60T569 -69Q590
-69 608 -66T641 -58L665 -158Q648 -167 619 -173T553 -179ZM341 100Q387 100 421 127T475 206T494 329Q494 397 475 445T422 520T341 546Q294 546 260 520T207 446T188 329Q188 257 206 206T259 128T341 100Z" />
<glyph unicode="R" horiz-adv-x="606" d="M79 0V653H309Q378 653 434 635T523 573T557 453Q557 380 524 333T434 264T309 242H216V0H79ZM433 0L284 278L380 364L587 0H433ZM216 351H297Q358 351 390 376T423 453Q423 504 391 524T297 544H216V351Z" />
<glyph unicode="S" horiz-adv-x="552" d="M276 -12Q212 -12 149 12T36 83L115 177Q150 145 193 126T279 107Q328 107 353 125T378 177Q378 200 366 213T332 237T281 260L195 297Q162 311 132 334T82 391T63 474Q63 527 92 570T173 639T291 665Q348 665 402 643T498
580L429 493Q397 519 364 532T291 546Q251 546 227 529T202 482Q202 460 215 446T251 422T303 399L387 365Q427 349 456 325T501 268T518 188Q518 134 490 89T407 16T276 -12Z" />
<glyph unicode="T" horiz-adv-x="553" d="M208 0V538H26V653H528V538H345V0H208Z" />
<glyph unicode="U" horiz-adv-x="662" d="M332 -12Q271 -12 223 6T143 61T93 157T76 297V653H213V284Q213 218 227 179T268 124T332 107Q370 107 397 123T439 179T454 284V653H586V297Q586 216 570 157T521 61T441 6T332 -12Z" />
<glyph unicode="V" horiz-adv-x="550" d="M193 0L-6 653H139L222 341Q238 286 249 236T276 130H280Q296 185 308 235T334 341L416 653H556L357 0H193Z" />
<glyph unicode="W" horiz-adv-x="809" d="M139 0L15 653H156L205 340Q211 288 218 236T233 133H237Q247 184 257 236T277 340L351 653H468L541 340Q551 289 561 237T582 133H586Q592 185 599 237T614 340L663 653H794L675 0H503L434 312Q426 350 420 388T407 463H403Q397
426 390 388T375 312L308 0H139Z" />
<glyph unicode="X" horiz-adv-x="559" d="M12 0L194 336L23 653H176L238 522Q249 500 260 475T286 419H290Q302 450 312 475T332 522L390 653H536L365 330L547 0H394L325 140Q312 166 300 191T275 247H271Q259 217 248 192T225 140L158 0H12Z" />
<glyph unicode="Y" horiz-adv-x="517" d="M190 0V236L-6 653H140L203 497Q216 460 229 425T257 353H261Q276 390 290 425T318 497L381 653H524L327 236V0H190Z" />
<glyph unicode="Z" horiz-adv-x="541" d="M37 0V83L335 538H65V653H504V570L206 115H506V0H37Z" />
<glyph unicode="[" horiz-adv-x="338" d="M88 -152V708H294V635H190V-79H294V-152H88Z" />
<glyph unicode="\" horiz-adv-x="341" d="M238 -160L26 710H116L328 -160H238Z" />
<glyph unicode="]" horiz-adv-x="338" d="M44 -152V-79H148V635H44V708H250V-152H44Z" />
<glyph unicode="^" horiz-adv-x="523" d="M52 276L206 670H317L472 276H359L310 412L264 547H260L214 412L165 276H52Z" />
<glyph unicode="_" horiz-adv-x="500" d="M12 -138V-59H488V-138H12Z" />
<glyph unicode="`" horiz-adv-x="553" d="M271 573L94 729L187 819L338 640L271 573Z" />
<glyph unicode="a" horiz-adv-x="524" d="M191 -12Q146 -12 113 7T62 60T44 136Q44 214 111 258T326 318Q325 341 317 359T291 387T244 398Q211 398 179 385T111 352L62 442Q92 460 125 475T195 498T270 507Q333 507 376 482T441 409T463 286V0H351L341 52H338Q306
24 270 6T191 -12ZM236 94Q263 94 283 106T326 140V235Q269 227 236 215T189 185T175 147Q175 120 192 107T236 94Z" />
<glyph unicode="b" horiz-adv-x="570" d="M321 -12Q287 -12 254 4T190 53H186L175 0H68V703H204V528L201 450Q230 476 264 491T335 507Q396 507 439 476T506 388T530 256Q530 171 500 111T423 20T321 -12ZM290 100Q318 100 340 116T376 167T390 254Q390 300 380
331T350 378T297 395Q273 395 251 384T204 347V135Q226 116 248 108T290 100Z" />
<glyph unicode="c" horiz-adv-x="466" d="M280 -12Q212 -12 157 18T70 107T38 247Q38 329 73 387T167 476T292 507Q338 507 374 492T437 453L372 365Q354 381 337 388T300 396Q263 396 236 378T193 326T178 247Q178 202 193 169T234 117T295 99Q321 99 345 110T389
137L443 48Q407 16 364 2T280 -12Z" />
<glyph unicode="d" horiz-adv-x="570" d="M243 -12Q151 -12 96 57T41 247Q41 328 70 386T147 475T247 507Q289 507 317 493T371 454L366 531V703H503V0H391L381 51H378Q351 24 316 6T243 -12ZM278 100Q304 100 325 111T366 148V360Q345 380 323 387T278 395Q252
395 230 379T195 330T181 249Q181 174 206 137T278 100Z" />
<glyph unicode="e" horiz-adv-x="514" d="M286 -12Q216 -12 160 19T71 107T38 247Q38 327 71 385T157 475T269 507Q338 507 384 476T454 392T478 270Q478 252 476 235T472 208H145L144 299H361Q361 346 340 374T272 402Q245 402 220 387T179 338T163 247Q163 190
183 157T236 108T304 93Q334 93 360 101T414 126L459 43Q422 18 377 3T286 -12Z" />
<glyph unicode="f" horiz-adv-x="333" d="M91 0V529Q91 581 108 623T164 690T267 715Q297 715 322 710T363 697L338 596Q325 602 312 604T286 607Q258 607 243 590T228 532V0H91ZM25 387V489L99 495H319V387H25Z" />
<glyph unicode="g" horiz-adv-x="530" d="M243 -213Q185 -213 138 -200T64 -158T36 -86Q36 -55 54 -30T107 15V19Q88 32 75 52T62 103Q62 130 78 154T117 195V199Q91 218 71 251T51 328Q51 387 79 426T153 486T252 507Q273 507 292 504T328 495H507V395H424Q433
383 439 364T445 324Q445 267 419 230T350 175T252 157Q238 157 223 159T190 167Q180 159 175 151T170 127Q170 108 187 98T246 88H329Q419 88 467 59T515 -36Q515 -87 482 -127T387 -190T243 -213ZM264 -126Q299 -126 326 -118T368 -94T384 -59Q384 -34 364 -26T305
-17H248Q225 -17 209 -16T180 -11Q164 -24 157 -37T149 -65Q149 -95 180 -110T264 -126ZM252 240Q273 240 289 250T316 280T326 328Q326 356 316 375T290 404T252 414Q221 414 200 393T179 328Q179 300 188 280T214 250T252 240Z" />
<glyph unicode="h" horiz-adv-x="567" d="M68 0V703H204V528L198 436Q227 463 264 485T353 507Q433 507 469 454T506 308V0H369V291Q369 347 354 368T303 390Q273 390 252 377T204 338V0H68Z" />
<glyph unicode="i" horiz-adv-x="272" d="M68 0V495H204V0H68ZM136 572Q103 572 81 592T59 645Q59 677 81 697T136 718Q170 718 191 698T213 645Q213 613 192 593T136 572Z" />
<glyph unicode="j" horiz-adv-x="273" d="M40 -199Q11 -199 -9 -195T-45 -186L-20 -85Q-10 -88 -1 -90T20 -92Q50 -92 62 -72T74 -9L75 495H212L210 -6Q210 -59 195 -103T142 -173T40 -199ZM40 -199Q11 -199 -9 -195T-45 -186L-20 -85Q-10 -88 -1 -90T20 -92Q50
-92 62 -72T74 -9L75 495H212L210 -6Q210 -59 195 -103T142 -173T40 -199ZM138 572Q104 572 83 592T61 645Q61 677 82 697T138 718Q172 718 193 698T215 645Q215 613 194 593T138 572Z" />
<glyph unicode="k" horiz-adv-x="539" d="M68 0V703H201V288H205L370 495H519L347 292L533 0H385L269 200L201 123V0H68Z" />
<glyph unicode="l" horiz-adv-x="281" d="M195 -12Q148 -12 120 7T80 62T68 145V703H204V139Q204 117 212 108T230 99Q235 99 238 99T248 101L265 0Q253 -5 236 -8T195 -12Z" />
<glyph unicode="m" horiz-adv-x="853" d="M68 0V495H179L189 430H193Q223 461 259 484T343 507Q396 507 429 485T480 422Q513 457 550 482T636 507Q716 507 753 454T790 308V0H654V291Q654 347 638 368T588 390Q567 390 545 378T497 338V0H361V291Q361 347 345
368T295 390Q254 390 204 338V0H68Z" />
<glyph unicode="n" horiz-adv-x="568" d="M68 0V495H179L189 431H193Q225 462 263 484T353 507Q433 507 469 454T506 308V0H369V291Q369 347 354 368T303 390Q273 390 252 377T204 338V0H68Z" />
<glyph unicode="o" horiz-adv-x="553" d="M277 -12Q214 -12 160 18T72 107T38 247Q38 329 71 387T159 476T277 507Q339 507 393 476T482 387T516 247Q516 165 482 107T394 19T277 -12ZM277 99Q309 99 331 117T364 168T376 247Q376 292 365 325T331 377T277 396Q244
396 222 378T189 326T178 247Q178 202 189 169T222 117T277 99Z" />
<glyph unicode="p" horiz-adv-x="570" d="M68 -187V495H179L189 445H193Q223 471 260 489T336 507Q397 507 440 476T506 388T530 255Q530 170 500 111T423 20T321 -12Q289 -12 258 2T200 41L204 -39V-187H68ZM290 100Q318 100 340 116T376 167T390 254Q390 300
380 331T350 378T297 395Q273 395 251 384T204 347V135Q226 116 248 108T290 100Z" />
<glyph unicode="q" horiz-adv-x="570" d="M366 -187V-33L371 45Q346 21 312 5T243 -12Q151 -12 96 57T41 247Q41 328 70 386T147 475T247 507Q288 507 319 492T381 446H384L396 495H503V-187H366ZM278 100Q304 100 325 111T366 148V360Q345 380 323 387T278 395Q252
395 230 379T195 330T181 249Q181 174 206 137T278 100Z" />
<glyph unicode="r" horiz-adv-x="390" d="M68 0V495H179L189 408H193Q220 457 257 482T333 507Q353 507 367 505T391 497L368 379Q355 382 344 384T316 387Q287 387 256 366T204 292V0H68Z" />
<glyph unicode="s" horiz-adv-x="439" d="M211 -12Q162 -12 111 7T22 57L84 143Q118 118 150 104T215 90Q250 90 266 103T283 138Q283 155 268 167T230 189T181 209Q150 221 119 239T68 285T47 354Q47 422 98 464T233 507Q289 507 331 488T404 445L343 363Q316
382 290 393T237 405Q206 405 191 393T175 361Q175 344 189 333T226 313T275 295Q307 283 338 266T390 220T411 146Q411 102 388 66T321 9T211 -12Z" />
<glyph unicode="t" horiz-adv-x="376" d="M253 -12Q163 -12 125 40T87 176V387H18V489L94 495L110 627H223V495H344V387H223V177Q223 135 240 116T289 96Q302 96 315 99T338 106L360 6Q340 0 313 -6T253 -12Z" />
<glyph unicode="u" horiz-adv-x="565" d="M216 -12Q136 -12 100 41T63 187V495H199V204Q199 148 215 127T266 105Q295 105 316 118T361 164V495H497V0H386L376 70H372Q341 33 304 11T216 -12Z" />
<glyph unicode="v" horiz-adv-x="514" d="M181 0L12 495H150L219 254Q228 217 238 179T258 103H262Q272 141 282 179T302 254L371 495H502L338 0H181Z" />
<glyph unicode="w" horiz-adv-x="767" d="M150 0L24 495H160L212 257Q218 221 223 185T235 111H239Q246 148 253 184T269 257L327 495H447L506 257Q515 221 522 185T537 111H541Q548 148 553 184T565 257L616 495H743L622 0H462L412 209Q405 244 399 279T385 353H381Q374
314 368 279T354 208L307 0H150Z" />
<glyph unicode="x" horiz-adv-x="503" d="M14 0L168 258L24 495H170L218 410Q228 390 239 369T261 326H265Q273 347 282 368T300 410L338 495H480L336 242L489 0H343L290 87Q279 109 267 131T243 174H239Q229 153 219 131T199 87L156 0H14Z" />
<glyph unicode="y" horiz-adv-x="513" d="M116 -196Q94 -196 78 -193T47 -186L72 -82Q79 -83 88 -85T106 -88Q143 -88 164 -68T196 -17L204 11L12 495H150L225 272Q236 239 246 204T266 132H270Q279 167 287 202T305 272L370 495H501L327 -11Q304 -70 277 -111T211
-174T116 -196Z" />
<glyph unicode="z" horiz-adv-x="455" d="M37 0V73L253 387H61V495H423V422L207 108H430V0H37Z" />
<glyph unicode="{" horiz-adv-x="338" d="M234 -152Q169 -152 139 -122T108 -11Q108 25 110 52T115 105T118 163Q118 191 100 214T32 238V319Q64 319 83 330T110 358T118 393Q118 425 116 451T111 504T108 567Q108 648 138 678T234 708H294V635H274Q241 635 230
620T218 562Q218 521 220 482T223 396Q223 340 206 315T151 280V276Q188 267 205 242T223 161Q223 115 221 76T218 -5Q218 -48 229 -63T274 -79H294V-152H234Z" />
<glyph unicode="|" horiz-adv-x="264" d="M87 -250V750H177V-250H87Z" />
<glyph unicode="}" horiz-adv-x="338" d="M44 -152V-79H64Q97 -79 108 -64T120 -5Q120 36 118 75T115 161Q115 216 132 241T187 276V280Q150 289 133 314T115 396Q115 443 117 482T120 562Q120 604 109 619T64 635H44V708H104Q169 708 199 678T230 567Q230 532
228 505T223 451T220 393Q220 375 228 359T254 331T306 319V238Q257 237 239 214T220 163Q220 131 222 105T227 52T230 -11Q230 -91 200 -121T104 -152H44Z" />
<glyph unicode="~" horiz-adv-x="523" d="M347 243Q317 243 294 255T251 282T213 308T174 320Q154 320 136 306T102 262L30 316Q66 371 103 394T176 417Q207 417 230 406T273 379T310 352T349 340Q370 340 388 355T422 398L493 344Q458 289 421 266T347 243Z" />
<glyph unicode="&#xa0;" horiz-adv-x="200" />
<glyph unicode="&#xa1;" horiz-adv-x="332" d="M98 -175L102 -49L121 269H211L230 -49L235 -175H98ZM166 331Q131 331 107 356T82 419Q82 457 106 482T166 507Q203 507 226 482T250 419Q250 382 227 357T166 331Z" />
<glyph unicode="&#xa2;" horiz-adv-x="523" d="M318 54Q241 54 184 84T94 170T61 308Q61 388 97 445T194 531T330 561Q376 561 413 545T475 504L412 420Q394 436 376 443T338 451Q290 451 258 434T210 384T193 308Q193 242 230 204T333 165Q361 165 384 176T427
203L482 117Q447 85 403 70T318 54ZM273 -39V655H349V-39H273Z" />
<glyph unicode="&#xa3;" horiz-adv-x="523" d="M49 0V84Q95 106 125 147T155 242Q155 276 144 311T122 380T111 446Q111 508 138 553T212 623T320 648Q375 648 416 627T490 567L415 493Q398 515 378 526T333 537Q291 537 267 513T242 439Q242 407 250 376T266
311T275 241Q275 202 264 175T228 119V115H490V0H49ZM53 274V354L120 359H405V274H53Z" />
<glyph unicode="&#xa4;" horiz-adv-x="523" d="M90 87L21 156L82 218Q66 241 57 269T48 330Q48 363 57 390T82 441L21 503L90 572L159 502Q207 529 262 529Q316 529 365 502L434 572L502 503L441 441Q457 418 466 391T475 330Q475 297 466 269T440 218L502 156L434
87L364 157Q341 144 315 138T262 131Q205 131 159 157L90 87ZM262 226Q287 226 308 238T341 274T353 330Q353 361 341 384T308 421T262 434Q236 434 216 421T183 385T170 330Q170 298 182 275T215 239T262 226Z" />
<glyph unicode="&#xa5;" horiz-adv-x="523" d="M193 0V149H39V216H193V272H39V339H163L14 636H155L210 497Q222 464 235 431T261 365H265Q278 398 291 431T317 497L372 636H509L360 339H485V272H330V216H485V149H330V0H193Z" />
<glyph unicode="&#xa6;" horiz-adv-x="264" d="M87 309V750H177V309H87ZM87 -250V206H177V-250H87Z" />
<glyph unicode="&#xa7;" horiz-adv-x="523" d="M377 138L300 196Q335 209 352 226T369 273Q369 302 349 321T298 355T230 385T162 419T110 467T90 540Q90 583 110 617T170 670T264 689Q320 689 365 670T440 625L377 540Q353 560 326 574T271 588Q241 588 227 577T213
545Q213 525 233 511T283 483T348 454T414 416T465 362T485 284Q485 250 472 224T435 176T377 138ZM240 -81Q186 -81 135 -60T49 2L128 72Q153 47 181 34T240 21Q272 21 288 34T304 67Q304 88 285 103T236 131T171 159T107 196T58 250T39 329Q39 376 70 415T153
473L221 415Q188 403 171 385T154 339Q154 312 174 293T225 260T290 230T356 195T407 146T427 74Q427 30 405 -5T342 -60T240 -81Z" />
<glyph unicode="&#xa8;" horiz-adv-x="553" d="M384 572Q355 572 336 591T316 640Q316 669 335 688T384 708Q414 708 433 689T452 640Q452 611 433 592T384 572ZM170 572Q141 572 122 591T102 640Q102 669 121 688T170 708Q200 708 219 689T238 640Q238 611 219
592T170 572Z" />
<glyph unicode="&#xa9;" horiz-adv-x="749" d="M375 -9Q308 -9 249 14T144 80T72 186T46 325Q46 402 72 463T144 567T249 632T375 655Q441 655 500 633T605 567T677 463T703 325Q703 248 677 186T606 81T501 14T375 -9ZM386 127Q331 127 288 151T220 219T195 324Q195
382 222 425T292 492T386 516Q432 516 463 499T518 457L466 399Q449 416 433 425T395 435Q346 435 320 403T294 324Q294 270 320 239T390 208Q416 208 435 218T474 244L518 180Q490 157 458 142T386 127ZM375 49Q430 49 478 68T562 124T618 212T639 325Q639 387
619 437T562 523T478 578T375 598Q319 598 271 579T187 524T131 438T111 325Q111 263 131 212T187 125T271 69T375 49Z" />
<glyph unicode="&#xaa;" horiz-adv-x="357" d="M131 371Q85 371 58 400T31 470Q31 523 75 551T219 589Q218 612 206 625T168 638Q147 638 124 630T76 607L42 671Q73 690 109 702T185 715Q248 715 282 679T316 569V379H239L230 413H226Q207 395 184 383T131 371ZM163
445Q179 445 192 452T219 473V533Q165 527 145 512T124 478Q124 462 134 454T163 445Z" />
<glyph unicode="&#xab;" horiz-adv-x="472" d="M183 58L48 204V301L183 447L235 405L123 252L235 99L183 58ZM367 58L232 204V301L367 447L419 405L307 252L419 99L367 58Z" />
<glyph unicode="&#xac;" horiz-adv-x="523" d="M388 96V282H34V379H489V96H388Z" />
<glyph unicode="&#xad;" horiz-adv-x="329" d="M43 204V302H286V204H43Z" />
<glyph unicode="&#xae;" horiz-adv-x="456" d="M228 313Q173 313 129 338T58 409T31 514Q31 572 57 617T128 689T228 715Q282 715 326 689T397 618T424 514Q424 455 398 410T327 339T228 313ZM228 360Q270 360 302 379T353 432T372 514Q372 560 354 594T303 648T228
668Q186 668 153 649T102 595T83 514Q83 467 101 433T153 379T228 360ZM148 417V614H235Q269 614 292 599T316 549Q316 532 307 517T280 494L323 417H265L234 478H203V417H148ZM203 517H224Q241 517 249 525T257 545Q257 557 249 564T225 572H203V517Z" />
<glyph unicode="&#xaf;" horiz-adv-x="553" d="M132 593V681H423V593H132Z" />
<glyph unicode="&#xb0;" horiz-adv-x="360" d="M181 403Q141 403 109 421T58 471T39 544Q39 586 58 618T109 668T181 686Q220 686 252 668T303 618T322 544Q322 503 303 471T252 421T181 403ZM181 470Q211 470 230 491T249 544Q249 578 230 598T181 619Q151 619
132 599T112 544Q112 512 131 491T181 470Z" />
<glyph unicode="&#xb1;" horiz-adv-x="523" d="M211 153V296H34V393H211V565H312V393H489V296H312V153H211ZM34 0V97H489V0H34Z" />
<glyph unicode="&#xb2;" horiz-adv-x="390" d="M60 403V457Q112 500 151 536T212 602T234 657Q234 687 218 704T174 722Q153 722 136 709T101 673L43 725Q72 764 109 784T189 805Q254 805 292 771T331 674Q331 641 316 611T276 550T221 487H346V403H60Z" />
<glyph unicode="&#xb3;" horiz-adv-x="374" d="M185 391Q135 391 95 411T29 469L90 517Q108 492 129 480T175 468Q200 468 217 481T235 518Q235 546 211 559T138 572V631Q176 631 198 644T221 683Q221 704 207 716T169 728Q149 728 133 716T102 687L45 738Q76
772 108 788T186 805Q221 805 252 792T301 754T320 697Q320 665 305 643T261 606Q292 594 313 570T334 511Q334 475 314 448T259 406T185 391Z" />
<glyph unicode="&#xb4;" horiz-adv-x="553" d="M284 573L216 640L368 819L461 729L284 573Z" />
<glyph unicode="&#xb5;" horiz-adv-x="565" d="M39 -175L44 -49L63 269H153L172 -49L176 -175H39ZM216 -12Q136 -12 100 41T63 187V495H199V204Q199 148 215 127T266 105Q295 105 316 118T361 164V495H497V0H386L376 70H372Q341 33 304 11T216 -12Z" />
<glyph unicode="&#xb6;" horiz-adv-x="624" d="M296 202Q225 202 167 227T74 304T39 432Q39 515 73 563T165 632T292 653H336V202H296ZM391 -80V653H528V-80H391Z" />
<glyph unicode="&#xb7;" horiz-adv-x="292" d="M146 233Q111 233 87 258T62 321Q62 359 86 384T146 409Q183 409 206 384T230 321Q230 284 207 259T146 233Z" />
<glyph unicode="&#xb8;" horiz-adv-x="553" d="M178 -237L167 -181Q226 -177 248 -167T271 -136Q271 -120 256 -110T194 -93L242 4H322L294 -61Q331 -70 350 -87T370 -135Q370 -185 320 -209T178 -237Z" />
<glyph unicode="&#xb9;" horiz-adv-x="330" d="M151 403V688H63V750Q103 756 125 766T173 793H253V403H151Z" />
<glyph unicode="&#xba;" horiz-adv-x="372" d="M186 371Q143 371 107 391T48 449T25 542Q25 596 47 634T106 694T186 715Q228 715 264 694T323 635T346 542Q346 488 324 450T265 391T186 371ZM186 448Q217 448 232 474T247 542Q247 585 232 611T186 638Q154 638
139 612T124 542Q124 500 139 474T186 448Z" />
<glyph unicode="&#xbb;" horiz-adv-x="472" d="M106 58L54 99L166 252L54 405L106 447L241 301V204L106 58ZM290 58L238 99L350 252L238 405L290 447L425 301V204L290 58Z" />
<glyph unicode="&#xbc;" horiz-adv-x="835" d="M200 -12L554 665H634L280 -12H200ZM161 293V578H73V640Q113 646 135 656T183 683H263V293H161ZM675 0V202L680 318H676L635 240L590 156H822V90H496V140L640 390H764V0H675Z" />
<glyph unicode="&#xbd;" horiz-adv-x="840" d="M194 -12L548 665H628L274 -12H194ZM161 293V578H73V640Q113 646 135 656T183 683H263V293H161ZM511 0V55Q562 98 601 134T662 199T684 254Q684 285 668 302T624 319Q604 319 586 306T551 270L494 323Q523 361 559
381T640 402Q704 402 743 368T782 271Q782 239 767 209T726 148T671 85H797V0H511Z" />
<glyph unicode="&#xbe;" horiz-adv-x="840" d="M213 -12L566 665H646L293 -12H213ZM185 281Q135 281 95 301T29 359L90 407Q108 382 129 370T175 358Q200 358 217 371T235 408Q235 436 211 449T138 462V521Q176 521 198 534T221 573Q221 594 207 606T169 618Q149
618 133 606T102 577L45 628Q76 662 108 678T186 695Q221 695 252 682T301 644T320 587Q320 555 305 533T261 496Q292 484 313 460T334 401Q334 365 314 338T259 296T185 281ZM680 0V202L685 318H681L640 240L595 156H827V90H501V140L645 390H769V0H680Z" />
<glyph unicode="&#xbf;" horiz-adv-x="457" d="M229 -187Q176 -187 134 -169T68 -113T43 -18Q43 19 58 48T95 102T139 151T173 204T183 269H302Q308 227 297 194T266 134T225 84T189 38T174 -8Q174 -30 183 -45T208 -69T246 -77Q275 -77 298 -64T341 -29L417 -98Q382
-137 335 -162T229 -187ZM242 331Q207 331 183 356T158 419Q158 457 182 482T242 507Q279 507 302 482T326 419Q326 382 303 357T242 331Z" />
<glyph unicode="&#xc0;" horiz-adv-x="568" d="M-5 0L203 653H366L573 0H428L338 336Q324 386 311 441T283 548H279Q267 496 254 441T226 336L135 0H-5ZM127 163V269H439V163H127ZM293 683L114 801L187 890L353 752L293 683Z" />
<glyph unicode="&#xc1;" horiz-adv-x="568" d="M-5 0L203 653H366L573 0H428L338 336Q324 386 311 441T283 548H279Q267 496 254 441T226 336L135 0H-5ZM127 163V269H439V163H127ZM270 683L209 752L375 890L448 801L270 683Z" />
<glyph unicode="&#xc2;" horiz-adv-x="568" d="M-5 0L203 653H366L573 0H428L338 336Q324 386 311 441T283 548H279Q267 496 254 441T226 336L135 0H-5ZM127 163V269H439V163H127ZM174 688L115 725L207 836H355L447 725L388 688L283 773H279L174 688Z" />
<glyph unicode="&#xc3;" horiz-adv-x="568" d="M-5 0L203 653H366L573 0H428L338 336Q324 386 311 441T283 548H279Q267 496 254 441T226 336L135 0H-5ZM127 163V269H439V163H127ZM353 695Q326 695 306 704T270 724T241 745T214 755Q199 755 189 744T175 703L87
710Q91 783 124 816T209 850Q236 850 256 841T293 821T322 800T349 791Q363 791 373 802T387 842L476 836Q472 763 438 729T353 695Z" />
<glyph unicode="&#xc4;" horiz-adv-x="568" d="M-5 0L203 653H366L573 0H428L338 336Q324 386 311 441T283 548H279Q267 496 254 441T226 336L135 0H-5ZM127 163V269H439V163H127ZM391 703Q362 703 343 722T324 769Q324 798 343 817T391 836Q420 836 438 817T457
769Q457 741 439 722T391 703ZM172 703Q143 703 124 722T105 769Q105 798 124 817T172 836Q201 836 219 817T238 769Q238 741 220 722T172 703Z" />
<glyph unicode="&#xc5;" horiz-adv-x="568" d="M-5 0L203 653H366L573 0H428L338 336Q324 386 311 441T283 548H279Q267 496 254 441T226 336L135 0H-5ZM127 163V269H439V163H127ZM281 697Q232 697 201 724T170 795Q170 839 201 865T281 892Q330 892 361 866T392
795Q392 751 361 724T281 697ZM281 749Q299 749 311 761T324 795Q324 815 312 827T281 840Q263 840 251 828T238 795Q238 773 250 761T281 749Z" />
<glyph unicode="&#xc6;" horiz-adv-x="842" d="M-10 0L305 653H780V538H526V395H740V280H526V115H790V0H389V549H385Q363 500 343 452T301 359L134 0H-10ZM141 156V262H462V156H141Z" />
<glyph unicode="&#xc8;" horiz-adv-x="545" d="M79 0V653H483V538H216V395H443V280H216V115H493V0H79ZM300 683L121 801L194 890L360 752L300 683Z" />
<glyph unicode="&#xc9;" horiz-adv-x="545" d="M79 0V653H483V538H216V395H443V280H216V115H493V0H79ZM277 683L216 752L382 890L455 801L277 683Z" />
<glyph unicode="&#xca;" horiz-adv-x="545" d="M79 0V653H483V538H216V395H443V280H216V115H493V0H79ZM181 688L122 725L214 836H362L454 725L395 688L290 773H286L181 688Z" />
<glyph unicode="&#xcb;" horiz-adv-x="545" d="M79 0V653H483V538H216V395H443V280H216V115H493V0H79ZM398 703Q369 703 350 722T331 769Q331 798 350 817T398 836Q427 836 445 817T464 769Q464 741 446 722T398 703ZM179 703Q150 703 131 722T112 769Q112 798
131 817T179 836Q208 836 226 817T245 769Q245 741 227 722T179 703Z" />
<glyph unicode="&#xcc;" horiz-adv-x="295" d="M79 0V653H216V0H79ZM160 683L-19 801L54 890L220 752L160 683Z" />
<glyph unicode="&#xcd;" horiz-adv-x="295" d="M79 0V653H216V0H79ZM137 683L76 752L242 890L315 801L137 683Z" />
<glyph unicode="&#xce;" horiz-adv-x="295" d="M79 0V653H216V0H79ZM41 688L-18 725L74 836H222L314 725L255 688L150 773H146L41 688Z" />
<glyph unicode="&#xcf;" horiz-adv-x="295" d="M79 0V653H216V0H79ZM258 703Q229 703 210 722T191 769Q191 798 210 817T258 836Q287 836 305 817T324 769Q324 741 306 722T258 703ZM39 703Q10 703 -9 722T-28 769Q-28 798 -9 817T39 836Q68 836 86 817T105 769Q105
741 87 722T39 703Z" />
<glyph unicode="&#xd0;" horiz-adv-x="656" d="M28 305V367L106 372H370V305H28ZM104 0V653H285Q384 653 457 618T569 512T609 329Q609 218 570 145T459 36T292 0H104ZM241 111H276Q335 111 378 133T445 202T469 329Q469 408 445 454T378 521T276 542H241V111Z" />
<glyph unicode="&#xd1;" horiz-adv-x="662" d="M79 0V653H220L401 314L466 172H470Q465 224 459 286T453 405V653H583V0H443L262 339L196 481H192Q197 428 203 367T210 250V0H79ZM405 695Q378 695 358 704T322 724T293 745T266 755Q251 755 241 744T227 703L139
710Q143 783 176 816T261 850Q288 850 308 841T345 821T374 800T401 791Q415 791 425 802T439 842L528 836Q524 763 490 729T405 695Z" />
<glyph unicode="&#xd2;" horiz-adv-x="681" d="M341 -12Q254 -12 188 29T84 146T47 329Q47 435 84 510T187 625T341 665Q428 665 494 625T597 510T634 329Q634 223 597 147T494 29T341 -12ZM341 107Q387 107 421 134T475 211T494 329Q494 397 475 445T422 520T341
546Q294 546 260 520T207 446T188 329Q188 261 206 211T259 134T341 107ZM353 683L174 801L247 890L413 752L353 683Z" />
<glyph unicode="&#xd3;" horiz-adv-x="681" d="M341 -12Q254 -12 188 29T84 146T47 329Q47 435 84 510T187 625T341 665Q428 665 494 625T597 510T634 329Q634 223 597 147T494 29T341 -12ZM341 107Q387 107 421 134T475 211T494 329Q494 397 475 445T422 520T341
546Q294 546 260 520T207 446T188 329Q188 261 206 211T259 134T341 107ZM330 683L269 752L435 890L508 801L330 683Z" />
<glyph unicode="&#xd4;" horiz-adv-x="681" d="M341 -12Q254 -12 188 29T84 146T47 329Q47 435 84 510T187 625T341 665Q428 665 494 625T597 510T634 329Q634 223 597 147T494 29T341 -12ZM341 107Q387 107 421 134T475 211T494 329Q494 397 475 445T422 520T341
546Q294 546 260 520T207 446T188 329Q188 261 206 211T259 134T341 107ZM234 688L175 725L267 836H415L507 725L448 688L343 773H339L234 688Z" />
<glyph unicode="&#xd5;" horiz-adv-x="681" d="M341 -12Q254 -12 188 29T84 146T47 329Q47 435 84 510T187 625T341 665Q428 665 494 625T597 510T634 329Q634 223 597 147T494 29T341 -12ZM341 107Q387 107 421 134T475 211T494 329Q494 397 475 445T422 520T341
546Q294 546 260 520T207 446T188 329Q188 261 206 211T259 134T341 107ZM413 695Q386 695 366 704T330 724T301 745T274 755Q259 755 249 744T235 703L147 710Q151 783 184 816T269 850Q296 850 316 841T353 821T382 800T409 791Q423 791 433 802T447 842L536
836Q532 763 498 729T413 695Z" />
<glyph unicode="&#xd6;" horiz-adv-x="681" d="M341 -12Q254 -12 188 29T84 146T47 329Q47 435 84 510T187 625T341 665Q428 665 494 625T597 510T634 329Q634 223 597 147T494 29T341 -12ZM341 107Q387 107 421 134T475 211T494 329Q494 397 475 445T422 520T341
546Q294 546 260 520T207 446T188 329Q188 261 206 211T259 134T341 107ZM451 703Q422 703 403 722T384 769Q384 798 403 817T451 836Q480 836 498 817T517 769Q517 741 499 722T451 703ZM232 703Q203 703 184 722T165 769Q165 798 184 817T232 836Q261 836 279
817T298 769Q298 741 280 722T232 703Z" />
<glyph unicode="&#xd7;" horiz-adv-x="523" d="M117 114L48 183L193 329L48 475L117 545L262 398L406 545L475 475L330 329L475 183L406 114L262 261L117 114Z" />
<glyph unicode="&#xd8;" horiz-adv-x="681" d="M113 -39L42 16L582 692L654 637L113 -39ZM342 -12Q255 -12 189 29T85 146T48 329Q48 435 85 510T188 625T342 665Q429 665 495 625T598 510T635 329Q635 223 598 147T495 29T342 -12ZM342 107Q388 107 422 134T476
211T495 329Q495 397 476 445T423 520T342 546Q295 546 261 520T208 446T189 329Q189 261 207 211T260 134T342 107Z" />
<glyph unicode="&#xd9;" horiz-adv-x="662" d="M332 -12Q271 -12 223 6T143 61T93 157T76 297V653H213V284Q213 218 227 179T268 124T332 107Q370 107 397 123T439 179T454 284V653H586V297Q586 216 570 157T521 61T441 6T332 -12ZM343 683L164 801L237 890L403
752L343 683Z" />
<glyph unicode="&#xda;" horiz-adv-x="662" d="M332 -12Q271 -12 223 6T143 61T93 157T76 297V653H213V284Q213 218 227 179T268 124T332 107Q370 107 397 123T439 179T454 284V653H586V297Q586 216 570 157T521 61T441 6T332 -12ZM320 683L259 752L425 890L498
801L320 683Z" />
<glyph unicode="&#xdb;" horiz-adv-x="662" d="M332 -12Q271 -12 223 6T143 61T93 157T76 297V653H213V284Q213 218 227 179T268 124T332 107Q370 107 397 123T439 179T454 284V653H586V297Q586 216 570 157T521 61T441 6T332 -12ZM224 688L165 725L257 836H405L497
725L438 688L333 773H329L224 688Z" />
<glyph unicode="&#xdc;" horiz-adv-x="662" d="M332 -12Q271 -12 223 6T143 61T93 157T76 297V653H213V284Q213 218 227 179T268 124T332 107Q370 107 397 123T439 179T454 284V653H586V297Q586 216 570 157T521 61T441 6T332 -12ZM441 703Q412 703 393 722T374
769Q374 798 393 817T441 836Q470 836 488 817T507 769Q507 741 489 722T441 703ZM222 703Q193 703 174 722T155 769Q155 798 174 817T222 836Q251 836 269 817T288 769Q288 741 270 722T222 703Z" />
<glyph unicode="&#xdd;" horiz-adv-x="517" d="M190 0V236L-6 653H140L203 497Q216 460 229 425T257 353H261Q276 390 290 425T318 497L381 653H524L327 236V0H190ZM248 683L187 752L353 890L426 801L248 683Z" />
<glyph unicode="&#xde;" horiz-adv-x="612" d="M79 0V653H216V552H311Q382 552 439 533T530 468T564 345Q564 270 530 222T439 151T311 127H216V0H79ZM216 236H302Q367 236 398 264T430 345Q430 400 398 421T302 443H216V236Z" />
<glyph unicode="&#xdf;" horiz-adv-x="623" d="M416 -12Q372 -12 337 0T267 34L315 127Q340 108 363 99T411 90Q440 90 455 105T471 143Q471 164 458 178T425 204T382 228T338 257T305 296T292 352Q292 382 303 403T328 444T354 484T365 534Q365 565 348 585T298
605Q251 605 227 571T203 475V0H68V492Q68 556 93 605T169 684T299 713Q364 713 408 690T474 630T496 550Q496 514 484 489T457 444T429 407T417 369Q417 352 429 339T463 315T506 291T549 260T583 215T596 150Q596 105 576 69T515 10T416 -12Z" />
<glyph unicode="&#xe0;" horiz-adv-x="524" d="M191 -12Q146 -12 113 7T62 60T44 136Q44 214 111 258T326 318Q325 341 317 359T291 387T244 398Q211 398 179 385T111 352L62 442Q92 460 125 475T195 498T270 507Q333 507 376 482T441 409T463 286V0H351L341 52H338Q306
24 270 6T191 -12ZM236 94Q263 94 283 106T326 140V235Q269 227 236 215T189 185T175 147Q175 120 192 107T236 94ZM277 573L100 729L193 819L344 640L277 573Z" />
<glyph unicode="&#xe1;" horiz-adv-x="524" d="M191 -12Q146 -12 113 7T62 60T44 136Q44 214 111 258T326 318Q325 341 317 359T291 387T244 398Q211 398 179 385T111 352L62 442Q92 460 125 475T195 498T270 507Q333 507 376 482T441 409T463 286V0H351L341 52H338Q306
24 270 6T191 -12ZM236 94Q263 94 283 106T326 140V235Q269 227 236 215T189 185T175 147Q175 120 192 107T236 94ZM290 573L222 640L374 819L467 729L290 573Z" />
<glyph unicode="&#xe2;" horiz-adv-x="524" d="M191 -12Q146 -12 113 7T62 60T44 136Q44 214 111 258T326 318Q325 341 317 359T291 387T244 398Q211 398 179 385T111 352L62 442Q92 460 125 475T195 498T270 507Q333 507 376 482T441 409T463 286V0H351L341 52H338Q306
24 270 6T191 -12ZM236 94Q263 94 283 106T326 140V235Q269 227 236 215T189 185T175 147Q175 120 192 107T236 94ZM157 562L105 611L214 744H353L462 611L409 562L285 658H281L157 562Z" />
<glyph unicode="&#xe3;" horiz-adv-x="524" d="M191 -12Q146 -12 113 7T62 60T44 136Q44 214 111 258T326 318Q325 341 317 359T291 387T244 398Q211 398 179 385T111 352L62 442Q92 460 125 475T195 498T270 507Q333 507 376 482T441 409T463 286V0H351L341 52H338Q306
24 270 6T191 -12ZM236 94Q263 94 283 106T326 140V235Q269 227 236 215T189 185T175 147Q175 120 192 107T236 94ZM350 574Q327 574 308 584T273 607T245 631T219 641Q203 641 194 627T182 582L96 587Q97 637 111 670T152 719T216 736Q241 736 259 726T293 703T322
679T348 669Q364 669 373 683T384 728L470 723Q469 674 455 641T415 591T350 574Z" />
<glyph unicode="&#xe4;" horiz-adv-x="524" d="M191 -12Q146 -12 113 7T62 60T44 136Q44 214 111 258T326 318Q325 341 317 359T291 387T244 398Q211 398 179 385T111 352L62 442Q92 460 125 475T195 498T270 507Q333 507 376 482T441 409T463 286V0H351L341 52H338Q306
24 270 6T191 -12ZM236 94Q263 94 283 106T326 140V235Q269 227 236 215T189 185T175 147Q175 120 192 107T236 94ZM390 572Q361 572 342 591T322 640Q322 669 341 688T390 708Q420 708 439 689T458 640Q458 611 439 592T390 572ZM176 572Q147 572 128 591T108
640Q108 669 127 688T176 708Q206 708 225 689T244 640Q244 611 225 592T176 572Z" />
<glyph unicode="&#xe5;" horiz-adv-x="524" d="M191 -12Q146 -12 113 7T62 60T44 136Q44 214 111 258T326 318Q325 341 317 359T291 387T244 398Q211 398 179 385T111 352L62 442Q92 460 125 475T195 498T270 507Q333 507 376 482T441 409T463 286V0H351L341 52H338Q306
24 270 6T191 -12ZM236 94Q263 94 283 106T326 140V235Q269 227 236 215T189 185T175 147Q175 120 192 107T236 94ZM283 563Q221 563 188 593T155 666Q155 709 188 739T283 769Q346 769 378 739T411 666Q411 623 379 593T283 563ZM283 615Q302 615 315 629T329
666Q329 689 316 703T283 717Q264 717 251 703T238 666Q238 643 251 629T283 615Z" />
<glyph unicode="&#xe6;" horiz-adv-x="786" d="M196 -12Q151 -12 118 7T67 60T49 136Q49 214 115 258T328 318Q327 342 319 359T294 387T248 398Q216 398 184 385T116 352L67 442Q97 460 129 475T195 498T266 507Q314 507 349 486T405 427Q436 465 472 486T554
507Q618 507 662 476T727 390T749 267Q749 249 747 233T743 208H453Q458 171 475 146T519 109T577 96Q606 96 631 106T684 132L731 43Q694 18 649 3T558 -12Q521 -12 490 -2T434 26T388 68Q336 25 290 7T196 -12ZM241 94Q268 94 294 107T343 142Q337 158 334 176T328
213L327 235Q247 223 214 201T180 147Q180 120 197 107T241 94ZM453 293H632Q632 342 612 372T549 402Q524 402 504 390T471 353T453 293Z" />
<glyph unicode="&#xe7;" horiz-adv-x="466" d="M280 -12Q212 -12 157 18T70 107T38 247Q38 329 73 387T167 476T292 507Q338 507 374 492T437 453L372 365Q354 381 337 388T300 396Q263 396 236 378T193 326T178 247Q178 202 193 169T234 117T295 99Q321 99 345
110T389 137L443 48Q407 16 364 2T280 -12ZM178 -237L167 -181Q226 -177 248 -167T271 -136Q271 -120 256 -110T194 -93L242 4H322L294 -61Q331 -70 350 -87T370 -135Q370 -185 320 -209T178 -237Z" />
<glyph unicode="&#xe8;" horiz-adv-x="514" d="M286 -12Q216 -12 160 19T71 107T38 247Q38 327 71 385T157 475T269 507Q338 507 384 476T454 392T478 270Q478 252 476 235T472 208H145L144 299H361Q361 346 340 374T272 402Q245 402 220 387T179 338T163 247Q163
190 183 157T236 108T304 93Q334 93 360 101T414 126L459 43Q422 18 377 3T286 -12ZM269 573L92 729L185 819L336 640L269 573Z" />
<glyph unicode="&#xe9;" horiz-adv-x="514" d="M286 -12Q216 -12 160 19T71 107T38 247Q38 327 71 385T157 475T269 507Q338 507 384 476T454 392T478 270Q478 252 476 235T472 208H145L144 299H361Q361 346 340 374T272 402Q245 402 220 387T179 338T163 247Q163
190 183 157T236 108T304 93Q334 93 360 101T414 126L459 43Q422 18 377 3T286 -12ZM282 573L214 640L366 819L459 729L282 573Z" />
<glyph unicode="&#xea;" horiz-adv-x="514" d="M286 -12Q216 -12 160 19T71 107T38 247Q38 327 71 385T157 475T269 507Q338 507 384 476T454 392T478 270Q478 252 476 235T472 208H145L144 299H361Q361 346 340 374T272 402Q245 402 220 387T179 338T163 247Q163
190 183 157T236 108T304 93Q334 93 360 101T414 126L459 43Q422 18 377 3T286 -12ZM149 562L97 611L206 744H345L454 611L401 562L277 658H273L149 562Z" />
<glyph unicode="&#xeb;" horiz-adv-x="514" d="M286 -12Q216 -12 160 19T71 107T38 247Q38 327 71 385T157 475T269 507Q338 507 384 476T454 392T478 270Q478 252 476 235T472 208H145L144 299H361Q361 346 340 374T272 402Q245 402 220 387T179 338T163 247Q163
190 183 157T236 108T304 93Q334 93 360 101T414 126L459 43Q422 18 377 3T286 -12ZM382 572Q353 572 334 591T314 640Q314 669 333 688T382 708Q412 708 431 689T450 640Q450 611 431 592T382 572ZM168 572Q139 572 120 591T100 640Q100 669 119 688T168 708Q198
708 217 689T236 640Q236 611 217 592T168 572Z" />
<glyph unicode="&#xec;" horiz-adv-x="272" d="M68 0V495H204V0H68ZM130 573L-47 729L46 819L197 640L130 573Z" />
<glyph unicode="&#xed;" horiz-adv-x="272" d="M68 0V495H204V0H68ZM143 573L75 640L227 819L320 729L143 573Z" />
<glyph unicode="&#xee;" horiz-adv-x="272" d="M68 0V495H204V0H68ZM10 562L-42 611L67 744H206L315 611L262 562L138 658H134L10 562Z" />
<glyph unicode="&#xef;" horiz-adv-x="272" d="M68 0V495H204V0H68ZM243 572Q214 572 195 591T175 640Q175 669 194 688T243 708Q273 708 292 689T311 640Q311 611 292 592T243 572ZM29 572Q0 572 -19 591T-39 640Q-39 669 -20 688T29 708Q59 708 78 689T97 640Q97
611 78 592T29 572Z" />
<glyph unicode="&#xf0;" horiz-adv-x="558" d="M272 -12Q211 -12 160 17T76 100T44 227Q44 298 72 349T147 427T248 454Q288 454 325 435T382 370L383 296Q358 329 331 340T275 352Q243 352 219 338T182 296T169 227Q169 186 184 158T223 114T277 99Q308 99 330
116T365 169T378 258Q378 336 362 395T312 501T230 585T116 655L176 739Q238 707 297 665T403 566T478 436T506 265Q506 184 478 122T397 24T272 -12ZM128 479L92 540L457 725L493 663L128 479Z" />
<glyph unicode="&#xf1;" horiz-adv-x="568" d="M68 0V495H179L189 431H193Q225 462 263 484T353 507Q433 507 469 454T506 308V0H369V291Q369 347 354 368T303 390Q273 390 252 377T204 338V0H68ZM377 574Q354 574 335 584T300 607T272 631T246 641Q230 641 221
627T209 582L123 587Q124 637 138 670T179 719T243 736Q268 736 286 726T320 703T349 679T375 669Q391 669 400 683T411 728L497 723Q496 674 482 641T442 591T377 574Z" />
<glyph unicode="&#xf2;" horiz-adv-x="553" d="M277 -12Q214 -12 160 18T72 107T38 247Q38 329 71 387T159 476T277 507Q339 507 393 476T482 387T516 247Q516 165 482 107T394 19T277 -12ZM277 99Q309 99 331 117T364 168T376 247Q376 292 365 325T331 377T277
396Q244 396 222 378T189 326T178 247Q178 202 189 169T222 117T277 99ZM271 573L94 729L187 819L338 640L271 573Z" />
<glyph unicode="&#xf3;" horiz-adv-x="553" d="M277 -12Q214 -12 160 18T72 107T38 247Q38 329 71 387T159 476T277 507Q339 507 393 476T482 387T516 247Q516 165 482 107T394 19T277 -12ZM277 99Q309 99 331 117T364 168T376 247Q376 292 365 325T331 377T277
396Q244 396 222 378T189 326T178 247Q178 202 189 169T222 117T277 99ZM284 573L216 640L368 819L461 729L284 573Z" />
<glyph unicode="&#xf4;" horiz-adv-x="553" d="M277 -12Q214 -12 160 18T72 107T38 247Q38 329 71 387T159 476T277 507Q339 507 393 476T482 387T516 247Q516 165 482 107T394 19T277 -12ZM277 99Q309 99 331 117T364 168T376 247Q376 292 365 325T331 377T277
396Q244 396 222 378T189 326T178 247Q178 202 189 169T222 117T277 99ZM151 562L99 611L208 744H347L456 611L403 562L279 658H275L151 562Z" />
<glyph unicode="&#xf5;" horiz-adv-x="553" d="M277 -12Q214 -12 160 18T72 107T38 247Q38 329 71 387T159 476T277 507Q339 507 393 476T482 387T516 247Q516 165 482 107T394 19T277 -12ZM277 99Q309 99 331 117T364 168T376 247Q376 292 365 325T331 377T277
396Q244 396 222 378T189 326T178 247Q178 202 189 169T222 117T277 99ZM344 574Q321 574 302 584T267 607T239 631T213 641Q197 641 188 627T176 582L90 587Q91 637 105 670T146 719T210 736Q235 736 253 726T287 703T316 679T342 669Q358 669 367 683T378 728L464
723Q463 674 449 641T409 591T344 574Z" />
<glyph unicode="&#xf6;" horiz-adv-x="553" d="M277 -12Q214 -12 160 18T72 107T38 247Q38 329 71 387T159 476T277 507Q339 507 393 476T482 387T516 247Q516 165 482 107T394 19T277 -12ZM277 99Q309 99 331 117T364 168T376 247Q376 292 365 325T331 377T277
396Q244 396 222 378T189 326T178 247Q178 202 189 169T222 117T277 99ZM384 572Q355 572 336 591T316 640Q316 669 335 688T384 708Q414 708 433 689T452 640Q452 611 433 592T384 572ZM170 572Q141 572 122 591T102 640Q102 669 121 688T170 708Q200 708 219
689T238 640Q238 611 219 592T170 572Z" />
<glyph unicode="&#xf7;" horiz-adv-x="523" d="M34 282V379H489V282H34ZM262 77Q229 77 207 97T185 150Q185 182 207 202T262 223Q294 223 316 203T339 150Q339 118 317 98T262 77ZM262 437Q229 437 207 457T185 510Q185 542 207 562T262 583Q294 583 316 563T339
510Q339 478 317 458T262 437Z" />
<glyph unicode="&#xf8;" horiz-adv-x="553" d="M98 -25L46 16L455 521L507 480L98 -25ZM277 -12Q214 -12 160 18T72 107T38 247Q38 329 71 387T159 476T277 507Q339 507 393 476T482 387T516 247Q516 165 482 107T394 19T277 -12ZM277 94Q309 94 333 112T370 163T383
240Q383 293 371 329T334 383T277 401Q244 401 220 383T183 331T170 255Q170 201 183 166T220 112T277 94Z" />
<glyph unicode="&#xf9;" horiz-adv-x="565" d="M216 -12Q136 -12 100 41T63 187V495H199V204Q199 148 215 127T266 105Q295 105 316 118T361 164V495H497V0H386L376 70H372Q341 33 304 11T216 -12ZM285 573L108 729L201 819L352 640L285 573Z" />
<glyph unicode="&#xfa;" horiz-adv-x="565" d="M216 -12Q136 -12 100 41T63 187V495H199V204Q199 148 215 127T266 105Q295 105 316 118T361 164V495H497V0H386L376 70H372Q341 33 304 11T216 -12ZM298 573L230 640L382 819L475 729L298 573Z" />
<glyph unicode="&#xfb;" horiz-adv-x="565" d="M216 -12Q136 -12 100 41T63 187V495H199V204Q199 148 215 127T266 105Q295 105 316 118T361 164V495H497V0H386L376 70H372Q341 33 304 11T216 -12ZM165 562L113 611L222 744H361L470 611L417 562L293 658H289L165 562Z" />
<glyph unicode="&#xfc;" horiz-adv-x="565" d="M216 -12Q136 -12 100 41T63 187V495H199V204Q199 148 215 127T266 105Q295 105 316 118T361 164V495H497V0H386L376 70H372Q341 33 304 11T216 -12ZM398 572Q369 572 350 591T330 640Q330 669 349 688T398 708Q428
708 447 689T466 640Q466 611 447 592T398 572ZM184 572Q155 572 136 591T116 640Q116 669 135 688T184 708Q214 708 233 689T252 640Q252 611 233 592T184 572Z" />
<glyph unicode="&#xfd;" horiz-adv-x="513" d="M116 -196Q94 -196 78 -193T47 -186L72 -82Q79 -83 88 -85T106 -88Q143 -88 164 -68T196 -17L204 11L12 495H150L225 272Q236 239 246 204T266 132H270Q279 167 287 202T305 272L370 495H501L327 -11Q304 -70 277
-111T211 -174T116 -196ZM273 573L205 640L357 819L450 729L273 573Z" />
<glyph unicode="&#xfe;" horiz-adv-x="570" d="M68 -187V703H204V527L201 455Q228 478 261 492T329 507Q391 507 436 476T506 388T530 255Q530 170 500 111T423 20T321 -12Q285 -12 257 0T201 36L204 -39V-187H68ZM290 100Q318 100 340 116T376 167T390 254Q390
300 380 331T350 378T297 395Q273 395 251 384T204 347V135Q226 116 248 108T290 100Z" />
<glyph unicode="&#xff;" horiz-adv-x="513" d="M116 -196Q94 -196 78 -193T47 -186L72 -82Q79 -83 88 -85T106 -88Q143 -88 164 -68T196 -17L204 11L12 495H150L225 272Q236 239 246 204T266 132H270Q279 167 287 202T305 272L370 495H501L327 -11Q304 -70 277
-111T211 -174T116 -196ZM373 572Q344 572 325 591T305 640Q305 669 324 688T373 708Q403 708 422 689T441 640Q441 611 422 592T373 572ZM159 572Q130 572 111 591T91 640Q91 669 110 688T159 708Q189 708 208 689T227 640Q227 611 208 592T159 572Z" />
<glyph unicode="&#x2013;" horiz-adv-x="480" d="M43 209V297H437V209H43Z" />
<glyph unicode="&#x2014;" horiz-adv-x="800" d="M43 209V297H757V209H43Z" />
<glyph unicode="&#x2018;" horiz-adv-x="292" d="M144 353Q101 353 78 385T55 477Q55 546 89 598T192 685L223 625Q179 603 157 573T135 498L140 415L93 479Q104 488 117 494T144 500Q174 500 195 482T217 431Q217 395 197 374T144 353Z" />
<glyph unicode="&#x2019;" horiz-adv-x="292" d="M101 365L70 425Q114 448 136 478T158 552L152 635L200 571Q189 562 176 556T148 550Q118 550 97 569T75 620Q75 655 96 676T148 697Q192 697 214 665T237 573Q237 504 204 452T101 365Z" />
<glyph unicode="&#x201a;" horiz-adv-x="292" d="M101 -165L70 -105Q114 -82 136 -52T158 22L152 105L200 41Q189 32 176 26T148 20Q118 20 97 39T75 90Q75 125 96 146T148 167Q192 167 214 135T237 43Q237 -26 204 -78T101 -165Z" />
<glyph unicode="&#x201c;" horiz-adv-x="519" d="M144 353Q101 353 78 385T55 477Q55 546 89 598T192 685L223 625Q179 603 157 573T135 498L140 415L93 479Q104 488 117 494T144 500Q174 500 195 482T217 431Q217 395 197 374T144 353ZM371 353Q328 353 305 385T282
477Q282 546 316 598T419 685L450 625Q406 603 384 573T362 498L367 415L320 479Q331 488 344 494T371 500Q401 500 422 482T444 431Q444 395 424 374T371 353Z" />
<glyph unicode="&#x201d;" horiz-adv-x="519" d="M101 365L70 425Q114 448 136 478T158 552L152 635L200 571Q189 562 176 556T148 550Q118 550 97 569T75 620Q75 655 96 676T148 697Q192 697 214 665T237 573Q237 504 204 452T101 365ZM328 365L297 425Q341 448
363 478T385 552L379 635L427 571Q416 562 403 556T375 550Q345 550 324 569T302 620Q302 655 323 676T375 697Q419 697 441 665T464 573Q464 504 431 452T328 365Z" />
<glyph unicode="&#x201e;" horiz-adv-x="519" d="M101 -165L70 -105Q114 -82 136 -52T158 22L152 105L200 41Q189 32 176 26T148 20Q118 20 97 39T75 90Q75 125 96 146T148 167Q192 167 214 135T237 43Q237 -26 204 -78T101 -165ZM328 -165L297 -105Q341 -82 363
-52T385 22L379 105L427 41Q416 32 403 26T375 20Q345 20 324 39T302 90Q302 125 323 146T375 167Q419 167 441 135T464 43Q464 -26 431 -78T328 -165Z" />
<glyph unicode="&#x2022;" horiz-adv-x="338" d="M169 127Q133 127 104 144T58 193T40 263Q40 302 57 332T104 381T169 399Q205 399 234 381T280 333T298 263Q298 224 281 193T234 145T169 127Z" />
<glyph unicode="&#x2039;" horiz-adv-x="289" d="M183 58L48 204V301L183 447L235 405L123 252L235 99L183 58Z" />
<glyph unicode="&#x203a;" horiz-adv-x="289" d="M106 58L54 99L166 252L54 405L106 447L241 301V204L106 58Z" />
</font>
</defs>
</svg>
