<?xml version="1.0" standalone="no"?>
<!DOCTYPE svg PUBLIC "-//W3C//DTD SVG 1.1//EN" "http://www.w3.org/Graphics/SVG/1.1/DTD/svg11.dtd">
<svg xmlns="http://www.w3.org/2000/svg">
<defs >
<font id="Heebo" horiz-adv-x="1072" ><font-face
    font-family="Heebo SemiBold"
    units-per-em="2048"
    panose-1="0 0 0 0 0 0 0 0 0 0"
    ascent="2146"
    descent="-862"
    alphabetic="0" />
<glyph unicode=" " horiz-adv-x="510" />
<glyph unicode="!" horiz-adv-x="554" d="M398 443H168L137 1456H429L398 443ZM129 131Q129 193 170 235T284 277Q356 277 397 235T439 131Q439 69 398 27T284 -16Q212 -16 171 26T129 131Z" />
<glyph unicode="&quot;" horiz-adv-x="659" d="M268 1399L230 995H74L75 1387V1537H268V1399ZM586 1399L548 995H393V1395V1537H586V1399Z" />
<glyph unicode="#" horiz-adv-x="1228" d="M489 1456H666L406 0H228L489 1456ZM869 1456H1047L787 0H609L869 1456ZM148 871V1040H1189V871H148ZM73 410V579H1113V410H73Z" />
<glyph unicode="$" horiz-adv-x="1172" d="M699 1390H540V1688H699V1390ZM678 -214H520V55H678V-214ZM799 383Q799 439 778 479T710 551T582 612Q452 660 355 717T204 858T150 1072Q150 1196 207 1287T369 1427T610 1477Q751 1477 854 1422T1015 1261T1072 1006H798Q798
1127 747 1190T607 1254Q544 1254 504 1231T444 1166T425 1071Q425 1020 445 982T513 911T646 847Q775 797 871 739T1021 597T1075 385Q1075 255 1015 165T847 27T596 -21Q505 -21 416 3T255 82T139 228T95 453H370Q370 381 389 332T441 255T514 214T596 202Q663
202 708 225T776 289T799 383Z" />
<glyph unicode="%" horiz-adv-x="1510" d="M97 1176Q97 1259 133 1327T239 1436T410 1477Q513 1477 583 1436T688 1327T724 1176V1099Q724 1018 689 950T584 841T412 800Q310 800 240 841T133 950T97 1099V1176ZM282 1099Q282 1063 296 1032T339 981T412 961Q455
961 483 980T525 1031T539 1099V1176Q539 1213 525 1245T482 1296T410 1316Q367 1316 339 1297T297 1245T282 1176V1099ZM794 357Q794 439 830 507T937 616T1108 657Q1211 657 1281 616T1386 507T1422 357V280Q1422 198 1387 130T1282 21T1110 -20Q1008 -20 938
21T831 130T794 280V357ZM979 280Q979 243 995 211T1040 160T1110 140Q1159 140 1186 159T1225 211T1237 280V357Q1237 412 1205 454T1108 496Q1043 496 1011 454T979 357V280ZM466 109L330 184L1041 1322L1177 1247L466 109Z" />
<glyph unicode="&amp;" horiz-adv-x="1334" d="M622 960Q684 1001 707 1039T730 1126Q730 1174 694 1214T592 1255Q520 1255 485 1210T449 1102Q449 1035 500 963T628 802L1314 0H1000L442 649Q334 780 267 883T200 1098Q200 1213 248 1298T385 1430T593 1477Q705
1477 788 1431T916 1308T961 1142Q961 1074 936 1017T868 911T766 820L450 594Q408 560 387 527T359 463T352 407Q352 348 377 301T450 228T564 201Q645 201 721 237T858 341T955 502T991 708H1227Q1227 542 1178 401T1011 162Q1004 157 994 147T977 131Q885 54
780 17T551 -21Q405 -21 298 32T134 178T76 392Q76 480 111 546T210 668T355 783L622 960Z" />
<glyph unicode="&apos;" horiz-adv-x="336" d="M273 1395L244 995H69V1381V1536H273V1395Z" />
<glyph unicode="(" horiz-adv-x="717" d="M126 592Q126 804 172 977T292 1281T454 1497T624 1621L677 1469Q621 1427 565 1354T464 1173T391 922T363 594V569Q363 385 390 241T463 -10T565 -192T677 -310L624 -458Q542 -420 455 -334T293 -118T172 185T126 571V592Z" />
<glyph unicode=")" horiz-adv-x="722" d="M604 571Q604 365 557 193T434 -111T268 -332T94 -458L40 -310Q96 -268 151 -194T253 -12T327 240T355 569V594Q355 778 327 923T251 1175T149 1357T40 1473L94 1621Q178 1583 268 1495T434 1275T557 970T604 592V571Z" />
<glyph unicode="*" horiz-adv-x="922" d="M340 966L27 1055L85 1232L394 1108L376 1456H566L548 1102L849 1223L907 1044L590 955L797 688L642 578L460 869L280 587L125 694L340 966Z" />
<glyph unicode="+" horiz-adv-x="1125" d="M1058 562H60V811H1058V562ZM691 146H429V1206H691V146Z" />
<glyph unicode="," horiz-adv-x="486" d="M374 53Q374 -57 320 -169T178 -355L34 -276Q60 -231 84 -185T123 -84T138 40V242H374V53Z" />
<glyph unicode="-" horiz-adv-x="761" d="M652 512H100V734H652V512Z" />
<glyph unicode="." horiz-adv-x="588" d="M129 137Q129 200 171 243T285 286Q358 286 400 243T443 137Q443 74 401 32T285 -11Q214 -11 172 31T129 137Z" />
<glyph unicode="/" horiz-adv-x="778" d="M199 -125H-9L538 1456H745L199 -125Z" />
<glyph unicode="0" horiz-adv-x="1172" d="M1073 606Q1073 384 1013 246T843 44T588 -20Q443 -20 333 44T161 246T99 606V854Q99 1076 159 1213T330 1413T586 1476Q731 1476 840 1413T1011 1213T1073 854V606ZM798 893Q798 1027 773 1106T701 1219T586 1254Q519
1254 471 1220T399 1106T374 893V568Q374 434 399 353T472 237T588 201Q655 201 702 236T773 353T798 568V893Z" />
<glyph unicode="1" horiz-adv-x="1172" d="M792 0H516V1131L168 1020V1246L760 1459H792V0Z" />
<glyph unicode="2" horiz-adv-x="1172" d="M1094 0H103V189L575 696Q648 777 690 837T751 946T769 1040Q769 1137 718 1196T572 1255Q499 1255 450 1222T375 1133T349 1003H74Q74 1133 134 1240T307 1412T576 1477Q802 1477 923 1367T1045 1067Q1045 972 1006
883T895 703T730 515L454 221H1094V0Z" />
<glyph unicode="3" horiz-adv-x="1172" d="M544 851Q620 851 670 877T744 950T769 1059Q769 1117 747 1161T680 1230T565 1255Q509 1255 463 1234T389 1173T361 1079H86Q86 1198 148 1287T318 1426T559 1477Q704 1477 813 1430T984 1290T1045 1062Q1045 995 1015
931T925 814T781 731T588 700H394V851H544ZM394 784H588Q711 784 801 756T950 677T1038 558T1067 409Q1067 272 1000 177T818 31T559 -20Q466 -20 378 5T221 82T110 212T69 397H345Q345 341 373 297T450 227T565 201Q671 201 731 258T792 411Q792 490 762 540T677
612T544 635H394V784Z" />
<glyph unicode="4" horiz-adv-x="1172" d="M1118 319H66L55 490L668 1456H887L653 1049L332 540H1118V319ZM948 0H673V1456H948V0Z" />
<glyph unicode="5" horiz-adv-x="1172" d="M152 718L234 1456H1040V1225H461L424 901Q455 918 513 937T645 957Q785 957 884 899T1035 731T1088 467Q1088 337 1035 226T874 48T600 -20Q507 -20 421 8T267 90T157 222T113 402H384Q394 307 450 254T599 201Q674
201 721 238T790 338T812 481Q812 560 786 619T707 712T571 746Q490 746 447 721T371 664L152 718Z" />
<glyph unicode="6" horiz-adv-x="1172" d="M879 1469V1243H861Q741 1243 651 1208T501 1109T411 957T381 764V524Q381 417 410 346T491 238T607 202Q673 202 721 237T796 335T823 476Q823 555 797 617T722 715T602 751Q534 751 481 719T397 638T363 534L272 585Q278
665 309 735T393 858T520 942T682 972Q821 972 913 904T1051 724T1097 479Q1097 339 1038 226T870 46T612 -20Q495 -20 402 23T242 144T141 327T106 557V664Q106 837 152 983T292 1239T522 1408T841 1469H879Z" />
<glyph unicode="7" horiz-adv-x="1172" d="M1086 1303L518 0H228L796 1235H64V1456H1086V1303Z" />
<glyph unicode="8" horiz-adv-x="1172" d="M1074 399Q1074 262 1010 169T837 28T587 -20Q448 -20 337 27T162 168T98 399Q98 521 161 612T335 753T585 803Q726 803 836 753T1010 612T1074 399ZM798 417Q798 485 772 534T697 609T585 636Q521 636 474 610T400 534T374
417Q374 350 400 302T474 227T587 201Q652 201 699 227T772 301T798 417ZM1042 1070Q1042 960 984 875T823 741T587 692Q454 692 351 740T188 874T129 1070Q129 1201 188 1292T350 1430T586 1477Q719 1477 822 1430T983 1292T1042 1070ZM767 1058Q767 1117 745
1161T683 1230T586 1255Q529 1255 489 1231T427 1163T405 1058Q405 998 426 953T489 883T587 858Q644 858 684 883T745 953T767 1058Z" />
<glyph unicode="9" horiz-adv-x="1172" d="M323 218Q450 218 538 248T682 336T762 475T787 659V932Q787 1039 758 1110T681 1218T571 1254Q505 1254 458 1214T387 1108T362 968Q362 892 385 828T457 725T577 686Q628 686 670 705T742 757T790 829T809 911L905
863Q905 792 875 723T791 598T666 508T512 474Q374 474 280 539T137 716T89 963Q89 1104 147 1220T314 1407T572 1477Q686 1477 777 1434T931 1310T1027 1122T1061 883V788Q1061 649 1034 528T951 307T808 137T601 26T326 -13H304V218H323Z" />
<glyph unicode=":" horiz-adv-x="568" d="M381 137Q381 200 423 243T537 286Q610 286 652 243T695 137Q695 74 653 32T537 -11Q466 -11 424 31T381 137ZM126 965Q126 1028 168 1071T282 1114Q355 1114 397 1071T440 965Q440 902 398 860T282 817Q211 817 169 859T126
965Z" />
<glyph unicode=";" horiz-adv-x="522" d="M108 965Q108 1028 150 1071T264 1114Q337 1114 379 1071T422 965Q422 902 380 860T264 817Q193 817 151 859T108 965ZM395 53Q395 -57 341 -169T199 -355L55 -276Q81 -231 105 -185T144 -84T159 40V242H395V53Z" />
<glyph unicode="&lt;" horiz-adv-x="1043" d="M911 414V145L57 512V700L270 646L911 414ZM270 598L57 548V736L911 1103V835L270 598Z" />
<glyph unicode="=" horiz-adv-x="1165" d="M1024 756H139V981H1024V756ZM1024 326H139V551H1024V326Z" />
<glyph unicode="&gt;" horiz-adv-x="1060" d="M123 836V1102L992 736V548L773 606L123 836ZM773 648L992 700V513L123 146V412L773 648Z" />
<glyph unicode="?" horiz-adv-x="1013" d="M348 442Q349 533 363 599T412 718T504 824Q550 865 585 903T642 982T663 1074Q663 1160 621 1205T499 1250Q433 1250 380 1209T326 1076H50Q52 1212 111 1300T272 1432T499 1476Q706 1476 822 1375T938 1086Q938 998
904 930T814 803T692 682Q636 632 617 576T595 442H348ZM323 134Q323 196 364 238T477 281Q549 281 590 239T632 134Q632 72 591 30T477 -12Q406 -12 365 30T323 134Z" />
<glyph unicode="@" horiz-adv-x="1833" d="M1745 531Q1741 431 1716 333T1638 155T1506 27T1311 -21Q1178 -21 1105 68T1043 308L1094 881H1289L1238 308Q1232 254 1239 221T1264 168T1302 142T1345 135Q1413 135 1462 187T1540 327T1572 525Q1583 749 1521 914T1320
1169T960 1260Q756 1260 607 1157T373 875T278 466Q270 283 307 143T424 -93T622 -237T895 -286Q983 -286 1073 -266T1226 -216L1264 -364Q1194 -409 1089 -431T891 -453Q629 -453 446 -347T170 -35T89 466Q98 671 162 844T341 1147T612 1347T964 1418Q1224 1418
1402 1308T1668 998T1745 531ZM737 429Q730 340 743 279T789 188T873 157Q902 157 937 176T1006 246T1062 385L1144 286Q1098 135 1009 59T807 -18Q710 -18 642 37T542 193T524 429Q542 601 607 726T771 921T984 990Q1099 990 1164 957T1289 881L1188 746Q1159
772 1113 796T1002 821Q927 821 872 776T784 644T737 429Z" />
<glyph unicode="A" horiz-adv-x="1374" d="M313 0H10L555 1456H747L723 1215L313 0ZM650 1215L624 1456H818L1364 0H1062L650 1215ZM1048 311H265V543H1048V311Z" />
<glyph unicode="B" horiz-adv-x="1303" d="M329 642L327 846H643Q763 846 824 894T886 1033Q886 1135 827 1180T642 1225H422V0H135V1456H642Q891 1456 1031 1360T1172 1059Q1172 969 1130 893T1002 770T781 716L698 642H329ZM245 0L364 230H686Q805 230 862 286T919
430Q919 495 897 543T826 616T698 642H410L412 846H777L842 766Q970 766 1050 718T1167 593T1205 428Q1205 217 1069 109T686 0H245Z" />
<glyph unicode="C" horiz-adv-x="1340" d="M1269 482Q1259 336 1189 223T993 45T688 -20Q504 -20 370 65T164 306T91 676V779Q91 993 165 1149T375 1391T694 1477Q874 1477 997 1411T1188 1230T1270 966H985Q973 1099 909 1171T694 1243Q589 1243 520 1192T416
1038T381 781V676Q381 527 412 424T510 267T688 213Q787 213 849 243T943 334T984 482H1269Z" />
<glyph unicode="D" horiz-adv-x="1333" d="M261 0L263 230H573Q698 230 782 284T909 442T952 694V764Q952 914 910 1016T784 1172T578 1225H255V1456H578Q775 1456 924 1369T1157 1126T1241 762V694Q1241 485 1157 329T923 87T573 0H261ZM422 0H135V1456H422V0Z" />
<glyph unicode="E" horiz-adv-x="1154" d="M1105 0H336V230H1105V0ZM422 0H135V1456H422V0ZM1004 637H336V862H1004V637ZM1101 1225H336V1456H1101V1225Z" />
<glyph unicode="F" horiz-adv-x="1124" d="M422 0H135V1456H422V0ZM1001 602H348V832H1001V602ZM1078 1225H348V1456H1078V1225Z" />
<glyph unicode="G" horiz-adv-x="1396" d="M1278 185Q1244 145 1176 97T998 15T726 -20Q540 -20 399 62T178 302T98 683V773Q98 997 172 1154T383 1394T705 1477Q891 1477 1012 1416T1197 1246T1277 998H998Q987 1073 955 1128T864 1215T712 1246Q606 1246 534
1192T425 1033T388 775V683Q388 529 429 424T548 264T741 210Q817 210 866 222T946 252T991 287V549H711V760H1278V185Z" />
<glyph unicode="H" horiz-adv-x="1450" d="M1101 631H344V862H1101V631ZM422 0H135V1456H422V0ZM1312 0H1027V1456H1312V0Z" />
<glyph unicode="I" horiz-adv-x="593" d="M440 0H154V1456H440V0Z" />
<glyph unicode="J" horiz-adv-x="1142" d="M726 1456H1012V445Q1012 300 949 196T776 36T527 -20Q387 -20 277 28T105 175T42 426H329Q329 306 383 258T527 210Q587 210 631 237T701 317T726 445V1456Z" />
<glyph unicode="K" horiz-adv-x="1298" d="M422 0H135V1456H422V0ZM713 739L377 379L326 661L556 968L943 1456H1294L713 739ZM531 674L737 860L1313 0H974L531 674Z" />
<glyph unicode="L" horiz-adv-x="1109" d="M1066 0H336V230H1066V0ZM421 0H135V1456H421V0Z" />
<glyph unicode="M" horiz-adv-x="1794" d="M508 1456L896 382L1283 1456H1531L994 0H797L261 1456H508ZM378 1456L421 422V0H135V1456H378ZM1657 1456V0H1370V422L1413 1456H1657Z" />
<glyph unicode="N" horiz-adv-x="1449" d="M1311 0H1025L421 982V0H135V1456H421L1027 473V1456H1311V0Z" />
<glyph unicode="O" horiz-adv-x="1414" d="M1322 694Q1322 472 1245 312T1029 66T708 -20Q527 -20 388 66T170 312T91 694V761Q91 983 169 1143T386 1389T706 1476Q889 1476 1027 1390T1244 1143T1322 761V694ZM1033 763Q1033 919 995 1025T883 1185T706 1240Q603
1240 530 1186T419 1025T380 763V694Q380 539 419 432T531 270T708 215Q812 215 885 270T995 432T1033 694V763Z" />
<glyph unicode="P" horiz-adv-x="1318" d="M329 522V752H700Q791 752 846 781T928 862T954 978Q954 1043 928 1099T847 1190T700 1225H422V0H135V1456H700Q871 1456 992 1395T1178 1226T1243 980Q1243 839 1179 736T993 578T700 522H329Z" />
<glyph unicode="Q" horiz-adv-x="1414" d="M1313 -96L1131 -258L745 52L921 215L1313 -96ZM1319 694Q1319 472 1242 312T1026 66T705 -20Q524 -20 385 66T167 312T88 694V761Q88 983 166 1143T383 1389T703 1476Q886 1476 1024 1390T1241 1143T1319 761V694ZM1031
763Q1031 919 992 1025T880 1185T703 1240Q600 1240 527 1186T416 1025T377 763V694Q377 539 416 432T528 270T705 215Q809 215 881 270T992 432T1031 694V763Z" />
<glyph unicode="R" horiz-adv-x="1300" d="M669 1456Q836 1456 956 1406T1139 1258T1203 1016Q1203 901 1164 818T1052 679T881 590L792 542H329L327 772H669Q752 772 807 800T889 879T917 997Q917 1102 857 1163T669 1225H422V0H136V1456H669ZM618 650L920 652L1259
14V0H952L618 650Z" />
<glyph unicode="S" horiz-adv-x="1253" d="M893 380Q893 434 871 473T785 546T601 617Q500 649 412 689T258 782T154 907T116 1071Q116 1192 184 1283T371 1425T647 1476Q810 1476 929 1418T1114 1258T1179 1028H893Q893 1093 866 1142T784 1220T643 1248Q562
1248 508 1225T428 1161T402 1070Q402 1020 435 982T534 913T697 852Q858 804 965 740T1126 589T1180 382Q1180 257 1115 167T932 28T654 -20Q547 -20 444 8T256 95T121 243T71 454H358Q358 386 379 339T441 263T535 220T654 206Q736 206 788 228T867 290T893 380Z"
/>
<glyph unicode="T" horiz-adv-x="1261" d="M771 0H485V1456H771V0ZM1219 1225H42V1456H1219V1225Z" />
<glyph unicode="U" horiz-adv-x="1345" d="M1227 1456V492Q1227 324 1155 210T957 38T674 -20Q513 -20 388 38T191 210T119 492V1456H405V492Q405 394 437 332T530 240T674 210Q758 210 817 240T909 332T941 492V1456H1227Z" />
<glyph unicode="V" horiz-adv-x="1335" d="M1009 1456H1326L814 0H602L651 299L1009 1456ZM681 299L733 0H521L11 1456H327L681 299Z" />
<glyph unicode="W" horiz-adv-x="1795" d="M781 1456H943L958 1233L651 0H479L494 251L781 1456ZM559 253L553 0H366L39 1456H324L559 253ZM1477 1456H1761L1435 0H1248L1245 257L1477 1456ZM1309 246L1322 0H1150L844 1234L862 1456H1022L1309 246Z" />
<glyph unicode="X" horiz-adv-x="1300" d="M651 947L934 1456H1263L834 734L1273 0H941L651 518L360 0H29L468 734L39 1456H368L651 947Z" />
<glyph unicode="Y" horiz-adv-x="1262" d="M630 790L943 1456H1256L775 531V0H485V531L4 1456H318L630 790Z" />
<glyph unicode="Z" horiz-adv-x="1240" d="M1177 0H154V230H1177V0ZM273 0H76V172L967 1456H1159V1289L273 0ZM1057 1225H77V1456H1057V1225Z" />
<glyph unicode="[" horiz-adv-x="567" d="M549 1477H400V-123H549V-335H124V1690H549V1477Z" />
<glyph unicode="\" horiz-adv-x="862" d="M6 1456H285L893 -125H614L6 1456Z" />
<glyph unicode="]" horiz-adv-x="567" d="M13 1690H439V-335H13V-123H163V1477H13V1690Z" />
<glyph unicode="^" horiz-adv-x="890" d="M270 729H48L347 1456H503L455 1212L270 729ZM436 1212L388 1456H545L843 729H622L436 1212Z" />
<glyph unicode="_" horiz-adv-x="917" d="M914 -216H1V0H914V-216Z" />
<glyph unicode="`" horiz-adv-x="672" d="M553 1229H326L52 1536H355L553 1229Z" />
<glyph unicode="a" horiz-adv-x="1101" d="M708 726Q708 804 667 850T539 897Q489 897 452 880T394 833T374 761H99Q99 853 155 930T313 1055T554 1102Q678 1102 775 1060T928 934T984 724V259Q984 173 995 116T1027 17V0H748Q728 43 718 108T708 239V726ZM748
497H586Q465 497 408 449T350 326Q350 269 389 231T500 193Q568 193 618 220T695 286T723 358L802 238Q788 197 761 153T690 69T585 5T442 -20Q338 -20 255 21T123 136T74 304Q74 475 201 568T573 661H746L748 497Z" />
<glyph unicode="b" horiz-adv-x="1153" d="M391 1536V245L363 0H116V1536H391ZM1082 531Q1082 370 1036 246T896 51T662 -20Q527 -20 441 50T307 242T240 520V562Q259 718 306 840T440 1032T660 1102Q802 1102 895 1032T1035 837T1082 552V531ZM807 552Q807 641
789 715T723 833T591 878Q531 878 489 859T418 803T376 718T357 609V472Q362 395 387 334T463 238T593 203Q677 203 723 246T788 363T807 531V552Z" />
<glyph unicode="c" horiz-adv-x="1070" d="M563 201Q618 201 661 222T729 281T756 370H1014Q1013 258 953 170T792 31T567 -20Q400 -20 290 53T125 250T70 526V556Q70 708 125 832T290 1029T566 1102Q699 1102 799 1051T956 905T1014 684H756Q754 738 731 783T666
854T562 881Q474 881 427 835T363 714T345 556V526Q345 441 362 367T426 247T563 201Z" />
<glyph unicode="d" horiz-adv-x="1155" d="M761 1536H1037V0H788L761 234V1536ZM71 549Q71 714 121 838T266 1032T496 1102Q625 1102 711 1032T848 839T916 556V515Q898 362 848 241T711 50T494 -20Q361 -20 266 51T121 247T71 528V549ZM346 528Q346 438 367 365T436
248T563 204Q640 204 689 238T765 331T799 467V604Q795 666 779 716T735 803T664 858T565 878Q486 878 438 835T368 717T346 549V528Z" />
<glyph unicode="e" horiz-adv-x="1105" d="M607 -20Q442 -20 323 50T140 239T76 504V543Q76 709 138 835T314 1031T576 1102Q733 1102 837 1035T995 849T1049 570V453H199V644H778V666Q776 725 755 774T690 852T575 881Q498 881 449 838T375 719T351 543V504Q351
416 383 348T477 241T624 202Q706 202 773 233T889 327L1027 178Q976 103 872 42T607 -20Z" />
<glyph unicode="f" horiz-adv-x="731" d="M196 0V1179Q196 1362 301 1459T587 1557Q626 1557 662 1552T732 1538L728 1324Q709 1329 687 1331T638 1333Q559 1333 516 1293T472 1179V0H196ZM689 880H34V1082H689V880Z" />
<glyph unicode="g" horiz-adv-x="1167" d="M1052 1082V35Q1052 -112 988 -215T808 -372T540 -426Q476 -426 400 -408T254 -352T137 -254L261 -87Q314 -147 382 -179T527 -211Q645 -211 710 -148T776 33V833L802 1082H1052ZM73 549Q73 714 126 838T277 1032T510
1102Q618 1102 692 1062T814 949T889 776T931 556V515Q912 362 864 241T729 50T508 -20Q375 -20 277 51T126 247T73 528V549ZM348 528Q348 438 372 365T448 248T578 204Q658 204 708 238T786 331T820 467V604Q816 666 801 716T756 803T683 858T580 878Q501 878
450 835T373 717T348 549V528Z" />
<glyph unicode="h" horiz-adv-x="1144" d="M385 0H109V1536H385V0ZM261 576Q262 728 313 846T458 1033T677 1102Q784 1102 864 1061T988 929T1033 686V0H757V688Q757 760 737 801T676 860T579 878Q516 878 472 856T398 792T356 697T342 578L261 576Z" />
<glyph unicode="i" horiz-adv-x="537" d="M407 0H131V1082H407V0ZM114 1363Q114 1425 155 1466T268 1507Q340 1507 382 1466T424 1363Q424 1302 382 1261T268 1220Q197 1220 156 1261T114 1363Z" />
<glyph unicode="j" horiz-adv-x="527" d="M406 1082V-71Q406 -248 313 -342T50 -437Q15 -437 -20 -433T-90 -420V-202Q-68 -206 -45 -208T0 -211Q63 -211 96 -178T130 -71V1082H406ZM108 1363Q108 1425 149 1466T262 1507Q334 1507 375 1466T417 1363Q417 1302
376 1261T262 1220Q191 1220 150 1261T108 1363Z" />
<glyph unicode="k" horiz-adv-x="1087" d="M391 0H116V1537H391V0ZM600 549L341 288L253 500L453 753L737 1082H1067L600 549ZM460 499L643 675L1104 0H786L460 499Z" />
<glyph unicode="l" horiz-adv-x="537" d="M407 0H131V1536H407V0Z" />
<glyph unicode="m" horiz-adv-x="1776" d="M391 0H115V1082H374L391 859V0ZM266 576Q266 728 314 846T457 1033T694 1102Q840 1102 933 1014T1026 722V0H750V691Q750 764 729 805T670 862T577 878Q517 878 474 856T403 792T363 697T350 578L266 576ZM892 600Q892
740 939 853T1080 1034T1311 1102Q1419 1102 1497 1062T1618 932T1661 693V0H1385V694Q1385 768 1364 808T1305 863T1213 878Q1161 878 1122 859T1056 804T1017 721T1003 617L892 600Z" />
<glyph unicode="n" horiz-adv-x="1145" d="M385 0H111V1082H369L385 851V0ZM262 576Q262 737 315 855T465 1037T690 1102Q794 1102 870 1062T990 933T1033 692V0H757V693Q757 764 737 804T677 861T579 878Q521 878 477 856T403 792T358 697T342 578L262 576Z" />
<glyph unicode="o" horiz-adv-x="1160" d="M70 551Q70 709 130 833T303 1030T578 1102Q742 1102 856 1030T1029 834T1089 551V530Q1089 373 1030 248T857 52T580 -20Q418 -20 304 51T130 248T70 530V551ZM346 530Q346 440 369 365T444 246T580 201Q664 201 715
245T790 365T814 530V551Q814 640 791 715T716 835T578 881Q495 881 444 836T369 715T346 551V530Z" />
<glyph unicode="p" horiz-adv-x="1153" d="M391 -416H116V1082H370L391 874V-416ZM1081 532Q1081 374 1033 250T891 53T661 -20Q527 -20 440 49T304 239T235 509V560Q254 719 303 841T439 1032T659 1102Q796 1102 890 1034T1032 841T1081 553V532ZM806 553Q806
645 784 718T714 835T586 878Q526 878 484 859T414 805T372 719T352 607V461Q360 388 385 329T459 236T588 201Q667 201 715 246T784 366T806 532V553Z" />
<glyph unicode="q" horiz-adv-x="1159" d="M760 862L794 1082H1036V-416H760V862ZM71 551Q71 716 120 840T265 1033T497 1102Q630 1102 716 1032T852 840T919 559V516Q901 364 852 243T716 51T495 -20Q359 -20 265 52T121 248T71 530V551ZM346 530Q346 440 367
366T437 246T565 201Q646 201 695 236T770 332T803 469V606Q799 668 784 718T741 805T669 861T567 881Q488 881 439 837T368 718T346 551V530Z" />
<glyph unicode="r" horiz-adv-x="740" d="M391 0H116V1082H376L391 851V0ZM712 826Q689 829 661 831T609 834Q529 834 476 807T397 729T367 605L309 617Q309 757 345 866T451 1039T626 1102Q648 1102 674 1099T715 1089L712 826Z" />
<glyph unicode="s" horiz-adv-x="1054" d="M707 298Q707 331 690 356T624 402T482 443Q370 467 283 507T147 612T97 769Q97 858 148 934T295 1056T524 1102Q663 1102 763 1057T917 934T971 755H696Q696 818 654 861T523 904Q472 904 436 888T381 844T362 781Q362
749 381 725T446 682T570 647Q690 623 781 585T924 480T976 310Q976 215 921 140T764 23T526 -20Q375 -20 272 34T115 171T61 344H324Q328 284 357 248T432 195T531 178Q589 178 628 193T687 236T707 298Z" />
<glyph unicode="t" horiz-adv-x="689" d="M636 880H10V1082H636V880ZM449 1348V321Q449 275 462 250T500 216T561 207Q587 207 609 209T645 215V6Q611 -6 570 -13T475 -20Q385 -20 317 11T212 112T174 295V1348H449Z" />
<glyph unicode="u" horiz-adv-x="1144" d="M757 1082H1032V0H773L757 258V1082ZM876 485Q876 340 833 226T699 46T468 -20Q308 -20 209 73T109 382V1082H384V380Q384 315 405 277T462 221T543 204Q637 204 691 240T768 340T791 483L876 485Z" />
<glyph unicode="v" horiz-adv-x="1030" d="M723 1082H1010L642 0H466L478 210L723 1082ZM552 208L561 0H385L16 1082H303L552 208Z" />
<glyph unicode="w" horiz-adv-x="1510" d="M652 1082H827L777 780L540 0H391L417 270L652 1082ZM472 270L484 0H312L30 1082H297L472 270ZM1210 1082H1476L1195 0H1023L1039 282L1210 1082ZM1088 277L1116 0H965L727 780L679 1082H854L1088 277Z" />
<glyph unicode="x" horiz-adv-x="1039" d="M521 750L710 1082H1007L692 552L1019 0H722L522 350L323 0H24L352 552L38 1082H336L521 750Z" />
<glyph unicode="y" horiz-adv-x="1020" d="M719 1082H1013L581 -163Q566 -203 542 -250T479 -340T381 -410T238 -437Q213 -437 193 -435T153 -429T113 -418V-209Q123 -209 136 -210T158 -211Q245 -211 287 -182T353 -86L432 122L719 1082ZM541 299L583 -1L395
-28L6 1082H303L541 299Z" />
<glyph unicode="z" horiz-adv-x="1039" d="M969 0H155V221H969V0ZM258 0H77V171L767 1082H951V917L258 0ZM851 860H91V1082H851V860Z" />
<glyph unicode="{" horiz-adv-x="679" d="M647 1443Q552 1410 518 1326T484 1132V929Q484 828 440 746T300 615T51 566V718Q148 718 190 775T233 929V1132Q233 1237 266 1328T377 1489T593 1597L647 1443ZM593 -360Q456 -321 378 -252T266 -92T233 105V309Q233
404 191 461T51 519V671Q204 671 299 623T439 493T484 309V105Q484 -4 518 -88T647 -205L593 -360Z" />
<glyph unicode="|" horiz-adv-x="517" d="M346 -270H174V1456H346V-270Z" />
<glyph unicode="}" horiz-adv-x="679" d="M86 1597Q224 1559 302 1490T413 1329T446 1132V929Q446 832 488 775T628 718V570Q475 570 380 617T240 746T195 929V1132Q195 1241 161 1325T32 1443L86 1597ZM32 -205Q127 -172 161 -88T195 105V309Q195 411 239 491T379
619T628 667V519Q531 519 489 462T446 309V105Q446 0 413 -91T302 -252T86 -360L32 -205Z" />
<glyph unicode="~" horiz-adv-x="1338" d="M1227 791Q1227 668 1185 576T1067 432T895 380Q813 380 750 412T614 513Q571 554 533 576T452 598Q391 598 355 547T318 417L110 419Q110 544 152 634T268 774T440 824Q522 824 589 791T724 691Q768 650 805 628T883
606Q945 606 983 659T1022 792L1227 791Z" />
<glyph unicode="&#xa0;" horiz-adv-x="510" />
<glyph unicode="&#xa1;" horiz-adv-x="568" d="M171 646H402L432 -368H140L171 646ZM439 956Q439 894 398 852T285 809Q214 809 172 851T130 956Q130 1018 172 1060T285 1102Q357 1102 398 1060T439 956Z" />
<glyph unicode="&#xa2;" horiz-adv-x="1170" d="M695 1026H496V1318H695V1026ZM695 -245H496V46H695V-245ZM593 201Q648 201 690 222T758 281T786 370H1044Q1042 258 982 170T822 31T597 -20Q430 -20 320 53T155 250T100 526V556Q100 708 154 832T319 1029T596
1102Q729 1102 829 1051T985 905T1044 684H786Q784 738 761 783T696 854T592 881Q504 881 457 835T393 714T375 556V526Q375 441 392 367T456 247T593 201Z" />
<glyph unicode="&#xa3;" horiz-adv-x="1214" d="M101 0V230H1157V0H101ZM98 583V807H850V583H98ZM555 434Q555 335 516 264T382 148L191 230Q223 238 239 268T260 339T266 419L246 1039Q246 1177 303 1274T462 1423T698 1475Q914 1475 1030 1362T1147 1063H873Q873
1130 849 1170T784 1227T695 1245Q625 1245 578 1193T531 1039L555 434Z" />
<glyph unicode="&#xa4;" horiz-adv-x="1424" d="M304 608Q304 516 336 436T424 296T555 202T715 168Q800 168 874 201T1005 295T1093 436T1125 608Q1125 700 1094 780T1006 920T875 1013T715 1047Q630 1047 556 1014T425 920T336 780T304 608ZM120 608Q120 741
166 855T294 1054T484 1186T715 1234Q838 1234 946 1187T1136 1054T1264 855T1310 608Q1310 475 1264 361T1136 162T946 28T715 -20Q592 -20 484 28T295 161T167 361T120 608ZM1149 914L1008 1059L1210 1265L1351 1120L1149 914ZM225 -26L85 118L287 323L427 180L225
-26ZM1008 179L1149 323L1351 118L1210 -27L1008 179ZM85 1120L225 1264L427 1058L287 914L85 1120Z" />
<glyph unicode="&#xa5;" horiz-adv-x="1095" d="M979 574H95V742H979V574ZM979 285H95V452H979V285ZM784 1456H1084L675 563H514L478 704L784 1456ZM624 695L583 563H422L11 1456H312L624 695ZM686 0H401V762H686V0Z" />
<glyph unicode="&#xa6;" horiz-adv-x="514" d="M131 -270V525H381V-270H131ZM381 698H131V1456H381V698Z" />
<glyph unicode="&#xa7;" horiz-adv-x="1283" d="M682 274Q787 274 845 323T904 449Q904 499 877 534T783 599T600 665Q452 707 345 758T181 889T123 1097Q123 1212 187 1297T367 1429T639 1476Q879 1476 1017 1366T1155 1049H879Q879 1106 852 1152T772 1226T639
1254Q513 1254 456 1209T399 1099Q399 1049 423 1016T511 956T697 897Q849 857 956 806T1119 675T1175 474Q1175 307 1041 221T682 134V274ZM571 734Q466 734 418 686T369 562Q369 508 393 473T481 410T668 345Q821 304 927 253T1090 122T1146 -86Q1146 -266 1006
-362T633 -459Q533 -459 437 -438T262 -370T138 -241T92 -40L367 -39Q367 -98 390 -136T452 -197T538 -228T633 -237Q749 -237 810 -196T871 -87Q871 -41 845 -9T753 53T570 115Q422 154 315 205T151 336T94 537Q94 699 224 788T571 878V734Z" />
<glyph unicode="&#xa8;" horiz-adv-x="941" d="M94 1366Q94 1419 132 1455T229 1491Q289 1491 326 1455T364 1366Q364 1314 327 1279T229 1243Q170 1243 132 1278T94 1366ZM574 1365Q574 1418 611 1454T708 1490Q768 1490 805 1454T843 1365Q843 1313 806 1278T708
1242Q649 1242 612 1277T574 1365Z" />
<glyph unicode="&#xa9;" horiz-adv-x="1606" d="M1117 596Q1117 439 1028 361T783 282Q622 282 528 389T434 669V788Q434 960 528 1067T783 1175Q938 1175 1028 1097T1118 861H963Q963 957 917 998T783 1040Q719 1040 676 1008T610 920T588 789V669Q588 557 637
487T783 417Q871 417 916 458T962 596H1117ZM209 729Q209 597 254 483T380 284T568 152T797 104Q919 104 1025 151T1212 284T1338 483T1384 729Q1384 861 1339 974T1212 1172T1025 1304T797 1351Q675 1351 568 1304T380 1173T254 975T209 729ZM87 729Q87 888 142
1024T295 1261T521 1419T797 1476Q944 1476 1072 1420T1298 1262T1451 1024T1506 729Q1506 570 1451 434T1299 196T1073 37T797 -20Q650 -20 522 36T295 195T142 434T87 729Z" />
<glyph unicode="&#xaa;" horiz-adv-x="910" d="M582 1201Q582 1263 554 1296T466 1329Q401 1329 364 1304T327 1229L155 1243Q155 1344 240 1410T466 1476Q597 1476 676 1407T756 1200V886Q756 837 762 793T782 705H606Q594 740 588 780T582 861V1201ZM626 1033H481Q393
1033 353 1000T313 923Q313 882 341 859T430 835Q471 835 513 853T584 899T612 951L630 834Q615 802 584 769T505 713T388 691Q268 691 204 753T139 919Q139 1029 223 1089T480 1150H625L626 1033Z" />
<glyph unicode="&#xab;" horiz-adv-x="1014" d="M553 524L335 525V538L618 928H798L553 524ZM798 130H618L335 519V532L553 533L798 130ZM675 524L457 525V538L740 928H920L675 524ZM920 130H740L457 519V532L675 533L920 130Z" />
<glyph unicode="&#xac;" horiz-adv-x="1130" d="M962 634H126V805H962V634ZM962 374H762V728H962V374Z" />
<glyph unicode="&#xad;" horiz-adv-x="600" d="M652 512H100V734H652V512Z" />
<glyph unicode="&#xae;" horiz-adv-x="1606" d="M607 653L605 787H791Q857 788 908 817T959 903Q959 976 920 1004T783 1033H652V316H502V1166H783Q932 1166 1020 1100T1108 905Q1108 824 1051 771T889 688Q886 688 883 681T876 674Q859 664 855 660T846 654T821
653H607ZM832 760Q988 760 1046 691T1104 515V459Q1104 422 1108 389T1121 332V316H967Q957 342 956 390T954 460V514Q954 584 922 618T811 653L832 760ZM209 729Q209 597 254 483T380 284T568 152T797 104Q919 104 1025 151T1212 284T1338 483T1384 729Q1384 861
1339 974T1212 1172T1025 1304T797 1351Q675 1351 568 1304T380 1173T254 975T209 729ZM87 729Q87 888 142 1024T295 1261T521 1419T797 1476Q944 1476 1072 1420T1298 1262T1451 1024T1507 729Q1507 570 1452 434T1299 196T1073 37T797 -20Q650 -20 522 37T295
196T142 434T87 729Z" />
<glyph unicode="&#xaf;" horiz-adv-x="1014" d="M853 1290H164V1453H853V1290Z" />
<glyph unicode="&#xb0;" horiz-adv-x="791" d="M127 1203Q127 1278 164 1340T262 1439T397 1476Q470 1476 530 1439T626 1340T662 1203Q662 1128 626 1067T530 969T397 933Q324 933 263 969T164 1066T127 1203ZM271 1203Q271 1149 308 1114T397 1078Q449 1078
483 1113T518 1203Q518 1258 484 1294T397 1331Q346 1331 309 1295T271 1203Z" />
<glyph unicode="&#xb1;" horiz-adv-x="1100" d="M1007 702H91V930H1007V702ZM675 330H432V1283H675V330ZM976 1H117V225H976V1Z" />
<glyph unicode="&#xb2;" horiz-adv-x="762" d="M693 667H75V801L362 1060Q419 1111 444 1153T470 1220Q470 1260 445 1284T371 1308Q313 1308 285 1275T257 1195H57Q57 1270 94 1331T199 1430T362 1468Q508 1468 588 1403T668 1221Q668 1163 645 1117T574 1024T455
921L335 826H693V667Z" />
<glyph unicode="&#xb3;" horiz-adv-x="762" d="M360 1136Q419 1136 448 1161T477 1227Q477 1258 452 1283T368 1308Q324 1308 294 1291T263 1243H63Q63 1316 104 1366T214 1442T362 1468Q502 1468 588 1410T675 1241Q675 1181 639 1138T539 1072T393 1048H272V1136H360ZM272
1088H393Q483 1088 550 1069T653 1006T690 889Q690 778 596 717T362 656Q288 656 216 680T98 758T51 901H250Q250 867 283 842T374 816Q434 816 462 842T490 907Q490 959 456 980T360 1002H272V1088Z" />
<glyph unicode="&#xb4;" horiz-adv-x="676" d="M301 1536H604L327 1229H105L301 1536Z" />
<glyph unicode="&#xb5;" horiz-adv-x="1144" d="M110 598H340L370 -416H79L110 598ZM757 1082H1032V0H773L757 258V1082ZM876 485Q876 340 833 226T699 46T468 -20Q308 -20 209 73T109 382V1082H384V380Q384 315 405 277T462 221T543 204Q637 204 691 240T768
340T791 483L876 485Z" />
<glyph unicode="&#xb6;" horiz-adv-x="1004" d="M650 0V520H566Q407 520 298 580T131 747T74 988Q74 1122 131 1228T297 1395T566 1456H865V0H650Z" />
<glyph unicode="&#xb7;" horiz-adv-x="606" d="M141 703Q141 766 183 808T298 851Q370 851 412 809T455 703Q455 640 413 597T298 554Q226 554 184 597T141 703Z" />
<glyph unicode="&#xb8;" horiz-adv-x="543" d="M338 6L326 -51Q382 -61 429 -99T477 -224Q477 -330 390 -394T133 -458L126 -301Q161 -301 188 -293T231 -265T247 -216Q247 -173 213 -157T102 -136L133 6H338Z" />
<glyph unicode="&#xb9;" horiz-adv-x="762" d="M524 667H326V1223L134 1179V1334L505 1454H524V667Z" />
<glyph unicode="&#xba;" horiz-adv-x="936" d="M119 1121Q119 1277 212 1376T465 1476Q626 1476 719 1377T812 1121V1044Q812 889 720 790T467 690Q306 690 213 789T119 1044V1121ZM294 1044Q294 955 336 896T467 836Q553 836 595 895T637 1044V1121Q637 1209
595 1269T465 1329Q379 1329 337 1269T294 1121V1044Z" />
<glyph unicode="&#xbb;" horiz-adv-x="1015" d="M333 533L551 532V519L269 129H88L333 533ZM269 928L551 538V525L333 524L88 928H269ZM720 533L938 532V519L656 129H475L720 533ZM656 928L938 538V525L720 524L475 928H656Z" />
<glyph unicode="&#xbc;" horiz-adv-x="1521" d="M530 109L394 184L1105 1322L1241 1247L530 109ZM524 546H326V1102L134 1058V1213L505 1333H524V546ZM1464 161H825L813 291L1173 789H1330L1160 522L1005 323H1464V161ZM1374 0H1174V789H1374V0Z" />
<glyph unicode="&#xbd;" horiz-adv-x="1629" d="M520 109L384 184L1095 1322L1231 1247L520 109ZM524 546H326V1102L134 1058V1213L505 1333H524V546ZM1561 0H943V134L1230 393Q1287 444 1312 486T1338 553Q1338 593 1313 617T1239 641Q1181 641 1153 608T1125
528H925Q925 603 962 664T1067 763T1230 801Q1376 801 1456 736T1536 554Q1536 496 1513 450T1442 357T1323 254L1203 159H1561V0Z" />
<glyph unicode="&#xbe;" horiz-adv-x="1616" d="M360 1008Q419 1008 448 1033T477 1099Q477 1130 452 1155T368 1180Q324 1180 294 1163T263 1115H63Q63 1188 104 1238T214 1314T362 1340Q502 1340 588 1282T675 1113Q675 1053 639 1010T539 944T393 920H272V1008H360ZM272
960H393Q483 960 550 941T653 878T690 761Q690 650 596 589T362 528Q288 528 216 552T98 630T51 773H250Q250 739 283 714T374 688Q434 688 462 714T490 779Q490 831 456 852T360 874H272V960ZM624 109L488 184L1199 1322L1335 1247L624 109ZM1559 161H920L908
291L1268 789H1425L1255 522L1100 323H1559V161ZM1469 0H1269V789H1469V0Z" />
<glyph unicode="&#xbf;" horiz-adv-x="1013" d="M656 648Q656 558 642 494T595 377T504 270Q460 228 424 189T366 107T345 7Q345 -77 389 -118T509 -159Q579 -159 631 -118T686 16H961Q960 -119 900 -208T739 -341T513 -385Q304 -385 187 -285T70 5Q70 93 106
163T198 294T319 414Q356 449 375 483T401 557T409 648H656ZM687 957Q687 895 646 853T533 810Q462 810 420 852T378 957Q378 1019 420 1061T533 1103Q605 1103 646 1061T687 957Z" />
<glyph unicode="&#xc0;" horiz-adv-x="1374" d="M313 0H10L555 1456H747L723 1215L313 0ZM650 1215L624 1456H818L1364 0H1062L650 1215ZM1048 311H265V543H1048V311ZM838 1539H611L337 1846H641L838 1539Z" />
<glyph unicode="&#xc1;" horiz-adv-x="1374" d="M313 0H10L555 1456H747L723 1215L313 0ZM650 1215L624 1456H818L1364 0H1062L650 1215ZM1048 311H265V543H1048V311ZM749 1846H1052L776 1539H553L749 1846Z" />
<glyph unicode="&#xc2;" horiz-adv-x="1374" d="M313 0H10L555 1456H747L723 1215L313 0ZM650 1215L624 1456H818L1364 0H1062L650 1215ZM1048 311H265V543H1048V311ZM1063 1568V1556H844L690 1704L537 1556H322V1570L611 1847H770L1063 1568Z" />
<glyph unicode="&#xc3;" horiz-adv-x="1374" d="M313 0H10L555 1456H747L723 1215L313 0ZM650 1215L624 1456H818L1364 0H1062L650 1215ZM1048 311H265V543H1048V311ZM1063 1829Q1063 1755 1034 1696T953 1601T837 1566Q788 1566 754 1579T692 1609T634 1640T564
1653Q527 1653 503 1627T478 1556L316 1565Q316 1637 345 1697T425 1793T541 1829Q581 1829 615 1816T680 1786T743 1756T814 1743Q850 1743 875 1768T901 1840L1063 1829Z" />
<glyph unicode="&#xc4;" horiz-adv-x="1374" d="M313 0H10L555 1456H747L723 1215L313 0ZM650 1215L624 1456H818L1364 0H1062L650 1215ZM1048 311H265V543H1048V311ZM315 1676Q315 1729 353 1765T450 1801Q510 1801 547 1765T585 1676Q585 1624 548 1589T450
1553Q391 1553 353 1588T315 1676ZM795 1675Q795 1728 832 1764T929 1800Q989 1800 1026 1764T1064 1675Q1064 1623 1027 1588T929 1552Q870 1552 833 1587T795 1675Z" />
<glyph unicode="&#xc5;" horiz-adv-x="1374" d="M313 0H10L555 1456H747L723 1215L313 0ZM650 1215L624 1456H818L1364 0H1062L650 1215ZM1048 311H265V543H1048V311ZM469 1731Q469 1816 532 1876T692 1937Q787 1937 850 1877T913 1731Q913 1646 850 1588T692
1529Q596 1529 533 1587T469 1731ZM582 1731Q582 1687 612 1655T692 1622Q741 1622 770 1654T800 1731Q800 1775 771 1808T692 1842Q642 1842 612 1809T582 1731Z" />
<glyph unicode="&#xc6;" horiz-adv-x="1925" d="M324 0H-1L799 1456H973L991 1299L324 0ZM1104 336H352V573H1104V336ZM1869 0H1136V224H1869V0ZM1248 0H972L911 1456H1187L1248 0ZM1726 637H1096V861H1726V637ZM1807 1232H1075V1456H1807V1232Z" />
<glyph unicode="&#xc7;" horiz-adv-x="1340" d="M1269 482Q1259 336 1189 223T993 45T688 -20Q504 -20 370 65T164 306T91 676V779Q91 993 165 1149T375 1391T694 1477Q874 1477 997 1411T1188 1230T1270 966H985Q973 1099 909 1171T694 1243Q589 1243 520 1192T416
1038T381 781V676Q381 527 412 424T510 267T688 213Q787 213 849 243T943 334T984 482H1269ZM791 2L779 -55Q835 -65 882 -103T930 -228Q930 -334 843 -398T586 -462L579 -305Q614 -305 641 -297T684 -269T700 -220Q700 -177 666 -161T555 -140L586 2H791Z" />
<glyph unicode="&#xc8;" horiz-adv-x="1154" d="M1105 0H336V230H1105V0ZM422 0H135V1456H422V0ZM1004 637H336V862H1004V637ZM1101 1225H336V1456H1101V1225ZM781 1544H554L280 1851H584L781 1544Z" />
<glyph unicode="&#xc9;" horiz-adv-x="1154" d="M1105 0H336V230H1105V0ZM422 0H135V1456H422V0ZM1004 637H336V862H1004V637ZM1101 1225H336V1456H1101V1225ZM692 1851H995L719 1544H496L692 1851Z" />
<glyph unicode="&#xca;" horiz-adv-x="1154" d="M1105 0H336V230H1105V0ZM422 0H135V1456H422V0ZM1004 637H336V862H1004V637ZM1101 1225H336V1456H1101V1225ZM1006 1573V1561H787L633 1709L480 1561H265V1575L554 1852H713L1006 1573Z" />
<glyph unicode="&#xcb;" horiz-adv-x="1154" d="M1105 0H336V230H1105V0ZM422 0H135V1456H422V0ZM1004 637H336V862H1004V637ZM1101 1225H336V1456H1101V1225ZM258 1681Q258 1734 296 1770T393 1806Q453 1806 490 1770T528 1681Q528 1629 491 1594T393 1558Q334
1558 296 1593T258 1681ZM738 1680Q738 1733 775 1769T872 1805Q932 1805 969 1769T1007 1680Q1007 1628 970 1593T872 1557Q813 1557 776 1592T738 1680Z" />
<glyph unicode="&#xcc;" horiz-adv-x="593" d="M440 0H154V1456H440V0ZM443 1544H216L-58 1851H246L443 1544Z" />
<glyph unicode="&#xcd;" horiz-adv-x="593" d="M440 0H154V1456H440V0ZM355 1851H658L382 1544H159L355 1851Z" />
<glyph unicode="&#xce;" horiz-adv-x="593" d="M440 0H154V1456H440V0ZM668 1573V1561H449L295 1709L142 1561H-73V1575L216 1852H375L668 1573Z" />
<glyph unicode="&#xcf;" horiz-adv-x="593" d="M440 0H154V1456H440V0ZM-79 1681Q-79 1734 -41 1770T56 1806Q116 1806 153 1770T191 1681Q191 1629 154 1594T56 1558Q-3 1558 -41 1593T-79 1681ZM401 1680Q401 1733 438 1769T535 1805Q595 1805 632 1769T670
1680Q670 1628 633 1593T535 1557Q476 1557 439 1592T401 1680Z" />
<glyph unicode="&#xd0;" horiz-adv-x="1333" d="M261 0L263 230H573Q698 230 782 284T909 442T952 694V764Q952 914 910 1016T784 1172T578 1225H255V1456H578Q775 1456 924 1369T1157 1126T1241 762V694Q1241 485 1157 329T923 87T573 0H261ZM422 0H135V1456H422V0ZM675
645H-17V824H675V645Z" />
<glyph unicode="&#xd1;" horiz-adv-x="1449" d="M1311 0H1025L421 982V0H135V1456H421L1027 473V1456H1311V0ZM1099 1829Q1099 1755 1070 1696T989 1601T873 1566Q824 1566 790 1579T728 1609T670 1640T600 1653Q563 1653 539 1627T514 1556L352 1565Q352 1637
381 1697T461 1793T577 1829Q617 1829 651 1816T716 1786T779 1756T850 1743Q886 1743 911 1768T937 1840L1099 1829Z" />
<glyph unicode="&#xd2;" horiz-adv-x="1414" d="M1322 694Q1322 472 1245 312T1029 66T708 -20Q527 -20 388 66T170 312T91 694V761Q91 983 169 1143T386 1389T706 1476Q889 1476 1027 1390T1244 1143T1322 761V694ZM1033 763Q1033 919 995 1025T883 1185T706
1240Q603 1240 530 1186T419 1025T380 763V694Q380 539 419 432T531 270T708 215Q812 215 885 270T995 432T1033 694V763ZM855 1539H628L354 1846H658L855 1539Z" />
<glyph unicode="&#xd3;" horiz-adv-x="1414" d="M1322 694Q1322 472 1245 312T1029 66T708 -20Q527 -20 388 66T170 312T91 694V761Q91 983 169 1143T386 1389T706 1476Q889 1476 1027 1390T1244 1143T1322 761V694ZM1033 763Q1033 919 995 1025T883 1185T706
1240Q603 1240 530 1186T419 1025T380 763V694Q380 539 419 432T531 270T708 215Q812 215 885 270T995 432T1033 694V763ZM766 1846H1069L793 1539H570L766 1846Z" />
<glyph unicode="&#xd4;" horiz-adv-x="1414" d="M1322 694Q1322 472 1245 312T1029 66T708 -20Q527 -20 388 66T170 312T91 694V761Q91 983 169 1143T386 1389T706 1476Q889 1476 1027 1390T1244 1143T1322 761V694ZM1033 763Q1033 919 995 1025T883 1185T706
1240Q603 1240 530 1186T419 1025T380 763V694Q380 539 419 432T531 270T708 215Q812 215 885 270T995 432T1033 694V763ZM1080 1568V1556H861L707 1704L554 1556H339V1570L628 1847H787L1080 1568Z" />
<glyph unicode="&#xd5;" horiz-adv-x="1414" d="M1322 694Q1322 472 1245 312T1029 66T708 -20Q527 -20 388 66T170 312T91 694V761Q91 983 169 1143T386 1389T706 1476Q889 1476 1027 1390T1244 1143T1322 761V694ZM1033 763Q1033 919 995 1025T883 1185T706
1240Q603 1240 530 1186T419 1025T380 763V694Q380 539 419 432T531 270T708 215Q812 215 885 270T995 432T1033 694V763ZM1080 1829Q1080 1755 1051 1696T970 1601T854 1566Q805 1566 771 1579T709 1609T651 1640T581 1653Q544 1653 520 1627T495 1556L333 1565Q333
1637 362 1697T442 1793T558 1829Q598 1829 632 1816T697 1786T760 1756T831 1743Q867 1743 892 1768T918 1840L1080 1829Z" />
<glyph unicode="&#xd6;" horiz-adv-x="1414" d="M1322 694Q1322 472 1245 312T1029 66T708 -20Q527 -20 388 66T170 312T91 694V761Q91 983 169 1143T386 1389T706 1476Q889 1476 1027 1390T1244 1143T1322 761V694ZM1033 763Q1033 919 995 1025T883 1185T706
1240Q603 1240 530 1186T419 1025T380 763V694Q380 539 419 432T531 270T708 215Q812 215 885 270T995 432T1033 694V763ZM332 1676Q332 1729 370 1765T467 1801Q527 1801 564 1765T602 1676Q602 1624 565 1589T467 1553Q408 1553 370 1588T332 1676ZM812 1675Q812
1728 849 1764T946 1800Q1006 1800 1043 1764T1081 1675Q1081 1623 1044 1588T946 1552Q887 1552 850 1587T812 1675Z" />
<glyph unicode="&#xd7;" horiz-adv-x="1089" d="M69 369L848 1163L1011 1001L232 207L69 369ZM69 1001L232 1163L1011 369L848 207L69 1001Z" />
<glyph unicode="&#xd8;" horiz-adv-x="1412" d="M332 -95H150L1112 1518H1292L332 -95ZM1328 694Q1328 472 1251 312T1035 66T714 -20Q533 -20 394 66T176 312T97 694V761Q97 983 175 1143T392 1389T712 1476Q895 1476 1033 1390T1250 1143T1328 761V694ZM1040
763Q1040 919 1001 1025T889 1185T712 1240Q609 1240 536 1186T425 1025T386 763V694Q386 539 425 432T537 270T714 215Q818 215 891 270T1002 432T1040 694V763Z" />
<glyph unicode="&#xd9;" horiz-adv-x="1345" d="M1227 1456V492Q1227 324 1155 210T957 38T674 -20Q513 -20 388 38T191 210T119 492V1456H405V492Q405 394 437 332T530 240T674 210Q758 210 817 240T909 332T941 492V1456H1227ZM818 1539H591L317 1846H621L818 1539Z" />
<glyph unicode="&#xda;" horiz-adv-x="1345" d="M1227 1456V492Q1227 324 1155 210T957 38T674 -20Q513 -20 388 38T191 210T119 492V1456H405V492Q405 394 437 332T530 240T674 210Q758 210 817 240T909 332T941 492V1456H1227ZM729 1846H1032L756 1539H533L729 1846Z" />
<glyph unicode="&#xdb;" horiz-adv-x="1345" d="M1227 1456V492Q1227 324 1155 210T957 38T674 -20Q513 -20 388 38T191 210T119 492V1456H405V492Q405 394 437 332T530 240T674 210Q758 210 817 240T909 332T941 492V1456H1227ZM1043 1568V1556H824L670 1704L517
1556H302V1570L591 1847H750L1043 1568Z" />
<glyph unicode="&#xdc;" horiz-adv-x="1345" d="M1227 1456V492Q1227 324 1155 210T957 38T674 -20Q513 -20 388 38T191 210T119 492V1456H405V492Q405 394 437 332T530 240T674 210Q758 210 817 240T909 332T941 492V1456H1227ZM295 1676Q295 1729 333 1765T430
1801Q490 1801 527 1765T565 1676Q565 1624 528 1589T430 1553Q371 1553 333 1588T295 1676ZM775 1675Q775 1728 812 1764T909 1800Q969 1800 1006 1764T1044 1675Q1044 1623 1007 1588T909 1552Q850 1552 813 1587T775 1675Z" />
<glyph unicode="&#xdd;" horiz-adv-x="1262" d="M630 790L943 1456H1256L775 531V0H485V531L4 1456H318L630 790ZM692 1846H995L719 1539H496L692 1846Z" />
<glyph unicode="&#xde;" horiz-adv-x="1241" d="M414 1456V0H138V1456H414ZM643 1185Q815 1185 933 1128T1112 970T1173 738Q1173 608 1112 507T933 349T643 291H373V512H643Q734 512 790 544T871 627T897 736Q897 795 872 847T790 931T643 964H413L239 1185H643Z" />
<glyph unicode="&#xdf;" horiz-adv-x="1282" d="M410 0H136V1103Q136 1329 261 1444T599 1559Q714 1559 808 1519T958 1397T1014 1194Q1014 1119 998 1073T959 994T921 924T904 829Q904 786 935 749T1012 672T1103 587T1180 483T1211 350Q1211 231 1160 149T1011
23T775 -20Q723 -20 668 -13T567 8T493 39L545 257Q578 240 637 221T767 202Q823 202 860 219T917 269T937 344Q937 394 906 433T829 508T737 587T660 684T629 818Q629 884 646 927T686 1006T726 1081T744 1179Q744 1228 723 1264T666 1319T582 1338Q503 1338 457
1284T410 1099V0Z" />
<glyph unicode="&#xe0;" horiz-adv-x="1101" d="M708 726Q708 804 667 850T539 897Q489 897 452 880T394 833T374 761H99Q99 853 155 930T313 1055T554 1102Q678 1102 775 1060T928 934T984 724V259Q984 173 995 116T1027 17V0H748Q728 43 718 108T708 239V726ZM748
497H586Q465 497 408 449T350 326Q350 269 389 231T500 193Q568 193 618 220T695 286T723 358L802 238Q788 197 761 153T690 69T585 5T442 -20Q338 -20 255 21T123 136T74 304Q74 475 201 568T573 661H746L748 497ZM704 1229H477L203 1536H507L704 1229Z" />
<glyph unicode="&#xe1;" horiz-adv-x="1101" d="M708 726Q708 804 667 850T539 897Q489 897 452 880T394 833T374 761H99Q99 853 155 930T313 1055T554 1102Q678 1102 775 1060T928 934T984 724V259Q984 173 995 116T1027 17V0H748Q728 43 718 108T708 239V726ZM748
497H586Q465 497 408 449T350 326Q350 269 389 231T500 193Q568 193 618 220T695 286T723 358L802 238Q788 197 761 153T690 69T585 5T442 -20Q338 -20 255 21T123 136T74 304Q74 475 201 568T573 661H746L748 497ZM616 1536H919L643 1229H420L616 1536Z" />
<glyph unicode="&#xe2;" horiz-adv-x="1101" d="M708 726Q708 804 667 850T539 897Q489 897 452 880T394 833T374 761H99Q99 853 155 930T313 1055T554 1102Q678 1102 775 1060T928 934T984 724V259Q984 173 995 116T1027 17V0H748Q728 43 718 108T708 239V726ZM748
497H586Q465 497 408 449T350 326Q350 269 389 231T500 193Q568 193 618 220T695 286T723 358L802 238Q788 197 761 153T690 69T585 5T442 -20Q338 -20 255 21T123 136T74 304Q74 475 201 568T573 661H746L748 497ZM929 1258V1246H710L556 1394L403 1246H188V1260L477
1537H636L929 1258Z" />
<glyph unicode="&#xe3;" horiz-adv-x="1101" d="M708 726Q708 804 667 850T539 897Q489 897 452 880T394 833T374 761H99Q99 853 155 930T313 1055T554 1102Q678 1102 775 1060T928 934T984 724V259Q984 173 995 116T1027 17V0H748Q728 43 718 108T708 239V726ZM748
497H586Q465 497 408 449T350 326Q350 269 389 231T500 193Q568 193 618 220T695 286T723 358L802 238Q788 197 761 153T690 69T585 5T442 -20Q338 -20 255 21T123 136T74 304Q74 475 201 568T573 661H746L748 497ZM929 1519Q929 1445 900 1386T819 1291T703 1256Q654
1256 620 1269T558 1299T500 1330T430 1343Q393 1343 369 1317T344 1246L182 1255Q182 1327 211 1387T291 1483T407 1519Q447 1519 481 1506T546 1476T609 1446T680 1433Q716 1433 741 1458T767 1530L929 1519Z" />
<glyph unicode="&#xe4;" horiz-adv-x="1101" d="M708 726Q708 804 667 850T539 897Q489 897 452 880T394 833T374 761H99Q99 853 155 930T313 1055T554 1102Q678 1102 775 1060T928 934T984 724V259Q984 173 995 116T1027 17V0H748Q728 43 718 108T708 239V726ZM748
497H586Q465 497 408 449T350 326Q350 269 389 231T500 193Q568 193 618 220T695 286T723 358L802 238Q788 197 761 153T690 69T585 5T442 -20Q338 -20 255 21T123 136T74 304Q74 475 201 568T573 661H746L748 497ZM181 1366Q181 1419 219 1455T316 1491Q376 1491
413 1455T451 1366Q451 1314 414 1279T316 1243Q257 1243 219 1278T181 1366ZM661 1365Q661 1418 698 1454T795 1490Q855 1490 892 1454T930 1365Q930 1313 893 1278T795 1242Q736 1242 699 1277T661 1365Z" />
<glyph unicode="&#xe5;" horiz-adv-x="1101" d="M708 726Q708 804 667 850T539 897Q489 897 452 880T394 833T374 761H99Q99 853 155 930T313 1055T554 1102Q678 1102 775 1060T928 934T984 724V259Q984 173 995 116T1027 17V0H748Q728 43 718 108T708 239V726ZM748
497H586Q465 497 408 449T350 326Q350 269 389 231T500 193Q568 193 618 220T695 286T723 358L802 238Q788 197 761 153T690 69T585 5T442 -20Q338 -20 255 21T123 136T74 304Q74 475 201 568T573 661H746L748 497ZM335 1420Q335 1505 398 1565T558 1626Q653 1626
716 1566T779 1420Q779 1335 716 1277T558 1218Q462 1218 399 1276T335 1420ZM448 1420Q448 1376 478 1344T558 1311Q607 1311 636 1343T666 1420Q666 1464 637 1497T558 1531Q508 1531 478 1498T448 1420Z" />
<glyph unicode="&#xe6;" horiz-adv-x="1730" d="M729 708Q729 788 687 834T563 881Q476 881 426 841T376 747L102 766Q102 864 159 939T321 1058T566 1102Q760 1102 878 1003T996 706V218L729 183V708ZM774 466H559Q488 466 441 445T368 388T343 313Q343 256 385
220T514 183Q558 183 604 199T689 240T752 294T776 348L905 193Q880 144 823 95T675 13T461 -20Q271 -20 170 71T68 317Q68 475 192 561T557 648H772L774 466ZM1249 -20Q1083 -20 968 46T793 230T733 499V564Q733 722 791 844T958 1034T1222 1102Q1437 1102 1556
970T1675 612V457H850V644H1404V672Q1404 733 1385 780T1326 854T1222 881Q1142 881 1093 839T1020 726T997 564V499Q997 416 1025 348T1115 241T1275 202Q1382 202 1449 227T1572 283L1648 101Q1615 75 1558 47T1423 0T1249 -20Z" />
<glyph unicode="&#xe7;" horiz-adv-x="1070" d="M563 201Q618 201 661 222T729 281T756 370H1014Q1013 258 953 170T792 31T567 -20Q400 -20 290 53T125 250T70 526V556Q70 708 125 832T290 1029T566 1102Q699 1102 799 1051T956 905T1014 684H756Q754 738 731
783T666 854T562 881Q474 881 427 835T363 714T345 556V526Q345 441 362 367T426 247T563 201ZM658 2L646 -55Q702 -65 749 -103T797 -228Q797 -334 710 -398T453 -462L446 -305Q481 -305 508 -297T551 -269T567 -220Q567 -177 533 -161T422 -140L453 2H658Z" />
<glyph unicode="&#xe8;" horiz-adv-x="1105" d="M607 -20Q442 -20 323 50T140 239T76 504V543Q76 709 138 835T314 1031T576 1102Q733 1102 837 1035T995 849T1049 570V453H199V644H778V666Q776 725 755 774T690 852T575 881Q498 881 449 838T375 719T351 543V504Q351
416 383 348T477 241T624 202Q706 202 773 233T889 327L1027 178Q976 103 872 42T607 -20ZM696 1230H469L195 1537H499L696 1230Z" />
<glyph unicode="&#xe9;" horiz-adv-x="1105" d="M607 -20Q442 -20 323 50T140 239T76 504V543Q76 709 138 835T314 1031T576 1102Q733 1102 837 1035T995 849T1049 570V453H199V644H778V666Q776 725 755 774T690 852T575 881Q498 881 449 838T375 719T351 543V504Q351
416 383 348T477 241T624 202Q706 202 773 233T889 327L1027 178Q976 103 872 42T607 -20ZM607 1537H910L634 1230H411L607 1537Z" />
<glyph unicode="&#xea;" horiz-adv-x="1105" d="M607 -20Q442 -20 323 50T140 239T76 504V543Q76 709 138 835T314 1031T576 1102Q733 1102 837 1035T995 849T1049 570V453H199V644H778V666Q776 725 755 774T690 852T575 881Q498 881 449 838T375 719T351 543V504Q351
416 383 348T477 241T624 202Q706 202 773 233T889 327L1027 178Q976 103 872 42T607 -20ZM920 1259V1247H701L547 1395L394 1247H179V1261L468 1538H627L920 1259Z" />
<glyph unicode="&#xeb;" horiz-adv-x="1105" d="M607 -20Q442 -20 323 50T140 239T76 504V543Q76 709 138 835T314 1031T576 1102Q733 1102 837 1035T995 849T1049 570V453H199V644H778V666Q776 725 755 774T690 852T575 881Q498 881 449 838T375 719T351 543V504Q351
416 383 348T477 241T624 202Q706 202 773 233T889 327L1027 178Q976 103 872 42T607 -20ZM172 1367Q172 1420 210 1456T307 1492Q367 1492 404 1456T442 1367Q442 1315 405 1280T307 1244Q248 1244 210 1279T172 1367ZM652 1366Q652 1419 689 1455T786 1491Q846
1491 883 1455T921 1366Q921 1314 884 1279T786 1243Q727 1243 690 1278T652 1366Z" />
<glyph unicode="&#xec;" horiz-adv-x="554" d="M413 0H137V1082H413V0ZM425 1216H198L-76 1523H228L425 1216Z" />
<glyph unicode="&#xed;" horiz-adv-x="554" d="M413 0H137V1082H413V0ZM337 1523H640L364 1216H141L337 1523Z" />
<glyph unicode="&#xee;" horiz-adv-x="554" d="M413 0H137V1082H413V0ZM650 1245V1233H431L277 1381L124 1233H-91V1247L198 1524H357L650 1245Z" />
<glyph unicode="&#xef;" horiz-adv-x="554" d="M413 0H137V1082H413V0ZM-98 1353Q-98 1406 -60 1442T37 1478Q97 1478 134 1442T172 1353Q172 1301 135 1266T37 1230Q-22 1230 -60 1265T-98 1353ZM382 1352Q382 1405 419 1441T516 1477Q576 1477 613 1441T651
1352Q651 1300 614 1265T516 1229Q457 1229 420 1264T382 1352Z" />
<glyph unicode="&#xf0;" horiz-adv-x="1182" d="M323 1580Q551 1533 726 1407T1001 1089T1101 648V571Q1101 396 1035 263T853 55T589 -20Q441 -20 329 45T153 221T90 468Q90 618 144 730T300 905T542 968Q655 968 745 918T890 782T952 592L853 594Q853 621 838
649T792 702T714 742T604 758Q526 758 473 723T393 623T365 468Q365 397 392 337T470 239T593 202Q669 202 720 247T798 370T825 546V650Q825 809 777 930T646 1137T457 1279T236 1365L323 1580ZM427 1036L349 1148L912 1510L989 1398L427 1036Z" />
<glyph unicode="&#xf1;" horiz-adv-x="1145" d="M385 0H111V1082H369L385 851V0ZM262 576Q262 737 315 855T465 1037T690 1102Q794 1102 870 1062T990 933T1033 692V0H757V693Q757 764 737 804T677 861T579 878Q521 878 477 856T403 792T358 697T342 578L262 576ZM948
1519Q948 1445 919 1386T838 1291T722 1256Q673 1256 639 1269T577 1299T519 1330T449 1343Q412 1343 388 1317T363 1246L201 1255Q201 1327 230 1387T310 1483T426 1519Q466 1519 500 1506T565 1476T628 1446T699 1433Q735 1433 760 1458T786 1530L948 1519Z"
/>
<glyph unicode="&#xf2;" horiz-adv-x="1160" d="M70 551Q70 709 130 833T303 1030T578 1102Q742 1102 856 1030T1029 834T1089 551V530Q1089 373 1030 248T857 52T580 -20Q418 -20 304 51T130 248T70 530V551ZM346 530Q346 440 369 365T444 246T580 201Q664 201
715 245T790 365T814 530V551Q814 640 791 715T716 835T578 881Q495 881 444 836T369 715T346 551V530ZM725 1229H498L224 1536H528L725 1229Z" />
<glyph unicode="&#xf3;" horiz-adv-x="1160" d="M70 551Q70 709 130 833T303 1030T578 1102Q742 1102 856 1030T1029 834T1089 551V530Q1089 373 1030 248T857 52T580 -20Q418 -20 304 51T130 248T70 530V551ZM346 530Q346 440 369 365T444 246T580 201Q664 201
715 245T790 365T814 530V551Q814 640 791 715T716 835T578 881Q495 881 444 836T369 715T346 551V530ZM635 1536H938L662 1229H439L635 1536Z" />
<glyph unicode="&#xf4;" horiz-adv-x="1160" d="M70 551Q70 709 130 833T303 1030T578 1102Q742 1102 856 1030T1029 834T1089 551V530Q1089 373 1030 248T857 52T580 -20Q418 -20 304 51T130 248T70 530V551ZM346 530Q346 440 369 365T444 246T580 201Q664 201
715 245T790 365T814 530V551Q814 640 791 715T716 835T578 881Q495 881 444 836T369 715T346 551V530ZM949 1258V1246H730L576 1394L423 1246H208V1260L497 1537H656L949 1258Z" />
<glyph unicode="&#xf5;" horiz-adv-x="1160" d="M70 551Q70 709 130 833T303 1030T578 1102Q742 1102 856 1030T1029 834T1089 551V530Q1089 373 1030 248T857 52T580 -20Q418 -20 304 51T130 248T70 530V551ZM346 530Q346 440 369 365T444 246T580 201Q664 201
715 245T790 365T814 530V551Q814 640 791 715T716 835T578 881Q495 881 444 836T369 715T346 551V530ZM949 1519Q949 1445 920 1386T839 1291T723 1256Q674 1256 640 1269T578 1299T520 1330T450 1343Q413 1343 389 1317T364 1246L202 1255Q202 1327 231 1387T311
1483T427 1519Q467 1519 501 1506T566 1476T629 1446T700 1433Q736 1433 761 1458T787 1530L949 1519Z" />
<glyph unicode="&#xf6;" horiz-adv-x="1160" d="M70 551Q70 709 130 833T303 1030T578 1102Q742 1102 856 1030T1029 834T1089 551V530Q1089 373 1030 248T857 52T580 -20Q418 -20 304 51T130 248T70 530V551ZM346 530Q346 440 369 365T444 246T580 201Q664 201
715 245T790 365T814 530V551Q814 640 791 715T716 835T578 881Q495 881 444 836T369 715T346 551V530ZM201 1366Q201 1419 239 1455T336 1491Q396 1491 433 1455T471 1366Q471 1314 434 1279T336 1243Q277 1243 239 1278T201 1366ZM681 1365Q681 1418 718 1454T815
1490Q875 1490 912 1454T950 1365Q950 1313 913 1278T815 1242Q756 1242 719 1277T681 1365Z" />
<glyph unicode="&#xf7;" horiz-adv-x="1168" d="M1088 575H65V800H1088V575ZM421 1091Q421 1155 463 1196T578 1237Q650 1237 692 1196T735 1091Q735 1028 693 987T578 946Q506 946 464 987T421 1091ZM421 278Q421 342 463 383T578 424Q650 424 692 383T735 278Q735
216 693 175T578 133Q506 133 464 174T421 278Z" />
<glyph unicode="&#xf8;" horiz-adv-x="1157" d="M330 -141H174L837 1215H993L330 -141ZM70 551Q70 709 130 833T303 1030T578 1102Q742 1102 856 1030T1029 834T1089 551V530Q1089 373 1030 248T857 52T580 -20Q418 -20 304 51T130 248T70 530V551ZM346 530Q346
440 369 365T444 246T580 201Q664 201 715 245T790 365T814 530V551Q814 640 791 715T716 835T578 881Q495 881 444 836T369 715T346 551V530Z" />
<glyph unicode="&#xf9;" horiz-adv-x="1144" d="M757 1082H1032V0H773L757 258V1082ZM876 485Q876 340 833 226T699 46T468 -20Q308 -20 209 73T109 382V1082H384V380Q384 315 405 277T462 221T543 204Q637 204 691 240T768 340T791 483L876 485ZM720 1229H493L219
1536H523L720 1229Z" />
<glyph unicode="&#xfa;" horiz-adv-x="1144" d="M757 1082H1032V0H773L757 258V1082ZM876 485Q876 340 833 226T699 46T468 -20Q308 -20 209 73T109 382V1082H384V380Q384 315 405 277T462 221T543 204Q637 204 691 240T768 340T791 483L876 485ZM631 1536H934L658
1229H435L631 1536Z" />
<glyph unicode="&#xfb;" horiz-adv-x="1144" d="M757 1082H1032V0H773L757 258V1082ZM876 485Q876 340 833 226T699 46T468 -20Q308 -20 209 73T109 382V1082H384V380Q384 315 405 277T462 221T543 204Q637 204 691 240T768 340T791 483L876 485ZM945 1258V1246H726L572
1394L419 1246H204V1260L493 1537H652L945 1258Z" />
<glyph unicode="&#xfc;" horiz-adv-x="1144" d="M757 1082H1032V0H773L757 258V1082ZM876 485Q876 340 833 226T699 46T468 -20Q308 -20 209 73T109 382V1082H384V380Q384 315 405 277T462 221T543 204Q637 204 691 240T768 340T791 483L876 485ZM197 1366Q197
1419 235 1455T332 1491Q392 1491 429 1455T467 1366Q467 1314 430 1279T332 1243Q273 1243 235 1278T197 1366ZM677 1365Q677 1418 714 1454T811 1490Q871 1490 908 1454T946 1365Q946 1313 909 1278T811 1242Q752 1242 715 1277T677 1365Z" />
<glyph unicode="&#xfd;" horiz-adv-x="1020" d="M719 1082H1013L581 -163Q566 -203 542 -250T479 -340T381 -410T238 -437Q213 -437 193 -435T153 -429T113 -418V-209Q123 -209 136 -210T158 -211Q245 -211 287 -182T353 -86L432 122L719 1082ZM541 299L583 -1L395
-28L6 1082H303L541 299ZM578 1536H881L605 1229H382L578 1536Z" />
<glyph unicode="&#xfe;" horiz-adv-x="1165" d="M394 -416H118V1536H394V-416ZM1085 532Q1085 374 1037 250T895 53T665 -20Q530 -20 443 49T307 239T239 509V560Q258 719 306 841T442 1032T662 1102Q799 1102 893 1034T1036 841T1085 553V532ZM810 553Q810 645
788 718T717 835T590 878Q530 878 488 859T417 805T375 719T356 607V461Q363 388 388 329T462 236T592 201Q671 201 718 246T788 366T810 532V553Z" />
<glyph unicode="&#xff;" horiz-adv-x="1020" d="M719 1082H1013L581 -163Q566 -203 542 -250T479 -340T381 -410T238 -437Q213 -437 193 -435T153 -429T113 -418V-209Q123 -209 136 -210T158 -211Q245 -211 287 -182T353 -86L432 122L719 1082ZM541 299L583 -1L395
-28L6 1082H303L541 299ZM144 1366Q144 1419 182 1455T279 1491Q339 1491 376 1455T414 1366Q414 1314 377 1279T279 1243Q220 1243 182 1278T144 1366ZM624 1365Q624 1418 661 1454T758 1490Q818 1490 855 1454T893 1365Q893 1313 856 1278T758 1242Q699 1242
662 1277T624 1365Z" />
<glyph unicode="&#x2013;" horiz-adv-x="1302" d="M1440 604H409V828H1440V604Z" />
<glyph unicode="&#x2014;" horiz-adv-x="1568" d="M1743 604H369V828H1743V604Z" />
<glyph unicode="&#x2018;" horiz-adv-x="470" d="M103 1198Q103 1263 127 1332T192 1463T285 1569L417 1490Q379 1430 353 1360T327 1199V1051H103V1198Z" />
<glyph unicode="&#x2019;" horiz-adv-x="462" d="M371 1385Q371 1321 347 1252T282 1120T189 1014L57 1093Q96 1153 121 1223T147 1385V1536H371V1385Z" />
<glyph unicode="&#x201a;" horiz-adv-x="494" d="M375 68Q375 4 351 -65T286 -196T193 -302L62 -224Q100 -163 122 -94T145 67V223H376L375 68Z" />
<glyph unicode="&#x201c;" horiz-adv-x="817" d="M111 1198Q111 1263 135 1332T200 1463T293 1569L425 1490Q387 1430 361 1360T335 1199V1051H111V1198ZM452 1198Q452 1263 476 1332T541 1463T634 1569L766 1490Q728 1430 702 1360T676 1199V1051H452V1198Z" />
<glyph unicode="&#x201d;" horiz-adv-x="824" d="M385 1385Q385 1321 361 1252T296 1120T203 1014L71 1093Q110 1153 135 1223T161 1385V1536H385V1385ZM727 1385Q727 1321 703 1252T638 1120T545 1014L413 1093Q452 1153 477 1223T503 1385V1536H727V1385Z" />
<glyph unicode="&#x201e;" horiz-adv-x="810" d="M375 68Q375 0 353 -73T291 -211T200 -322L62 -244Q100 -179 122 -105T145 67V261H376L375 68ZM714 68Q714 0 690 -73T625 -211T532 -322L393 -244Q432 -179 457 -105T483 67V261H714V68Z" />
<glyph unicode="&#x2022;" horiz-adv-x="730" d="M136 767Q136 867 198 930T367 993Q477 993 539 930T602 767V729Q602 631 540 569T369 506Q262 506 199 568T136 729V767Z" />
<glyph unicode="&#x2039;" horiz-adv-x="635" d="M326 524L108 525V538L391 928H571L326 524ZM571 130H391L108 519V532L326 533L571 130Z" />
<glyph unicode="&#x203a;" horiz-adv-x="619" d="M327 533L545 532V519L263 129H82L327 533ZM263 928L545 538V525L327 524L82 928H263Z" />
</font>
</defs>
</svg>
