<?xml version="1.0" standalone="no"?>
<!DOCTYPE svg PUBLIC "-//W3C//DTD SVG 1.1//EN" "http://www.w3.org/Graphics/SVG/1.1/DTD/svg11.dtd">
<svg xmlns="http://www.w3.org/2000/svg">
<defs >
<font id="Heebo" horiz-adv-x="1072" ><font-face
    font-family="Heebo ExtraLight"
    units-per-em="2048"
    panose-1="0 0 0 0 0 0 0 0 0 0"
    ascent="2146"
    descent="-862"
    alphabetic="0" />
<glyph unicode=" " horiz-adv-x="494" />
<glyph unicode="!" horiz-adv-x="430" d="M253 403H170L167 1456H256L253 403ZM150 60Q150 88 169 108T219 128Q249 128 268 108T288 60Q288 32 269 13T219 -7Q188 -7 169 12T150 60Z" />
<glyph unicode="&quot;" horiz-adv-x="555" d="M227 1395L212 1103H147L151 1390V1536H227V1395ZM445 1395L430 1103H365L370 1392V1536H445V1395Z" />
<glyph unicode="#" horiz-adv-x="1156" d="M525 1456H602L333 0H256L525 1456ZM942 1456H1020L749 0H672L942 1456ZM144 965V1040H1184V965H144ZM68 410V483H1109V410H68Z" />
<glyph unicode="$" horiz-adv-x="1128" d="M625 1425H547V1670H625V1425ZM629 -208H551V29H629V-208ZM924 352Q924 432 892 490T784 594T576 688Q450 730 359 780T218 906T168 1103Q168 1217 219 1301T363 1431T583 1477Q714 1477 808 1426T952 1278T1002 1038H915Q915
1192 831 1295T583 1398Q471 1398 398 1357T289 1249T254 1105Q254 1027 281 970T385 864T604 768Q729 726 820 676T961 549T1011 354Q1011 237 958 153T808 24T583 -21Q498 -21 415 1T265 73T158 207T118 414H205Q205 312 239 243T328 134T451 76T583 58Q691 58
767 99T883 207T924 352Z" />
<glyph unicode="%" horiz-adv-x="1520" d="M112 1176Q112 1259 146 1327T243 1436T390 1477Q474 1477 536 1436T633 1327T668 1176V1099Q668 1018 634 950T538 841T392 800Q307 800 244 841T147 950T112 1099V1176ZM188 1099Q188 1042 210 990T277 905T392 871Q461
871 505 904T570 989T592 1099V1176Q592 1234 570 1286T504 1372T390 1406Q323 1406 278 1373T211 1287T188 1176V1099ZM856 357Q856 439 890 507T987 616T1134 657Q1219 657 1281 616T1378 507T1413 357V279Q1413 197 1379 129T1283 20T1136 -21Q1051 -21 988
20T891 129T856 279V357ZM932 279Q932 222 954 170T1021 84T1136 50Q1204 50 1248 83T1315 168T1337 279V357Q1337 451 1287 518T1134 586Q1034 586 983 519T932 357V279ZM428 126L368 166L1079 1304L1139 1264L428 126Z" />
<glyph unicode="&amp;" horiz-adv-x="1254" d="M623 961Q686 1009 731 1069T776 1202Q776 1279 723 1339T567 1399Q454 1399 395 1328T335 1159Q335 1085 375 1002T496 826L1214 0H1108L486 713Q375 840 312 942T248 1156Q248 1253 287 1325T398 1437T568 1477Q661
1477 726 1440T826 1340T861 1202Q861 1139 831 1083T756 982T668 902L413 702Q320 624 275 562T214 450T198 362Q198 282 236 213T354 101T555 58Q654 58 745 100T909 219T1024 403T1067 642H1150Q1150 503 1110 392T996 195Q988 186 987 183T977 172Q895 86 788
33T555 -20Q418 -20 319 27T166 160T112 362Q112 447 148 518T245 651T381 773L623 961Z" />
<glyph unicode="&apos;" horiz-adv-x="344" d="M214 1381L198 1106H128L135 1376V1536H214V1381Z" />
<glyph unicode="(" horiz-adv-x="630" d="M144 587Q144 771 181 937T280 1242T420 1479T577 1628L601 1566Q531 1518 465 1424T346 1200T262 915T231 591V568Q231 399 262 244T346 -41T465 -266T601 -410L577 -470Q497 -420 420 -324T281 -92T181 211T144 570V587Z" />
<glyph unicode=")" horiz-adv-x="646" d="M487 570Q487 379 451 212T352 -91T212 -323T55 -470L31 -410Q101 -362 167 -267T286 -42T370 243T401 568V591Q401 760 370 915T285 1201T166 1425T31 1568L55 1628Q135 1578 212 1479T351 1242T450 938T487 587V570Z" />
<glyph unicode="*" horiz-adv-x="862" d="M377 1009L30 1125L55 1202L402 1074L400 1456H480L473 1072L811 1207L837 1130L491 1004L727 698L660 651L433 964L217 650L152 697L377 1009Z" />
<glyph unicode="+" horiz-adv-x="1154" d="M1072 639H74V721H1072V639ZM610 146H522V1206H610V146Z" />
<glyph unicode="," horiz-adv-x="388" d="M254 38Q254 -54 220 -131T130 -264L76 -222Q107 -182 127 -143T158 -60T168 36V174H254V38Z" />
<glyph unicode="-" horiz-adv-x="597" d="M530 616H55V693H530V616Z" />
<glyph unicode="." horiz-adv-x="464" d="M146 61Q146 90 165 110T216 131Q248 131 267 111T287 61Q287 32 268 13T216 -7Q185 -7 166 12T146 61Z" />
<glyph unicode="/" horiz-adv-x="798" d="M120 -125H36L644 1456H728L120 -125Z" />
<glyph unicode="0" horiz-adv-x="1128" d="M1006 601Q1006 399 955 261T806 52T566 -20Q427 -20 328 51T176 261T123 601V858Q123 1059 174 1197T325 1406T564 1477Q705 1477 803 1406T954 1197T1006 858V601ZM919 865Q919 1031 880 1151T762 1335T564 1399Q446
1399 367 1335T248 1151T209 865V595Q209 431 248 311T368 124T566 58Q685 58 763 124T880 310T919 595V865Z" />
<glyph unicode="1" horiz-adv-x="1128" d="M677 0H590V1350L183 1198V1284L661 1461H677V0Z" />
<glyph unicode="2" horiz-adv-x="1128" d="M1037 0H145V73L622 619Q713 722 768 802T848 950T874 1080Q874 1223 790 1310T544 1398Q442 1398 364 1352T242 1225T198 1041H111Q111 1160 164 1259T315 1417T544 1476Q737 1476 849 1375T962 1085Q962 996 920 906T810
728T668 553L254 78H1037V0Z" />
<glyph unicode="3" horiz-adv-x="1128" d="M527 782Q647 782 728 823T851 932T893 1081Q893 1171 858 1242T750 1356T562 1398Q464 1398 386 1359T261 1248T214 1074H127Q127 1196 185 1286T342 1426T562 1476Q689 1476 783 1429T928 1292T980 1077Q980 1007 950
942T863 827T724 747T536 717H411V782H527ZM411 767H536Q653 767 741 741T889 664T979 545T1010 391Q1010 260 953 169T796 29T569 -20Q484 -20 401 5T250 83T142 214T101 400H188Q188 300 237 223T373 102T569 58Q737 58 830 144T923 387Q923 499 873 568T733
670T527 703H411V767Z" />
<glyph unicode="4" horiz-adv-x="1128" d="M1097 383H75V432L759 1456H834L702 1231L190 460H1097V383ZM857 0H770V1456H857V0Z" />
<glyph unicode="5" horiz-adv-x="1128" d="M225 754L294 1456H1013V1374H370L315 836Q352 865 430 895T605 925Q733 925 830 870T981 711T1035 464Q1035 325 992 216T856 43T613 -20Q527 -20 451 4T317 79T221 205T175 383H260Q276 225 366 142T613 58Q725 58
799 104T910 241T948 462Q948 571 907 657T788 793T595 843Q485 843 417 814T293 733L225 754Z" />
<glyph unicode="6" horiz-adv-x="1128" d="M842 1472V1392H823Q689 1392 578 1349T386 1218T261 1001T216 697V503Q216 366 266 266T404 112T602 57Q706 57 781 115T896 268T937 477Q937 587 899 678T784 823T590 878Q491 878 404 834T263 716T206 551L153 553Q156
638 191 711T286 839T427 926T603 957Q740 957 833 893T975 721T1023 479Q1023 339 971 226T824 46T602 -20Q497 -20 410 18T260 127T163 293T129 503V652Q129 854 177 1007T317 1264T536 1419T823 1472H842Z" />
<glyph unicode="7" horiz-adv-x="1128" d="M1021 1405L389 0H299L925 1378H77V1456H1021V1405Z" />
<glyph unicode="8" horiz-adv-x="1128" d="M1031 383Q1031 250 969 161T802 26T568 -20Q437 -20 332 25T165 160T103 383Q103 498 164 585T329 722T566 772Q696 772 801 722T969 585T1031 383ZM943 380Q943 479 893 552T758 666T566 707Q458 707 373 667T239 553T190
380Q190 276 239 204T373 95T568 58Q675 58 759 95T893 204T943 380ZM991 1084Q991 977 934 895T781 765T566 718Q445 718 349 765T198 894T142 1084Q142 1211 197 1298T348 1430T565 1476Q684 1476 780 1431T934 1298T991 1084ZM904 1087Q904 1178 859 1248T737
1358T565 1398Q468 1398 392 1361T273 1253T229 1087Q229 994 272 926T392 822T566 785Q662 785 738 821T859 926T904 1087Z" />
<glyph unicode="9" horiz-adv-x="1128" d="M330 64Q488 64 599 110T779 243T880 448T912 711V904Q912 1068 867 1177T737 1342T539 1398Q431 1398 352 1337T231 1176T188 964Q188 859 228 765T344 611T529 551Q627 551 701 588T825 683T901 806T928 929L974 931Q974
835 940 752T843 606T699 508T521 473Q389 473 296 541T152 722T102 962Q102 1102 155 1218T305 1405T536 1476Q649 1476 735 1437T880 1324T969 1142T999 899V760Q999 622 976 504T904 289T776 125T587 21T330 -16H300L301 64H330Z" />
<glyph unicode=":" horiz-adv-x="397" d="M378 61Q378 90 397 110T448 131Q480 131 499 111T519 61Q519 32 500 13T448 -7Q417 -7 398 12T378 61ZM126 1004Q126 1033 145 1053T196 1074Q228 1074 247 1054T267 1004Q267 975 248 956T196 936Q165 936 146 955T126 1004Z" />
<glyph unicode=";" horiz-adv-x="381" d="M121 1004Q121 1033 140 1053T191 1074Q223 1074 242 1054T262 1004Q262 975 243 956T191 936Q160 936 141 955T121 1004ZM504 38Q504 -54 470 -131T380 -264L326 -222Q357 -182 377 -143T408 -60T418 36V174H504V38Z" />
<glyph unicode="&lt;" horiz-adv-x="1050" d="M912 338V246L80 625V685L138 680L912 338ZM139 641L80 638V698L912 1076V985L139 641Z" />
<glyph unicode="=" horiz-adv-x="1138" d="M982 836H148V916H982V836ZM982 427H148V507H982V427Z" />
<glyph unicode="&gt;" horiz-adv-x="1057" d="M119 988V1079L960 701V640L896 646L119 988ZM899 684L960 689V627L119 248V340L899 684Z" />
<glyph unicode="?" horiz-adv-x="912" d="M386 402Q387 482 402 539T452 647T547 754Q604 810 646 858T712 963T736 1107Q736 1233 668 1315T465 1397Q335 1397 257 1320T175 1116H89Q91 1230 142 1311T278 1434T465 1476Q638 1476 730 1372T822 1107Q822 1018
796 949T718 817T595 689Q526 633 499 560T472 402H386ZM366 60Q366 88 384 108T434 128Q465 128 484 108T504 60Q504 32 485 13T434 -7Q403 -7 385 12T366 60Z" />
<glyph unicode="@" horiz-adv-x="1886" d="M1759 518Q1756 423 1733 328T1663 154T1547 28T1379 -20Q1256 -20 1192 67T1139 302L1188 879H1266L1217 302Q1210 218 1226 168T1270 93T1331 59T1387 51Q1480 51 1544 112T1643 279T1684 518Q1698 772 1630 956T1404
1241T989 1341Q772 1341 599 1235T321 936T203 478Q194 292 236 136T369 -137T594 -317T907 -381Q995 -381 1085 -359T1237 -301L1264 -364Q1199 -407 1096 -430T903 -453Q650 -453 472 -340T204 -18T126 478Q135 690 200 862T380 1159T649 1349T993 1416Q1264
1416 1437 1306T1691 995T1759 518ZM651 432Q640 325 656 240T718 105T836 56Q895 56 954 82T1067 180T1156 386L1196 330Q1147 158 1052 69T827 -20Q734 -20 673 36T586 194T571 432Q587 602 648 727T803 920T1007 988Q1105 988 1160 955T1266 879L1207 830Q1176
867 1127 891T1009 915Q925 915 850 864T722 705T651 432Z" />
<glyph unicode="A" horiz-adv-x="1251" d="M126 0H32L579 1456H650L641 1390L126 0ZM610 1390L601 1456H671L1219 0H1126L610 1390ZM1004 422H252V501H1004V422Z" />
<glyph unicode="B" horiz-adv-x="1245" d="M255 710L253 788H615Q795 788 890 861T985 1083Q985 1231 888 1304T599 1377H281V0H192V1456H599Q820 1456 947 1366T1075 1079Q1075 989 1038 917T933 800T767 744L686 710H255ZM234 0L274 79H676Q848 79 946 165T1045
404Q1045 487 1006 556T887 668T686 710H440L442 788H795L808 760Q903 750 976 700T1092 573T1134 406Q1134 209 1007 105T676 0H234Z" />
<glyph unicode="C" horiz-adv-x="1328" d="M1203 450Q1188 298 1121 193T942 34T675 -20Q512 -20 392 61T205 288T138 628V828Q138 1022 204 1167T393 1394T680 1476Q830 1476 942 1423T1121 1264T1203 1006H1114Q1092 1195 985 1296T680 1397Q542 1397 440 1326T283
1128T227 830V628Q227 460 281 332T436 131T675 59Q807 59 899 101T1045 231T1114 450H1203Z" />
<glyph unicode="D" horiz-adv-x="1341" d="M251 0L253 79H593Q750 79 868 152T1054 353T1121 650V809Q1121 978 1054 1105T869 1305T597 1377H245V1456H597Q774 1456 912 1375T1129 1147T1209 806V650Q1209 455 1130 309T912 82T593 0H251ZM281 0H192V1456H281V0Z" />
<glyph unicode="E" horiz-adv-x="1166" d="M1088 0H245V79H1088V0ZM281 0H192V1456H281V0ZM986 710H245V789H986V710ZM1086 1377H245V1456H1086V1377Z" />
<glyph unicode="F" horiz-adv-x="1162" d="M281 0H192V1456H281V0ZM993 698H241V779H993V698ZM1094 1377H241V1456H1094V1377Z" />
<glyph unicode="G" horiz-adv-x="1403" d="M1231 165Q1207 130 1145 87T980 12T729 -20Q561 -20 432 61T230 289T157 633V840Q157 1032 225 1175T419 1397T711 1476Q871 1476 981 1421T1153 1270T1229 1054H1141Q1126 1145 1079 1223T943 1349T711 1397Q566 1397
462 1327T301 1131T245 842V633Q245 462 305 333T474 132T729 59Q845 59 929 82T1067 137T1142 196V596H724V676H1231V165Z" />
<glyph unicode="H" horiz-adv-x="1444" d="M1185 710H253V789H1185V710ZM281 0H192V1456H281V0ZM1251 0H1162V1456H1251V0Z" />
<glyph unicode="I" horiz-adv-x="540" d="M315 0H226V1456H315V0Z" />
<glyph unicode="J" horiz-adv-x="1126" d="M852 1456H941V438Q941 290 885 188T731 33T511 -20Q381 -20 285 26T135 165T81 401H169Q169 234 257 147T511 59Q605 59 682 102T805 229T852 438V1456Z" />
<glyph unicode="K" horiz-adv-x="1296" d="M281 0H192V1456H281V0ZM553 795L248 505L246 608L499 863L1076 1456H1192L553 795ZM481 766L535 840L1241 0H1131L481 766Z" />
<glyph unicode="L" horiz-adv-x="1068" d="M1015 0H246V79H1015V0ZM282 0H192V1456H282V0Z" />
<glyph unicode="M" horiz-adv-x="1764" d="M312 1456L880 125L1450 1456H1542L915 0H846L219 1456H312ZM274 1456L281 670V0H192V1456H274ZM1572 1456V0H1483V670L1490 1456H1572Z" />
<glyph unicode="N" horiz-adv-x="1452" d="M1259 0H1170L282 1305V0H192V1456H282L1171 152V1456H1259V0Z" />
<glyph unicode="O" horiz-adv-x="1375" d="M1246 634Q1246 437 1178 290T984 62T689 -20Q520 -20 395 61T199 290T129 634V821Q129 1018 198 1165T393 1394T687 1476Q857 1476 982 1395T1177 1166T1246 821V634ZM1157 823Q1157 995 1102 1123T941 1323T687 1395Q540
1395 435 1324T274 1124T218 823V634Q218 462 274 333T436 133T689 61Q838 61 942 132T1102 333T1157 634V823Z" />
<glyph unicode="P" horiz-adv-x="1246" d="M239 604V683H668Q806 683 892 728T1019 852T1059 1024Q1059 1120 1019 1200T893 1328T668 1377H281V0H192V1456H668Q825 1456 932 1402T1093 1252T1148 1026Q1148 895 1094 801T933 655T668 604H239Z" />
<glyph unicode="Q" horiz-adv-x="1375" d="M1215 -203L1153 -259L838 29L899 88L1215 -203ZM1244 634Q1244 437 1176 290T982 62T686 -20Q518 -20 393 61T197 290T127 634V821Q127 1018 196 1165T391 1394T684 1476Q855 1476 980 1395T1175 1166T1244 821V634ZM1155
823Q1155 995 1100 1123T939 1323T684 1395Q538 1395 433 1324T272 1124T216 823V634Q216 462 272 333T434 133T686 61Q836 61 940 132T1100 333T1155 634V823Z" />
<glyph unicode="R" horiz-adv-x="1320" d="M657 1456Q802 1456 911 1407T1082 1264T1143 1032Q1143 927 1099 843T977 703T803 629L766 615H235L233 694H695Q815 694 894 742T1014 868T1054 1032Q1054 1193 949 1285T657 1377H277V0H189V1456H657ZM723 646L821
648L1205 14V0H1111L723 646Z" />
<glyph unicode="S" horiz-adv-x="1212" d="M1040 354Q1040 440 1001 501T868 610T617 701Q507 732 419 767T268 849T172 959T139 1110Q139 1222 202 1304T375 1431T625 1476Q772 1476 882 1420T1055 1267T1117 1044H1028Q1028 1145 979 1225T840 1351T625 1397Q496
1397 408 1358T274 1254T228 1112Q228 1039 265 980T392 873T644 782Q793 742 902 689T1070 556T1130 356Q1130 237 1064 153T886 24T633 -20Q538 -20 442 3T267 78T140 212T92 414H181Q181 313 222 245T330 136T476 77T633 59Q754 59 845 96T988 200T1040 354Z"
/>
<glyph unicode="T" horiz-adv-x="1224" d="M656 0H568V1456H656V0ZM1170 1377H54V1456H1170V1377Z" />
<glyph unicode="U" horiz-adv-x="1356" d="M1184 1456V469Q1184 306 1117 197T936 34T679 -20Q535 -20 421 34T241 197T174 469V1456H262V469Q262 336 316 245T465 106T679 59Q799 59 893 106T1041 244T1095 469V1456H1184Z" />
<glyph unicode="V" horiz-adv-x="1243" d="M1114 1456H1211L668 0H593L641 161L1114 1456ZM603 161L652 0H576L34 1456H130L603 161Z" />
<glyph unicode="W" horiz-adv-x="1846" d="M884 1456H963L884 1177L534 0H460L554 357L884 1456ZM438 362L523 0H444L61 1456H154L438 362ZM1695 1456H1788L1406 0H1326L1414 362L1695 1456ZM1297 357L1390 0H1316L971 1177L891 1456H970L1297 357Z" />
<glyph unicode="X" horiz-adv-x="1238" d="M619 813L1059 1456H1167L674 741L1184 0H1077L619 669L160 0H55L565 741L72 1456H179L619 813Z" />
<glyph unicode="Y" horiz-adv-x="1225" d="M610 632L1088 1456H1192L655 551V0H566V551L29 1456H138L610 632Z" />
<glyph unicode="Z" horiz-adv-x="1225" d="M1134 0H123V79H1134V0ZM150 0H92V68L1043 1456H1102V1393L150 0ZM1062 1377H125V1456H1062V1377Z" />
<glyph unicode="[" horiz-adv-x="465" d="M479 1586H259V-234H479V-312H172V1664H479V1586Z" />
<glyph unicode="\" horiz-adv-x="791" d="M53 1456H140L748 -125H661L53 1456Z" />
<glyph unicode="]" horiz-adv-x="465" d="M-4 1664H303V-312H-4V-234H216V1586H-4V1664Z" />
<glyph unicode="^" horiz-adv-x="851" d="M172 729H84L383 1456H447L432 1374L172 729ZM405 1374L389 1456H454L753 729H664L405 1374Z" />
<glyph unicode="_" horiz-adv-x="865" d="M864 -78H0V0H864V-78Z" />
<glyph unicode="`" horiz-adv-x="561" d="M421 1263H337L126 1536H231L421 1263Z" />
<glyph unicode="a" horiz-adv-x="1089" d="M833 757Q833 883 754 954T528 1025Q438 1025 366 993T252 906T211 784L124 785Q124 868 175 940T319 1057T531 1102Q645 1102 733 1064T870 948T920 755V222Q920 165 928 106T950 11V0H855Q844 37 839 92T833 199V757ZM861
543H603Q406 543 295 472T183 284Q183 191 254 125T444 59Q551 59 633 96T770 198T851 344L889 285Q873 232 837 179T745 80T612 8T437 -20Q334 -20 257 18T138 125T96 280Q96 433 228 525T593 617H859L861 543Z" />
<glyph unicode="b" horiz-adv-x="1128" d="M249 1536V210L246 0H163V1536H249ZM1013 531Q1013 367 965 243T825 50T604 -20Q478 -20 389 29T248 163T178 350V706Q200 822 253 911T392 1051T602 1102Q733 1102 824 1035T964 845T1013 552V531ZM925 552Q925 687
890 793T781 961T591 1023Q497 1023 433 992T327 912T262 805T228 697V351Q245 272 290 206T410 100T593 59Q707 59 780 121T889 289T925 531V552Z" />
<glyph unicode="c" horiz-adv-x="1047" d="M548 58Q628 58 699 87T818 178T872 331H956Q951 225 894 146T747 24T548 -20Q402 -20 301 50T148 243T96 520V562Q96 718 148 839T300 1031T546 1102Q657 1102 748 1058T895 928T956 721H872Q867 819 822 886T704 989T546
1024Q419 1024 339 961T221 792T183 562V520Q183 395 220 290T338 121T548 58Z" />
<glyph unicode="d" horiz-adv-x="1130" d="M878 1536H965V0H882L878 210V1536ZM115 552Q115 721 165 844T307 1035T528 1102Q651 1102 737 1051T876 911T950 706V350Q933 247 881 163T741 30T526 -20Q399 -20 307 49T165 243T115 531V552ZM204 531Q204 395 240
289T349 121T537 59Q645 59 720 99T840 205T904 351V697Q893 748 870 805T805 911T698 992T539 1023Q424 1023 350 962T240 794T204 552V531Z" />
<glyph unicode="e" horiz-adv-x="1046" d="M568 -20Q432 -20 323 48T151 238T88 514V558Q88 720 151 843T318 1034T547 1102Q676 1102 770 1041T916 873T967 623V555H142V633H880V646Q879 746 840 832T727 971T547 1024Q437 1024 353 963T222 797T175 558V514Q175
387 226 284T367 119T571 57Q665 57 742 90T883 205L939 163Q886 86 796 33T568 -20Z" />
<glyph unicode="f" horiz-adv-x="662" d="M248 0V1226Q248 1386 328 1471T550 1557Q581 1557 613 1554T677 1540L669 1464Q643 1471 618 1474T555 1478Q453 1478 394 1412T335 1226V0H248ZM607 1006H65V1082H607V1006Z" />
<glyph unicode="g" horiz-adv-x="1130" d="M965 1082V17Q965 -122 914 -223T768 -379T544 -434Q470 -434 402 -412T277 -349T178 -250L231 -196Q295 -276 370 -316T539 -357Q704 -357 790 -257T877 15V844L882 1082H965ZM115 552Q115 721 164 844T306 1035T528
1102Q619 1102 690 1073T814 991T899 866T950 706V350Q933 247 881 163T740 30T526 -20Q397 -20 305 49T164 243T115 531V552ZM202 531Q202 395 238 289T349 121T536 59Q645 59 719 99T837 205T900 351V697Q889 748 866 805T802 911T697 992T538 1023Q424 1023
350 962T239 794T202 552V531Z" />
<glyph unicode="h" horiz-adv-x="1123" d="M251 0H164V1536H251V0ZM192 665Q203 782 258 881T405 1041T619 1102Q728 1102 804 1062T922 934T963 702V0H877V703Q877 828 843 897T747 995T603 1024Q509 1024 441 983T327 877T259 745T233 621L192 665Z" />
<glyph unicode="i" horiz-adv-x="441" d="M265 0H178V1082H265V0ZM153 1407Q153 1436 172 1456T222 1476Q252 1476 271 1456T291 1407Q291 1380 272 1361T222 1341Q191 1341 172 1360T153 1407Z" />
<glyph unicode="j" horiz-adv-x="456" d="M263 1082V-129Q263 -278 189 -357T-22 -437Q-47 -437 -73 -432T-124 -418L-121 -342Q-104 -348 -79 -353T-29 -358Q70 -358 123 -300T176 -129V1082H263ZM154 1407Q154 1436 173 1456T222 1476Q253 1476 272 1456T292
1407Q292 1380 273 1361T222 1341Q192 1341 173 1360T154 1407Z" />
<glyph unicode="k" horiz-adv-x="986" d="M251 0H164V1536H251V0ZM416 582L225 406L206 484L371 651L824 1082H938L416 582ZM383 585L433 658L974 0H867L383 585Z" />
<glyph unicode="l" horiz-adv-x="441" d="M265 0H178V1536H265V0Z" />
<glyph unicode="m" horiz-adv-x="1826" d="M243 0H156V1082H241L243 854V0ZM185 665Q196 782 249 881T394 1041T609 1102Q770 1102 863 1014T957 720V0H870V718Q870 837 835 903T736 996T590 1024Q494 1024 426 983T316 877T252 745T229 621L185 665ZM898 727Q909
825 963 910T1109 1049T1323 1102Q1435 1102 1513 1062T1633 933T1674 703V0H1587V703Q1587 830 1552 899T1453 997T1307 1024Q1220 1023 1156 992T1048 913T983 811T957 711L898 727Z" />
<glyph unicode="n" horiz-adv-x="1123" d="M251 0H164V1082H249L251 851V0ZM192 665Q203 782 258 881T405 1041T619 1102Q728 1102 804 1062T922 934T963 702V0H877V703Q877 828 843 897T747 995T603 1024Q509 1024 441 983T327 877T259 745T233 621L192 665Z" />
<glyph unicode="o" horiz-adv-x="1137" d="M90 560Q90 718 150 840T317 1032T568 1102Q713 1102 820 1032T987 840T1047 560V522Q1047 365 988 242T821 50T570 -20Q426 -20 318 49T150 242T90 522V560ZM177 522Q177 399 223 293T356 123T570 58Q695 58 782 122T914
293T960 522V560Q960 682 914 787T781 958T568 1024Q444 1024 357 959T223 788T177 560V522Z" />
<glyph unicode="p" horiz-adv-x="1128" d="M249 -416H163V1082H245L249 874V-416ZM1013 531Q1013 367 965 243T825 50T604 -20Q477 -20 388 29T245 161T174 346V706Q196 822 250 911T391 1051T601 1102Q732 1102 824 1035T964 845T1013 552V531ZM925 552Q925 687
889 793T778 961T588 1023Q494 1023 430 992T323 912T258 805T224 697V347Q242 268 287 203T407 98T590 58Q704 58 778 120T888 288T925 531V552Z" />
<glyph unicode="q" horiz-adv-x="1132" d="M878 874L882 1082H965V-416H878V874ZM115 552Q115 721 164 844T306 1035T529 1102Q652 1102 739 1051T880 911T955 706V350Q939 247 886 163T743 30T527 -20Q398 -20 306 49T164 243T115 531V552ZM204 531Q204 395 240
289T350 120T538 58Q646 58 721 98T842 204T906 351V697Q896 746 872 802T806 909T699 992T540 1024Q425 1024 351 962T240 794T204 552V531Z" />
<glyph unicode="r" horiz-adv-x="687" d="M251 0H164V1082H250L251 898V0ZM653 1012Q635 1015 617 1016T578 1018Q465 1018 390 962T277 810T236 598L196 588Q196 735 237 851T364 1034T580 1102Q603 1102 624 1099T657 1090L653 1012Z" />
<glyph unicode="s" horiz-adv-x="1028" d="M822 270Q822 317 798 363T707 450T512 518Q391 544 308 579T183 672T140 818Q140 897 185 961T313 1063T512 1102Q635 1102 723 1062T858 950T905 786H818Q818 879 739 951T512 1024Q411 1024 348 994T256 917T227 821Q227
770 249 729T338 654T536 590Q666 561 748 520T869 419T909 273Q909 187 861 121T726 17T519 -20Q385 -20 293 23T153 137T105 289H192Q198 201 249 151T373 79T519 58Q619 58 686 88T787 168T822 270Z" />
<glyph unicode="t" horiz-adv-x="653" d="M553 1006H31V1082H553V1006ZM318 1367V261Q318 176 339 133T395 75T470 60Q499 60 523 62T572 69L579 -6Q557 -13 522 -16T458 -20Q390 -20 339 5T259 91T230 261V1367H318Z" />
<glyph unicode="u" horiz-adv-x="1123" d="M874 1082H961V0H876L874 250V1082ZM943 439Q943 307 899 203T761 40T516 -20Q357 -20 259 74T160 392V1082H247V390Q247 267 283 194T382 90T522 59Q661 59 741 112T855 252T889 437L943 439Z" />
<glyph unicode="v" horiz-adv-x="982" d="M851 1082H941L529 0H459L478 89L851 1082ZM506 87L524 0H454L41 1082H131L506 87Z" />
<glyph unicode="w" horiz-adv-x="1547" d="M730 1082H796L733 836L465 0H397L478 284L730 1082ZM391 281L455 0H387L73 1082H166L391 281ZM1371 1082H1465L1150 0H1082L1150 283L1371 1082ZM1058 287L1140 0H1072L799 836L740 1082H808L1058 287Z" />
<glyph unicode="x" horiz-adv-x="987" d="M493 623L811 1082H916L543 553L934 0H831L493 483L156 0H52L443 553L69 1082H174L493 623Z" />
<glyph unicode="y" horiz-adv-x="976" d="M850 1082H944L475 -177Q461 -212 441 -257T389 -343T306 -410T181 -437Q169 -437 152 -435T119 -431T95 -425L94 -350Q107 -353 129 -355T161 -358Q260 -358 312 -303T399 -152L494 106L850 1082ZM510 108L534 19L469
-21L38 1082H133L510 108Z" />
<glyph unicode="z" horiz-adv-x="987" d="M934 0H116V78H934V0ZM141 0H87V67L829 1082H883V1014L141 0ZM844 1003H113V1082H844V1003Z" />
<glyph unicode="{" horiz-adv-x="668" d="M660 1535Q520 1490 459 1383T398 1132V895Q398 803 365 729T260 610T71 566V628Q199 628 255 700T311 895V1132Q311 1237 341 1328T442 1489T640 1597L660 1535ZM640 -423Q514 -384 443 -316T341 -157T311 39V275Q311
397 255 470T71 543V605Q188 605 260 561T365 443T398 275V39Q398 -105 461 -209T664 -360L640 -423Z" />
<glyph unicode="|" horiz-adv-x="429" d="M258 -270H180V1456H258V-270Z" />
<glyph unicode="}" horiz-adv-x="668" d="M29 1597Q155 1559 226 1490T327 1329T357 1132V895Q357 773 414 701T598 628V568Q481 568 409 611T304 729T270 895V1132Q270 1275 210 1382T9 1535L29 1597ZM5 -360Q144 -313 207 -209T270 39V275Q270 368 303 442T409
559T598 603V543Q471 543 414 470T357 275V39Q357 -66 328 -156T227 -315T29 -423L5 -360Z" />
<glyph unicode="~" horiz-adv-x="1407" d="M1250 758Q1250 672 1218 598T1123 479T968 433Q878 433 814 471T670 580Q601 642 551 671T434 700Q340 700 287 638T234 456H153Q153 546 184 619T279 736T434 781Q525 781 590 742T734 634Q804 569 855 541T968 513Q1065
513 1117 580T1170 759L1250 758Z" />
<glyph unicode="&#xa0;" horiz-adv-x="494" />
<glyph unicode="&#xa1;" horiz-adv-x="429" d="M177 693H259L263 -359H174L177 693ZM279 1036Q279 1007 261 987T211 967Q180 967 161 987T141 1035Q141 1064 160 1083T211 1103Q242 1103 260 1084T279 1036Z" />
<glyph unicode="&#xa2;" horiz-adv-x="1113" d="M620 1060H533V1318H620V1060ZM620 -245H533V12H620V-245ZM578 58Q659 58 730 87T849 178T903 331H987Q982 225 925 146T778 24T578 -20Q433 -20 332 50T179 243T127 520V562Q127 718 179 839T331 1031T577 1102Q687
1102 778 1058T925 928T987 721H903Q898 819 853 886T735 989T577 1024Q450 1024 370 961T251 792T213 562V520Q213 395 251 290T369 121T578 58Z" />
<glyph unicode="&#xa3;" horiz-adv-x="1160" d="M98 0V79H1077L1078 0H98ZM94 656V735H737V656H94ZM392 352Q394 245 370 167T296 48L207 79Q243 90 264 133T295 236T303 352L282 1039Q282 1177 330 1274T465 1424T667 1476Q852 1476 951 1368T1051 1089H963Q963
1198 922 1266T813 1365T663 1397Q531 1397 451 1305T371 1039L392 352Z" />
<glyph unicode="&#xa4;" horiz-adv-x="1492" d="M231 608Q231 495 271 396T381 222T544 104T742 62Q848 62 940 104T1102 221T1213 396T1253 608Q1253 721 1213 819T1103 993T940 1110T742 1152Q637 1152 545 1110T382 993T271 820T231 608ZM147 608Q147 741 193
855T321 1054T511 1186T742 1234Q865 1234 973 1187T1163 1054T1291 855T1337 608Q1337 475 1291 361T1163 162T973 28T742 -20Q619 -20 512 28T322 161T194 361T147 608ZM1176 995L1112 1059L1314 1265L1378 1201L1176 995ZM175 -26L112 37L314 242L377 180L175
-26ZM1112 179L1176 242L1378 37L1314 -27L1112 179ZM112 1201L175 1264L377 1058L314 995L112 1201Z" />
<glyph unicode="&#xa5;" horiz-adv-x="1047" d="M940 619H104V691H940V619ZM940 325H104V397H940V325ZM915 1456H1015L563 623H495L530 720L915 1456ZM516 719L549 623H480L29 1456H129L516 719ZM565 0H476V708H565V0Z" />
<glyph unicode="&#xa6;" horiz-adv-x="421" d="M166 -270V492H253V-270H166ZM253 698H166V1456H253V698Z" />
<glyph unicode="&#xa7;" horiz-adv-x="1231" d="M688 203Q847 203 933 269T1020 428Q1020 506 982 560T850 658T593 748Q457 783 360 828T212 943T160 1125Q160 1231 216 1310T377 1432T621 1476Q837 1476 961 1365T1085 1045H998Q998 1143 955 1223T828 1350T621
1398Q427 1398 337 1319T247 1127Q247 1049 278 996T393 902T631 816Q780 778 886 733T1050 618T1107 431Q1107 301 993 223T688 145V203ZM515 786Q354 786 278 719T202 553Q202 471 237 418T364 324T627 233Q766 197 863 152T1011 37T1063 -144Q1063 -310 937
-402T603 -495Q512 -495 424 -473T265 -401T152 -268T109 -64L196 -62Q196 -164 232 -232T328 -341T460 -399T603 -417Q782 -417 878 -340T975 -146Q975 -73 943 -21T830 74T596 156Q450 192 342 240T175 361T115 551Q115 684 223 762T515 841V786Z" />
<glyph unicode="&#xa8;" horiz-adv-x="894" d="M156 1409Q156 1437 175 1457T224 1477Q255 1477 274 1457T294 1409Q294 1381 275 1362T224 1342Q194 1342 175 1361T156 1409ZM597 1408Q597 1437 616 1457T666 1477Q696 1477 715 1457T735 1408Q735 1380 716 1361T666
1341Q635 1341 616 1361T597 1408Z" />
<glyph unicode="&#xa9;" horiz-adv-x="1652" d="M1123 612Q1123 455 1040 377T817 298Q669 298 580 405T490 685V772Q490 944 579 1051T817 1159Q957 1159 1040 1081T1124 846H1049Q1049 970 989 1029T817 1088Q737 1088 681 1047T596 934T567 773V685Q567 551
632 461T817 371Q929 371 988 428T1048 612H1123ZM186 729Q186 587 235 464T373 247T577 102T825 50Q956 50 1072 102T1276 247T1414 463T1464 729Q1464 872 1414 994T1276 1209T1072 1353T825 1405Q693 1405 578 1354T374 1210T236 995T186 729ZM115 729Q115 888
170 1024T323 1261T549 1419T825 1476Q972 1476 1100 1420T1327 1262T1480 1024T1535 729Q1535 570 1480 434T1327 196T1101 36T825 -21Q678 -21 550 36T324 195T171 434T115 729Z" />
<glyph unicode="&#xaa;" horiz-adv-x="902" d="M641 1201Q641 1296 596 1348T461 1401Q362 1401 304 1361T246 1240L166 1243Q166 1344 247 1410T461 1476Q577 1476 650 1407T723 1200V886Q723 837 729 793T749 705H665Q654 740 648 780T641 861V1201ZM665 1068H488Q370
1068 307 1028T244 908Q244 845 285 806T422 766Q477 766 530 793T617 858T652 933L674 867Q660 828 624 787T534 719T412 691Q291 691 227 749T163 904Q163 1014 247 1075T487 1136H664L665 1068Z" />
<glyph unicode="&#xab;" horiz-adv-x="919" d="M229 782L134 783V796L429 1170H517L229 782ZM517 402H429L134 777V790L229 791L517 402ZM527 526L432 527V540L727 914H815L527 526ZM815 146H727L432 521V534L527 535L815 146Z" />
<glyph unicode="&#xac;" horiz-adv-x="1109" d="M926 685H123V765H926V685ZM926 391H839V711H926V391Z" />
<glyph unicode="&#xad;" horiz-adv-x="600" d="M530 616H55V693H530V616Z" />
<glyph unicode="&#xae;" horiz-adv-x="1658" d="M613 672L611 746H842Q923 746 982 788T1042 914Q1042 1003 994 1044T821 1086H649V324H573V1158H821Q966 1158 1042 1097T1118 915Q1118 833 1068 779T927 697Q924 697 921 695T914 693Q897 683 893 679T884 673T859
672H613ZM862 728Q1001 728 1051 664T1101 507V467Q1101 430 1105 397T1118 340V324H1038Q1028 350 1026 398T1024 468V506Q1024 595 985 633T849 672L862 728ZM179 729Q179 587 229 464T367 247T571 102T819 50Q950 50 1066 102T1270 246T1408 463T1458 729Q1458
872 1408 995T1270 1210T1066 1353T818 1405Q687 1405 571 1354T367 1210T229 995T179 729ZM109 729Q109 888 164 1024T317 1261T543 1419T819 1476Q966 1476 1094 1420T1321 1262T1474 1024T1529 729Q1529 570 1474 434T1321 196T1095 36T819 -21Q672 -21 544
36T317 195T164 434T109 729Z" />
<glyph unicode="&#xaf;" horiz-adv-x="843" d="M728 1363H135V1438H728V1363Z" />
<glyph unicode="&#xb0;" horiz-adv-x="779" d="M150 1231Q150 1299 182 1354T270 1443T390 1476Q456 1476 509 1443T595 1354T627 1231Q627 1164 595 1109T510 1022T391 990Q325 990 271 1022T183 1109T150 1231ZM222 1231Q222 1158 270 1111T391 1063Q462 1063
508 1110T554 1231Q554 1306 508 1354T391 1403Q319 1403 271 1355T222 1231Z" />
<glyph unicode="&#xb1;" horiz-adv-x="1081" d="M994 739H78V817H994V739ZM589 289H507V1267H589V289ZM960 -1H125V77H960V-1Z" />
<glyph unicode="&#xb2;" horiz-adv-x="734" d="M659 665H102V725L392 1014Q470 1090 503 1144T537 1243Q537 1313 492 1355T359 1397Q261 1397 211 1347T161 1221H81Q81 1288 114 1343T210 1432T358 1465Q476 1465 546 1407T617 1244Q617 1194 592 1147T525 1052T435
956L202 733H659V665Z" />
<glyph unicode="&#xb3;" horiz-adv-x="734" d="M343 1099Q444 1099 495 1142T547 1246Q547 1309 503 1353T362 1397Q281 1397 226 1357T170 1246H91Q91 1313 127 1362T225 1438T362 1465Q481 1465 554 1408T627 1246Q627 1194 595 1150T502 1078T356 1051H269V1099H343ZM269
1082H356Q451 1082 515 1057T611 987T644 878Q644 771 565 713T366 654Q295 654 229 678T119 753T76 883H156Q156 813 215 768T367 722Q462 722 513 764T564 879Q564 962 503 998T343 1034H269V1082Z" />
<glyph unicode="&#xb4;" horiz-adv-x="544" d="M315 1536H421L208 1263H125L315 1536Z" />
<glyph unicode="&#xb5;" horiz-adv-x="1123" d="M160 637H242L246 -415H157L160 637ZM874 1082H961V0H876L874 250V1082ZM943 439Q943 307 899 203T761 40T516 -20Q357 -20 259 74T160 392V1082H247V390Q247 267 283 194T382 90T522 59Q661 59 741 112T855 252T889
437L943 439Z" />
<glyph unicode="&#xb6;" horiz-adv-x="960" d="M699 0V520H583Q424 520 314 580T148 747T91 988Q91 1122 147 1228T314 1395T583 1456H786V0H699Z" />
<glyph unicode="&#xb7;" horiz-adv-x="488" d="M171 711Q171 741 190 761T241 781Q272 781 292 761T312 711Q312 683 292 663T241 643Q210 643 191 663T171 711Z" />
<glyph unicode="&#xb8;" horiz-adv-x="494" d="M227 0L215 -70Q280 -78 333 -114T386 -240Q386 -328 310 -381T97 -435L90 -372Q142 -372 192 -359T275 -316T309 -241Q309 -179 264 -157T127 -124L154 0H227Z" />
<glyph unicode="&#xb9;" horiz-adv-x="734" d="M449 665H369V1358L129 1282V1354L437 1456H449V665Z" />
<glyph unicode="&#xba;" horiz-adv-x="918" d="M142 1137Q142 1285 226 1380T455 1476Q602 1476 686 1381T770 1137V1029Q770 881 686 786T457 690Q311 690 227 785T142 1029V1137ZM223 1029Q223 919 279 842T457 765Q574 765 631 842T689 1029V1137Q689 1246
632 1323T455 1401Q338 1401 281 1324T223 1137V1029Z" />
<glyph unicode="&#xbb;" horiz-adv-x="913" d="M410 555L504 554V541L210 167H122L410 555ZM210 942L504 560V547L410 546L122 942H210ZM715 555L809 554V541L515 167H427L715 555ZM515 942L809 560V547L715 546L427 942H515Z" />
<glyph unicode="&#xbc;" horiz-adv-x="1448" d="M447 126L387 166L1098 1304L1158 1264L447 126ZM449 546H369V1239L129 1163V1235L437 1337H449V546ZM1406 196H779L776 245L1183 789H1248L1153 633L868 264H1406V196ZM1269 0H1189V789H1269V0Z" />
<glyph unicode="&#xbd;" horiz-adv-x="1566" d="M437 126L377 166L1088 1304L1148 1264L437 126ZM449 546H369V1239L129 1163V1235L437 1337H449V546ZM1491 0H934V60L1224 349Q1302 425 1335 479T1369 578Q1369 648 1324 690T1191 732Q1093 732 1043 682T993 556H913Q913
623 946 678T1042 767T1190 800Q1308 800 1378 742T1449 579Q1449 529 1424 482T1357 387T1267 291L1034 68H1491V0Z" />
<glyph unicode="&#xbe;" horiz-adv-x="1558" d="M343 973Q444 973 495 1016T547 1120Q547 1183 503 1227T362 1271Q281 1271 226 1231T170 1120H91Q91 1187 127 1236T225 1312T362 1339Q481 1339 554 1282T627 1120Q627 1068 595 1024T502 952T356 925H269V973H343ZM269
956H356Q451 956 515 931T611 861T644 752Q644 645 565 587T366 528Q295 528 229 552T119 627T76 757H156Q156 687 215 642T367 596Q462 596 513 638T564 753Q564 836 503 872T343 908H269V956ZM557 126L497 166L1208 1304L1268 1264L557 126ZM1516 196H889L886
245L1293 789H1358L1263 633L978 264H1516V196ZM1379 0H1299V789H1379V0Z" />
<glyph unicode="&#xbf;" horiz-adv-x="926" d="M533 691Q532 612 523 564T485 475T397 377Q340 322 292 269T215 150T185 -13Q185 -149 257 -226T465 -303Q596 -303 670 -226T747 -21H834Q833 -140 784 -220T651 -341T465 -382Q291 -382 195 -281T98 -13Q98 86
131 164T221 309T349 442Q396 480 416 515T441 593T446 691H533ZM553 1034Q553 1006 534 986T484 966Q454 966 435 986T415 1034Q415 1062 434 1081T484 1101Q515 1101 534 1082T553 1034Z" />
<glyph unicode="&#xc0;" horiz-adv-x="1251" d="M126 0H32L579 1456H650L641 1390L126 0ZM610 1390L601 1456H671L1219 0H1126L610 1390ZM1004 422H252V501H1004V422ZM689 1580H605L395 1853H500L689 1580Z" />
<glyph unicode="&#xc1;" horiz-adv-x="1251" d="M126 0H32L579 1456H650L641 1390L126 0ZM610 1390L601 1456H671L1219 0H1126L610 1390ZM1004 422H252V501H1004V422ZM759 1853H865L651 1580H569L759 1853Z" />
<glyph unicode="&#xc2;" horiz-adv-x="1251" d="M126 0H32L579 1456H650L641 1390L126 0ZM610 1390L601 1456H671L1219 0H1126L610 1390ZM1004 422H252V501H1004V422ZM894 1588V1578H804L627 1768L450 1578H364V1592L598 1839H656L894 1588Z" />
<glyph unicode="&#xc3;" horiz-adv-x="1251" d="M126 0H32L579 1456H650L641 1390L126 0ZM610 1390L601 1456H671L1219 0H1126L610 1390ZM1004 422H252V501H1004V422ZM962 1808Q962 1748 938 1704T871 1634T777 1608Q723 1608 689 1626T627 1667T569 1708T494
1726Q446 1726 413 1695T379 1604L306 1606Q306 1665 331 1709T398 1777T492 1801Q542 1801 577 1784T641 1743T702 1702T774 1684Q822 1684 856 1718T890 1811L962 1808Z" />
<glyph unicode="&#xc4;" horiz-adv-x="1251" d="M126 0H32L579 1456H650L641 1390L126 0ZM610 1390L601 1456H671L1219 0H1126L610 1390ZM1004 422H252V501H1004V422ZM340 1726Q340 1754 359 1774T408 1794Q439 1794 458 1774T478 1726Q478 1698 459 1679T408
1659Q378 1659 359 1678T340 1726ZM781 1725Q781 1754 800 1774T850 1794Q880 1794 899 1774T919 1725Q919 1697 900 1678T850 1658Q819 1658 800 1678T781 1725Z" />
<glyph unicode="&#xc5;" horiz-adv-x="1251" d="M126 0H32L579 1456H650L641 1390L126 0ZM610 1390L601 1456H671L1219 0H1126L610 1390ZM1004 422H252V501H1004V422ZM447 1708Q447 1786 499 1838T629 1891Q705 1891 758 1839T811 1708Q811 1632 758 1581T629
1530Q552 1530 500 1581T447 1708ZM512 1708Q512 1658 545 1626T629 1593Q680 1593 713 1625T746 1708Q746 1760 713 1794T629 1828Q578 1828 545 1794T512 1708Z" />
<glyph unicode="&#xc6;" horiz-adv-x="1840" d="M139 0H34L915 1456H981L965 1383L139 0ZM1031 407H358V490H1031V407ZM1796 0H1063V78H1796V0ZM1098 0H1011L950 1456H1037L1098 0ZM1653 720H1023V798H1653V720ZM1735 1378H1002V1456H1735V1378Z" />
<glyph unicode="&#xc7;" horiz-adv-x="1328" d="M1203 450Q1188 298 1121 193T942 34T675 -20Q512 -20 392 61T205 288T138 628V828Q138 1022 204 1167T393 1394T680 1476Q830 1476 942 1423T1121 1264T1203 1006H1114Q1092 1195 985 1296T680 1397Q542 1397 440
1326T283 1128T227 830V628Q227 460 281 332T436 131T675 59Q807 59 899 101T1045 231T1114 450H1203ZM718 -10L706 -80Q771 -88 824 -124T877 -250Q877 -338 801 -391T588 -445L581 -382Q633 -382 683 -369T766 -326T800 -251Q800 -189 755 -167T618 -134L645
-10H718Z" />
<glyph unicode="&#xc8;" horiz-adv-x="1166" d="M1088 0H245V79H1088V0ZM281 0H192V1456H281V0ZM986 710H245V789H986V710ZM1086 1377H245V1456H1086V1377ZM681 1583H597L387 1856H492L681 1583Z" />
<glyph unicode="&#xc9;" horiz-adv-x="1166" d="M1088 0H245V79H1088V0ZM281 0H192V1456H281V0ZM986 710H245V789H986V710ZM1086 1377H245V1456H1086V1377ZM751 1856H857L643 1583H561L751 1856Z" />
<glyph unicode="&#xca;" horiz-adv-x="1166" d="M1088 0H245V79H1088V0ZM281 0H192V1456H281V0ZM986 710H245V789H986V710ZM1086 1377H245V1456H1086V1377ZM886 1591V1581H796L619 1771L442 1581H356V1595L590 1842H648L886 1591Z" />
<glyph unicode="&#xcb;" horiz-adv-x="1166" d="M1088 0H245V79H1088V0ZM281 0H192V1456H281V0ZM986 710H245V789H986V710ZM1086 1377H245V1456H1086V1377ZM332 1729Q332 1757 351 1777T400 1797Q431 1797 450 1777T470 1729Q470 1701 451 1682T400 1662Q370 1662
351 1681T332 1729ZM773 1728Q773 1757 792 1777T842 1797Q872 1797 891 1777T911 1728Q911 1700 892 1681T842 1661Q811 1661 792 1681T773 1728Z" />
<glyph unicode="&#xcc;" horiz-adv-x="540" d="M315 0H226V1456H315V0ZM333 1583H249L39 1856H144L333 1583Z" />
<glyph unicode="&#xcd;" horiz-adv-x="540" d="M315 0H226V1456H315V0ZM403 1856H509L295 1583H213L403 1856Z" />
<glyph unicode="&#xce;" horiz-adv-x="540" d="M315 0H226V1456H315V0ZM537 1591V1581H447L270 1771L93 1581H7V1595L241 1842H299L537 1591Z" />
<glyph unicode="&#xcf;" horiz-adv-x="540" d="M315 0H226V1456H315V0ZM-17 1729Q-17 1757 2 1777T51 1797Q82 1797 101 1777T121 1729Q121 1701 102 1682T51 1662Q21 1662 2 1681T-17 1729ZM424 1728Q424 1757 443 1777T493 1797Q523 1797 542 1777T562 1728Q562
1700 543 1681T493 1661Q462 1661 443 1681T424 1728Z" />
<glyph unicode="&#xd0;" horiz-adv-x="1341" d="M251 0L253 79H593Q750 79 868 152T1054 353T1121 650V809Q1121 978 1054 1105T869 1305T597 1377H245V1456H597Q774 1456 912 1375T1129 1147T1209 806V650Q1209 455 1130 309T912 82T593 0H251ZM281 0H192V1456H281V0ZM902
957H303V1035H902V957Z" />
<glyph unicode="&#xd1;" horiz-adv-x="1452" d="M1259 0H1170L282 1305V0H192V1456H282L1171 152V1456H1259V0ZM1060 1808Q1060 1748 1036 1704T969 1634T875 1608Q821 1608 787 1626T725 1667T667 1708T592 1726Q544 1726 511 1695T477 1604L404 1606Q404 1665
429 1709T496 1777T590 1801Q640 1801 675 1784T739 1743T800 1702T872 1684Q920 1684 954 1718T988 1811L1060 1808Z" />
<glyph unicode="&#xd2;" horiz-adv-x="1375" d="M1246 634Q1246 437 1178 290T984 62T689 -20Q520 -20 395 61T199 290T129 634V821Q129 1018 198 1165T393 1394T687 1476Q857 1476 982 1395T1177 1166T1246 821V634ZM1157 823Q1157 995 1102 1123T941 1323T687
1395Q540 1395 435 1324T274 1124T218 823V634Q218 462 274 333T436 133T689 61Q838 61 942 132T1102 333T1157 634V823ZM746 1596H662L452 1869H557L746 1596Z" />
<glyph unicode="&#xd3;" horiz-adv-x="1375" d="M1246 634Q1246 437 1178 290T984 62T689 -20Q520 -20 395 61T199 290T129 634V821Q129 1018 198 1165T393 1394T687 1476Q857 1476 982 1395T1177 1166T1246 821V634ZM1157 823Q1157 995 1102 1123T941 1323T687
1395Q540 1395 435 1324T274 1124T218 823V634Q218 462 274 333T436 133T689 61Q838 61 942 132T1102 333T1157 634V823ZM816 1869H922L708 1596H626L816 1869Z" />
<glyph unicode="&#xd4;" horiz-adv-x="1375" d="M1246 634Q1246 437 1178 290T984 62T689 -20Q520 -20 395 61T199 290T129 634V821Q129 1018 198 1165T393 1394T687 1476Q857 1476 982 1395T1177 1166T1246 821V634ZM1157 823Q1157 995 1102 1123T941 1323T687
1395Q540 1395 435 1324T274 1124T218 823V634Q218 462 274 333T436 133T689 61Q838 61 942 132T1102 333T1157 634V823ZM950 1604V1594H860L683 1784L506 1594H420V1608L654 1855H712L950 1604Z" />
<glyph unicode="&#xd5;" horiz-adv-x="1375" d="M1246 634Q1246 437 1178 290T984 62T689 -20Q520 -20 395 61T199 290T129 634V821Q129 1018 198 1165T393 1394T687 1476Q857 1476 982 1395T1177 1166T1246 821V634ZM1157 823Q1157 995 1102 1123T941 1323T687
1395Q540 1395 435 1324T274 1124T218 823V634Q218 462 274 333T436 133T689 61Q838 61 942 132T1102 333T1157 634V823ZM1018 1825Q1018 1765 994 1721T927 1651T833 1625Q779 1625 745 1643T683 1684T625 1725T550 1743Q502 1743 469 1712T435 1621L362 1623Q362
1682 387 1726T454 1794T548 1818Q598 1818 633 1801T697 1760T758 1719T830 1701Q878 1701 912 1735T946 1828L1018 1825Z" />
<glyph unicode="&#xd6;" horiz-adv-x="1375" d="M1246 634Q1246 437 1178 290T984 62T689 -20Q520 -20 395 61T199 290T129 634V821Q129 1018 198 1165T393 1394T687 1476Q857 1476 982 1395T1177 1166T1246 821V634ZM1157 823Q1157 995 1102 1123T941 1323T687
1395Q540 1395 435 1324T274 1124T218 823V634Q218 462 274 333T436 133T689 61Q838 61 942 132T1102 333T1157 634V823ZM396 1742Q396 1770 415 1790T464 1810Q495 1810 514 1790T534 1742Q534 1714 515 1695T464 1675Q434 1675 415 1694T396 1742ZM837 1741Q837
1770 856 1790T906 1810Q936 1810 955 1790T975 1741Q975 1713 956 1694T906 1674Q875 1674 856 1694T837 1741Z" />
<glyph unicode="&#xd7;" horiz-adv-x="1062" d="M96 108L875 903L934 844L155 50L96 108ZM117 844L176 903L955 108L896 50L117 844Z" />
<glyph unicode="&#xd8;" horiz-adv-x="1375" d="M259 -79H174L1173 1500H1257L259 -79ZM1246 634Q1246 437 1178 290T984 62T689 -20Q520 -20 395 61T199 290T129 634V821Q129 1018 198 1165T393 1394T687 1476Q857 1476 982 1395T1177 1166T1246 821V634ZM1157
823Q1157 995 1102 1123T941 1323T687 1395Q540 1395 435 1324T274 1124T218 823V634Q218 462 274 333T436 133T689 61Q838 61 942 132T1102 333T1157 634V823Z" />
<glyph unicode="&#xd9;" horiz-adv-x="1356" d="M1184 1456V469Q1184 306 1117 197T936 34T679 -20Q535 -20 421 34T241 197T174 469V1456H262V469Q262 336 316 245T465 106T679 59Q799 59 893 106T1041 244T1095 469V1456H1184ZM752 1580H668L458 1853H563L752 1580Z" />
<glyph unicode="&#xda;" horiz-adv-x="1356" d="M1184 1456V469Q1184 306 1117 197T936 34T679 -20Q535 -20 421 34T241 197T174 469V1456H262V469Q262 336 316 245T465 106T679 59Q799 59 893 106T1041 244T1095 469V1456H1184ZM822 1853H928L714 1580H632L822 1853Z" />
<glyph unicode="&#xdb;" horiz-adv-x="1356" d="M1184 1456V469Q1184 306 1117 197T936 34T679 -20Q535 -20 421 34T241 197T174 469V1456H262V469Q262 336 316 245T465 106T679 59Q799 59 893 106T1041 244T1095 469V1456H1184ZM956 1588V1578H866L689 1768L512
1578H426V1592L660 1839H718L956 1588Z" />
<glyph unicode="&#xdc;" horiz-adv-x="1356" d="M1184 1456V469Q1184 306 1117 197T936 34T679 -20Q535 -20 421 34T241 197T174 469V1456H262V469Q262 336 316 245T465 106T679 59Q799 59 893 106T1041 244T1095 469V1456H1184ZM402 1726Q402 1754 421 1774T470
1794Q501 1794 520 1774T540 1726Q540 1698 521 1679T470 1659Q440 1659 421 1678T402 1726ZM843 1725Q843 1754 862 1774T912 1794Q942 1794 961 1774T981 1725Q981 1697 962 1678T912 1658Q881 1658 862 1678T843 1725Z" />
<glyph unicode="&#xdd;" horiz-adv-x="1225" d="M610 632L1088 1456H1192L655 551V0H566V551L29 1456H138L610 632ZM743 1844H849L635 1571H553L743 1844Z" />
<glyph unicode="&#xde;" horiz-adv-x="1217" d="M278 1456V0H192V1456H278ZM626 1148Q775 1148 877 1095T1032 949T1086 738Q1086 621 1033 528T877 382T626 329H237V407H626Q759 407 841 456T961 581T999 736Q999 819 961 895T841 1021T626 1070H261L229 1148H626Z" />
<glyph unicode="&#xdf;" horiz-adv-x="1192" d="M244 0H158V1135Q158 1333 249 1436T503 1540Q589 1540 663 1505T784 1405T830 1247Q830 1174 812 1125T770 1035T728 946T709 827Q709 767 746 720T839 632T949 545T1042 441T1079 302Q1079 198 1024 126T883 17T708
-21Q650 -21 589 -9T477 22T399 64L428 139Q467 110 543 83T697 56Q787 56 853 90T956 182T992 306Q992 373 955 422T863 513T753 599T660 698T622 829Q622 902 640 952T682 1045T724 1133T742 1245Q742 1309 709 1357T624 1434T513 1462Q390 1462 317 1387T244
1135V0Z" />
<glyph unicode="&#xe0;" horiz-adv-x="1089" d="M833 757Q833 883 754 954T528 1025Q438 1025 366 993T252 906T211 784L124 785Q124 868 175 940T319 1057T531 1102Q645 1102 733 1064T870 948T920 755V222Q920 165 928 106T950 11V0H855Q844 37 839 92T833 199V757ZM861
543H603Q406 543 295 472T183 284Q183 191 254 125T444 59Q551 59 633 96T770 198T851 344L889 285Q873 232 837 179T745 80T612 8T437 -20Q334 -20 257 18T138 125T96 280Q96 433 228 525T593 617H859L861 543ZM641 1262H557L347 1535H452L641 1262Z" />
<glyph unicode="&#xe1;" horiz-adv-x="1089" d="M833 757Q833 883 754 954T528 1025Q438 1025 366 993T252 906T211 784L124 785Q124 868 175 940T319 1057T531 1102Q645 1102 733 1064T870 948T920 755V222Q920 165 928 106T950 11V0H855Q844 37 839 92T833 199V757ZM861
543H603Q406 543 295 472T183 284Q183 191 254 125T444 59Q551 59 633 96T770 198T851 344L889 285Q873 232 837 179T745 80T612 8T437 -20Q334 -20 257 18T138 125T96 280Q96 433 228 525T593 617H859L861 543ZM711 1535H817L603 1262H521L711 1535Z" />
<glyph unicode="&#xe2;" horiz-adv-x="1089" d="M833 757Q833 883 754 954T528 1025Q438 1025 366 993T252 906T211 784L124 785Q124 868 175 940T319 1057T531 1102Q645 1102 733 1064T870 948T920 755V222Q920 165 928 106T950 11V0H855Q844 37 839 92T833 199V757ZM861
543H603Q406 543 295 472T183 284Q183 191 254 125T444 59Q551 59 633 96T770 198T851 344L889 285Q873 232 837 179T745 80T612 8T437 -20Q334 -20 257 18T138 125T96 280Q96 433 228 525T593 617H859L861 543ZM845 1270V1260H755L578 1450L401 1260H315V1274L549
1521H607L845 1270Z" />
<glyph unicode="&#xe3;" horiz-adv-x="1089" d="M833 757Q833 883 754 954T528 1025Q438 1025 366 993T252 906T211 784L124 785Q124 868 175 940T319 1057T531 1102Q645 1102 733 1064T870 948T920 755V222Q920 165 928 106T950 11V0H855Q844 37 839 92T833 199V757ZM861
543H603Q406 543 295 472T183 284Q183 191 254 125T444 59Q551 59 633 96T770 198T851 344L889 285Q873 232 837 179T745 80T612 8T437 -20Q334 -20 257 18T138 125T96 280Q96 433 228 525T593 617H859L861 543ZM912 1491Q912 1431 888 1387T821 1317T727 1291Q673
1291 639 1309T577 1350T519 1391T444 1409Q396 1409 363 1378T329 1287L256 1289Q256 1348 281 1392T348 1460T442 1484Q492 1484 527 1467T591 1426T652 1385T724 1367Q772 1367 806 1401T840 1494L912 1491Z" />
<glyph unicode="&#xe4;" horiz-adv-x="1089" d="M833 757Q833 883 754 954T528 1025Q438 1025 366 993T252 906T211 784L124 785Q124 868 175 940T319 1057T531 1102Q645 1102 733 1064T870 948T920 755V222Q920 165 928 106T950 11V0H855Q844 37 839 92T833 199V757ZM861
543H603Q406 543 295 472T183 284Q183 191 254 125T444 59Q551 59 633 96T770 198T851 344L889 285Q873 232 837 179T745 80T612 8T437 -20Q334 -20 257 18T138 125T96 280Q96 433 228 525T593 617H859L861 543ZM291 1408Q291 1436 310 1456T359 1476Q390 1476
409 1456T429 1408Q429 1380 410 1361T359 1341Q329 1341 310 1360T291 1408ZM732 1407Q732 1436 751 1456T801 1476Q831 1476 850 1456T870 1407Q870 1379 851 1360T801 1340Q770 1340 751 1360T732 1407Z" />
<glyph unicode="&#xe5;" horiz-adv-x="1089" d="M833 757Q833 883 754 954T528 1025Q438 1025 366 993T252 906T211 784L124 785Q124 868 175 940T319 1057T531 1102Q645 1102 733 1064T870 948T920 755V222Q920 165 928 106T950 11V0H855Q844 37 839 92T833 199V757ZM861
543H603Q406 543 295 472T183 284Q183 191 254 125T444 59Q551 59 633 96T770 198T851 344L889 285Q873 232 837 179T745 80T612 8T437 -20Q334 -20 257 18T138 125T96 280Q96 433 228 525T593 617H859L861 543ZM398 1390Q398 1468 450 1520T580 1573Q656 1573
709 1521T762 1390Q762 1314 709 1263T580 1212Q503 1212 451 1263T398 1390ZM463 1390Q463 1340 496 1308T580 1275Q631 1275 664 1307T697 1390Q697 1442 664 1476T580 1510Q529 1510 496 1476T463 1390Z" />
<glyph unicode="&#xe6;" horiz-adv-x="1734" d="M797 720Q797 864 730 944T525 1024Q372 1024 288 951T203 768L117 778Q117 872 167 945T309 1060T525 1102Q687 1102 785 1006T883 718V218L797 183V720ZM826 556H526Q407 556 330 518T215 419T177 285Q177 181
247 119T453 56Q520 56 582 76T693 128T772 194T808 256L874 212Q849 160 793 106T651 16T444 -20Q273 -20 181 64T89 289Q89 444 200 537T524 631H826V556ZM1267 -20Q1117 -20 1013 47T855 233T801 505V564Q801 722 859 843T1017 1033T1244 1102Q1440 1102 1549
981T1658 649V558H852V634H1571V666Q1571 766 1535 847T1427 976T1244 1024Q1132 1024 1052 962T929 796T886 564V505Q886 381 925 280T1049 118T1267 58Q1377 58 1458 94T1595 182L1633 117Q1601 86 1553 54T1435 1T1267 -20Z" />
<glyph unicode="&#xe7;" horiz-adv-x="1047" d="M548 58Q628 58 699 87T818 178T872 331H956Q951 225 894 146T747 24T548 -20Q402 -20 301 50T148 243T96 520V562Q96 718 148 839T300 1031T546 1102Q657 1102 748 1058T895 928T956 721H872Q867 819 822 886T704
989T546 1024Q419 1024 339 961T221 792T183 562V520Q183 395 220 290T338 121T548 58ZM583 -10L571 -80Q636 -88 689 -124T742 -250Q742 -338 666 -391T453 -445L446 -382Q498 -382 548 -369T631 -326T665 -251Q665 -189 620 -167T483 -134L510 -10H583Z" />
<glyph unicode="&#xe8;" horiz-adv-x="1046" d="M568 -20Q432 -20 323 48T151 238T88 514V558Q88 720 151 843T318 1034T547 1102Q676 1102 770 1041T916 873T967 623V555H142V633H880V646Q879 746 840 832T727 971T547 1024Q437 1024 353 963T222 797T175 558V514Q175
387 226 284T367 119T571 57Q665 57 742 90T883 205L939 163Q886 86 796 33T568 -20ZM629 1261H545L335 1534H440L629 1261Z" />
<glyph unicode="&#xe9;" horiz-adv-x="1046" d="M568 -20Q432 -20 323 48T151 238T88 514V558Q88 720 151 843T318 1034T547 1102Q676 1102 770 1041T916 873T967 623V555H142V633H880V646Q879 746 840 832T727 971T547 1024Q437 1024 353 963T222 797T175 558V514Q175
387 226 284T367 119T571 57Q665 57 742 90T883 205L939 163Q886 86 796 33T568 -20ZM699 1534H805L591 1261H509L699 1534Z" />
<glyph unicode="&#xea;" horiz-adv-x="1046" d="M568 -20Q432 -20 323 48T151 238T88 514V558Q88 720 151 843T318 1034T547 1102Q676 1102 770 1041T916 873T967 623V555H142V633H880V646Q879 746 840 832T727 971T547 1024Q437 1024 353 963T222 797T175 558V514Q175
387 226 284T367 119T571 57Q665 57 742 90T883 205L939 163Q886 86 796 33T568 -20ZM833 1269V1259H743L566 1449L389 1259H303V1273L537 1520H595L833 1269Z" />
<glyph unicode="&#xeb;" horiz-adv-x="1046" d="M568 -20Q432 -20 323 48T151 238T88 514V558Q88 720 151 843T318 1034T547 1102Q676 1102 770 1041T916 873T967 623V555H142V633H880V646Q879 746 840 832T727 971T547 1024Q437 1024 353 963T222 797T175 558V514Q175
387 226 284T367 119T571 57Q665 57 742 90T883 205L939 163Q886 86 796 33T568 -20ZM279 1663Q279 1691 298 1711T347 1731Q378 1731 397 1711T417 1663Q417 1635 398 1616T347 1596Q317 1596 298 1615T279 1663ZM720 1662Q720 1691 739 1711T789 1731Q819 1731
838 1711T858 1662Q858 1634 839 1615T789 1595Q758 1595 739 1615T720 1662Z" />
<glyph unicode="&#xec;" horiz-adv-x="431" d="M261 0H175V1082H261V0ZM282 1244H198L-12 1517H93L282 1244Z" />
<glyph unicode="&#xed;" horiz-adv-x="431" d="M261 0H175V1082H261V0ZM352 1517H458L244 1244H162L352 1517Z" />
<glyph unicode="&#xee;" horiz-adv-x="431" d="M261 0H175V1082H261V0ZM487 1252V1242H397L220 1432L43 1242H-43V1256L191 1503H249L487 1252Z" />
<glyph unicode="&#xef;" horiz-adv-x="431" d="M261 0H175V1082H261V0ZM-67 1390Q-67 1418 -48 1438T1 1458Q32 1458 51 1438T71 1390Q71 1362 52 1343T1 1323Q-29 1323 -48 1342T-67 1390ZM374 1389Q374 1418 393 1438T443 1458Q473 1458 492 1438T512 1389Q512
1361 493 1342T443 1322Q412 1322 393 1342T374 1389Z" />
<glyph unicode="&#xf0;" horiz-adv-x="1187" d="M347 1578Q575 1502 731 1375T967 1062T1048 619V535Q1048 371 993 246T842 50T622 -20Q487 -20 383 45T220 220T161 466Q161 620 214 730T364 900T594 959Q707 959 804 913T962 785T1023 590L982 584Q982 627 960
678T891 774T773 849T605 878Q483 878 404 824T287 677T249 466Q249 365 293 272T421 120T626 61Q730 61 804 122T920 291T961 535V621Q961 820 912 965T775 1213T570 1384T317 1501L347 1578ZM501 1125L461 1186L950 1475L990 1414L501 1125Z" />
<glyph unicode="&#xf1;" horiz-adv-x="1123" d="M251 0H164V1082H249L251 851V0ZM192 665Q203 782 258 881T405 1041T619 1102Q728 1102 804 1062T922 934T963 702V0H877V703Q877 828 843 897T747 995T603 1024Q509 1024 441 983T327 877T259 745T233 621L192
665ZM911 1489Q911 1429 887 1385T820 1315T726 1289Q672 1289 638 1307T576 1348T518 1389T443 1407Q395 1407 362 1376T328 1285L255 1287Q255 1346 280 1390T347 1458T441 1482Q491 1482 526 1465T590 1424T651 1383T723 1365Q771 1365 805 1399T839 1492L911
1489Z" />
<glyph unicode="&#xf2;" horiz-adv-x="1137" d="M90 560Q90 718 150 840T317 1032T568 1102Q713 1102 820 1032T987 840T1047 560V522Q1047 365 988 242T821 50T570 -20Q426 -20 318 49T150 242T90 522V560ZM177 522Q177 399 223 293T356 123T570 58Q695 58 782
122T914 293T960 522V560Q960 682 914 787T781 958T568 1024Q444 1024 357 959T223 788T177 560V522ZM632 1261H548L338 1534H443L632 1261Z" />
<glyph unicode="&#xf3;" horiz-adv-x="1137" d="M90 560Q90 718 150 840T317 1032T568 1102Q713 1102 820 1032T987 840T1047 560V522Q1047 365 988 242T821 50T570 -20Q426 -20 318 49T150 242T90 522V560ZM177 522Q177 399 223 293T356 123T570 58Q695 58 782
122T914 293T960 522V560Q960 682 914 787T781 958T568 1024Q444 1024 357 959T223 788T177 560V522ZM701 1534H807L593 1261H511L701 1534Z" />
<glyph unicode="&#xf4;" horiz-adv-x="1137" d="M90 560Q90 718 150 840T317 1032T568 1102Q713 1102 820 1032T987 840T1047 560V522Q1047 365 988 242T821 50T570 -20Q426 -20 318 49T150 242T90 522V560ZM177 522Q177 399 223 293T356 123T570 58Q695 58 782
122T914 293T960 522V560Q960 682 914 787T781 958T568 1024Q444 1024 357 959T223 788T177 560V522ZM836 1269V1259H746L569 1449L392 1259H306V1273L540 1520H598L836 1269Z" />
<glyph unicode="&#xf5;" horiz-adv-x="1137" d="M90 560Q90 718 150 840T317 1032T568 1102Q713 1102 820 1032T987 840T1047 560V522Q1047 365 988 242T821 50T570 -20Q426 -20 318 49T150 242T90 522V560ZM177 522Q177 399 223 293T356 123T570 58Q695 58 782
122T914 293T960 522V560Q960 682 914 787T781 958T568 1024Q444 1024 357 959T223 788T177 560V522ZM903 1489Q903 1429 879 1385T812 1315T718 1289Q664 1289 630 1307T568 1348T510 1389T435 1407Q387 1407 354 1376T320 1285L247 1287Q247 1346 272 1390T339
1458T433 1482Q483 1482 518 1465T582 1424T643 1383T715 1365Q763 1365 797 1399T831 1492L903 1489Z" />
<glyph unicode="&#xf6;" horiz-adv-x="1137" d="M90 560Q90 718 150 840T317 1032T568 1102Q713 1102 820 1032T987 840T1047 560V522Q1047 365 988 242T821 50T570 -20Q426 -20 318 49T150 242T90 522V560ZM177 522Q177 399 223 293T356 123T570 58Q695 58 782
122T914 293T960 522V560Q960 682 914 787T781 958T568 1024Q444 1024 357 959T223 788T177 560V522ZM282 1663Q282 1691 301 1711T350 1731Q381 1731 400 1711T420 1663Q420 1635 401 1616T350 1596Q320 1596 301 1615T282 1663ZM723 1662Q723 1691 742 1711T792
1731Q822 1731 841 1711T861 1662Q861 1634 842 1615T792 1595Q761 1595 742 1615T723 1662Z" />
<glyph unicode="&#xf7;" horiz-adv-x="1162" d="M1071 665H73V749H1071V665ZM512 1083Q512 1113 531 1133T582 1154Q613 1154 633 1134T653 1084Q653 1055 633 1035T582 1015Q551 1015 532 1035T512 1083ZM512 296Q512 325 531 345T582 366Q613 366 633 346T653
296Q653 267 633 248T582 228Q551 228 532 247T512 296Z" />
<glyph unicode="&#xf8;" horiz-adv-x="1131" d="M281 -143H203L866 1217H944L281 -143ZM88 560Q88 718 148 840T315 1032T566 1102Q710 1102 818 1032T985 840T1045 560V522Q1045 365 986 242T819 50T568 -20Q424 -20 316 49T148 242T88 522V560ZM175 522Q175
399 221 293T354 123T568 58Q692 58 779 122T912 293T958 522V560Q958 682 912 787T779 958T566 1024Q441 1024 354 959T221 788T175 560V522Z" />
<glyph unicode="&#xf9;" horiz-adv-x="1123" d="M874 1082H961V0H876L874 250V1082ZM943 439Q943 307 899 203T761 40T516 -20Q357 -20 259 74T160 392V1082H247V390Q247 267 283 194T382 90T522 59Q661 59 741 112T855 252T889 437L943 439ZM639 1263H555L345
1536H450L639 1263Z" />
<glyph unicode="&#xfa;" horiz-adv-x="1123" d="M874 1082H961V0H876L874 250V1082ZM943 439Q943 307 899 203T761 40T516 -20Q357 -20 259 74T160 392V1082H247V390Q247 267 283 194T382 90T522 59Q661 59 741 112T855 252T889 437L943 439ZM709 1536H815L601
1263H519L709 1536Z" />
<glyph unicode="&#xfb;" horiz-adv-x="1123" d="M874 1082H961V0H876L874 250V1082ZM943 439Q943 307 899 203T761 40T516 -20Q357 -20 259 74T160 392V1082H247V390Q247 267 283 194T382 90T522 59Q661 59 741 112T855 252T889 437L943 439ZM843 1271V1261H753L576
1451L399 1261H313V1275L547 1522H605L843 1271Z" />
<glyph unicode="&#xfc;" horiz-adv-x="1123" d="M874 1082H961V0H876L874 250V1082ZM943 439Q943 307 899 203T761 40T516 -20Q357 -20 259 74T160 392V1082H247V390Q247 267 283 194T382 90T522 59Q661 59 741 112T855 252T889 437L943 439ZM290 1409Q290 1437
309 1457T358 1477Q389 1477 408 1457T428 1409Q428 1381 409 1362T358 1342Q328 1342 309 1361T290 1409ZM731 1408Q731 1437 750 1457T800 1477Q830 1477 849 1457T869 1408Q869 1380 850 1361T800 1341Q769 1341 750 1361T731 1408Z" />
<glyph unicode="&#xfd;" horiz-adv-x="976" d="M850 1082H944L475 -177Q461 -212 441 -257T389 -343T306 -410T181 -437Q169 -437 152 -435T119 -431T95 -425L94 -350Q107 -353 129 -355T161 -358Q260 -358 312 -303T399 -152L494 106L850 1082ZM510 108L534 19L469
-21L38 1082H133L510 108ZM649 1536H755L541 1263H459L649 1536Z" />
<glyph unicode="&#xfe;" horiz-adv-x="1136" d="M252 -416H165V1536H252V-416ZM1015 531Q1015 367 967 243T827 50T606 -20Q480 -20 390 29T247 161T176 346V706Q198 822 252 911T393 1051T604 1102Q734 1102 826 1035T966 845T1015 552V531ZM928 552Q928 687
891 793T780 961T591 1023Q497 1023 432 992T326 912T261 805T226 697V347Q245 268 289 203T409 98T593 58Q706 58 780 120T891 288T928 531V552Z" />
<glyph unicode="&#xff;" horiz-adv-x="976" d="M850 1082H944L475 -177Q461 -212 441 -257T389 -343T306 -410T181 -437Q169 -437 152 -435T119 -431T95 -425L94 -350Q107 -353 129 -355T161 -358Q260 -358 312 -303T399 -152L494 106L850 1082ZM510 108L534 19L469
-21L38 1082H133L510 108ZM229 1409Q229 1437 248 1457T297 1477Q328 1477 347 1457T367 1409Q367 1381 348 1362T297 1342Q267 1342 248 1361T229 1409ZM670 1408Q670 1437 689 1457T739 1477Q769 1477 788 1457T808 1408Q808 1380 789 1361T739 1341Q708 1341
689 1361T670 1408Z" />
<glyph unicode="&#x2013;" horiz-adv-x="1329" d="M1415 704H413V782H1415V704Z" />
<glyph unicode="&#x2014;" horiz-adv-x="1570" d="M1453 704H117V782H1453V704Z" />
<glyph unicode="&#x2018;" horiz-adv-x="343" d="M100 1253Q100 1315 115 1369T158 1471T223 1554L277 1513Q232 1453 209 1393T186 1255V1145H100V1253Z" />
<glyph unicode="&#x2019;" horiz-adv-x="343" d="M247 1427Q247 1366 232 1311T189 1209T124 1125L70 1167Q115 1228 138 1287T161 1425V1536H247V1427Z" />
<glyph unicode="&#x201a;" horiz-adv-x="327" d="M221 95Q221 34 206 -21T164 -123T98 -207L44 -165Q90 -104 112 -45T135 93V217H221V95Z" />
<glyph unicode="&#x201c;" horiz-adv-x="556" d="M354 1253Q354 1315 369 1369T412 1471T477 1554L531 1513Q486 1453 463 1393T440 1255V1145H354V1253ZM316 1253Q316 1315 331 1369T374 1471T439 1554L493 1513Q448 1453 425 1393T402 1255V1145H316V1253Z" />
<glyph unicode="&#x201d;" horiz-adv-x="559" d="M250 1427Q250 1366 235 1311T192 1209T127 1125L73 1167Q118 1228 141 1287T164 1425V1536H250V1427ZM463 1427Q463 1366 448 1311T405 1209T340 1125L286 1167Q331 1228 354 1287T377 1425V1536H463V1427Z" />
<glyph unicode="&#x201e;" horiz-adv-x="537" d="M221 95Q221 33 206 -23T164 -126T98 -211L44 -169Q90 -108 112 -48T135 93V232H221V95ZM424 95Q424 33 409 -23T366 -126T301 -211L247 -169Q292 -108 314 -48T337 93V232H424V95Z" />
<glyph unicode="&#x2022;" horiz-adv-x="649" d="M151 743Q151 816 198 864T326 912Q409 912 456 864T503 743V710Q503 638 456 591T327 543Q246 543 199 590T151 710V743Z" />
<glyph unicode="&#x2039;" horiz-adv-x="607" d="M203 554L108 555V568L403 942H491L203 554ZM491 174H403L108 549V562L203 563L491 174Z" />
<glyph unicode="&#x203a;" horiz-adv-x="607" d="M390 555L484 554V541L190 167H102L390 555ZM190 942L484 560V547L390 546L102 942H190Z" />
</font>
</defs>
</svg>
