<?xml version="1.0" standalone="no"?>
<!DOCTYPE svg PUBLIC "-//W3C//DTD SVG 1.1//EN" "http://www.w3.org/Graphics/SVG/1.1/DTD/svg11.dtd">
<svg xmlns="http://www.w3.org/2000/svg">
<defs >
<font id="SecularOne" horiz-adv-x="579" ><font-face
    font-family="Secular One"
    units-per-em="1000"
    panose-1="0 0 5 0 0 0 0 0 0 0"
    ascent="1022"
    descent="-433"
    alphabetic="0" />
<glyph unicode=" " glyph-name="space" horiz-adv-x="200" />
<glyph unicode="!" glyph-name="exclam" horiz-adv-x="391" d="M100 716L291 736L254 235H136L100 716ZM161 -25T134 2T106 68Q106 106 133 134T199 162Q237 162 264 134T292 68Q292 30 265 3T199 -25Q161 -25 134 2Z" />
<glyph unicode="&quot;" glyph-name="quotedbl" horiz-adv-x="608" d="M70 406Q115 463 131 505L73 592Q73 615 85 637T121 674T173 688Q216 688 246 658T276 580Q276 525 232 455T94 319L70 406ZM332 406Q377 463 393 505L335 592Q335 615 347 637T383 674T435
688Q478 688 508 658T538 580Q538 525 494 455T356 319L332 406Z" />
<glyph unicode="#" glyph-name="numbersign" horiz-adv-x="693" d="M175 124H76V214H191L210 326H76V415H227L248 533L340 540L318 415H426L447 533L539 540L518 415H616V326H501L482 214H616V124H465L444 0L351 -7L374 124H266L244 0L152 -7L175 124ZM390 214L409
326H301L283 214H390Z" />
<glyph unicode="$" glyph-name="dollar" horiz-adv-x="581" d="M146 -88L170 -3Q108 9 65 35L77 169Q138 131 203 117L246 273Q188 296 153 316T92 374T66 473Q66 569 131 624T312 679Q328 679 358 677L379 751L455 740L433 662Q464 654 492 643L470 511Q432 532
400 541L357 387Q431 358 473 316T516 192Q516 95 450 41T266 -13H245L221 -99L146 -88ZM325 556H310Q263 556 237 538T211 488Q211 461 229 446T286 415L325 556ZM320 114T345 133T371 183Q371 204 358 218T317 245L279 111Q320 114 345 133Z" />
<glyph unicode="%" glyph-name="percent" horiz-adv-x="786" d="M134 -1L585 671L652 663L201 -10L134 -1ZM167 399T135 417T84 466T65 534Q65 572 83 603T134 652T205 670Q243 670 275 652T325 603T344 534Q344 497 326 466T275 417T205 399Q167 399 135 417ZM232
467T249 487T267 534Q267 561 250 581T205 602Q177 602 160 582T142 534Q142 507 159 487T205 467Q232 467 249 487ZM544 -9T513 9T463 58T444 127Q444 164 462 195T512 245T582 263Q620 263 652 245T702 196T721 127Q721 69 681 30T582 -9Q544 -9 513 9ZM609 60T626
80T644 127Q644 154 627 174T581 195Q554 195 537 175T519 127Q519 100 536 80T581 60Q609 60 626 80Z" />
<glyph unicode="&amp;" glyph-name="ampersand" horiz-adv-x="684" d="M473 60Q432 25 375 5T256 -15Q160 -15 103 32T45 161Q45 228 81 275T177 364Q140 408 126 442T112 513Q112 592 164 637T294 682Q367 682 409 643T452 538Q452 485 425 442T349 358L459 246Q474
297 478 371L606 387Q607 251 554 151L659 40L551 -22L473 60ZM332 484T332 530Q332 552 319 564T287 576Q266 576 250 562T234 520Q234 504 243 486T276 438Q332 484 332 530ZM307 99T338 111T392 143L374 160Q251 283 251 283Q211 256 194 230T176 176Q176 137
204 118T274 99Q307 99 338 111Z" />
<glyph unicode="&apos;" glyph-name="quotesingle" horiz-adv-x="346" d="M70 406Q115 463 131 505L73 592Q73 615 85 637T121 674T173 688Q216 688 246 658T276 580Q276 525 232 455T94 319L70 406Z" />
<glyph unicode="(" glyph-name="parenleft" horiz-adv-x="399" d="M223 -106T149 15T75 288Q75 441 149 563T358 761L382 713Q293 618 254 521T215 289Q215 155 254 58T383 -136L358 -184Q223 -106 149 15Z" />
<glyph unicode=")" glyph-name="parenright" horiz-adv-x="400" d="M16 -136Q105 -40 144 57T184 289Q184 423 145 520T17 713L41 761Q175 685 249 563T324 288Q324 136 250 15T41 -184L16 -136Z" />
<glyph unicode="*" glyph-name="asterisk" horiz-adv-x="570" d="M260 381L146 274L68 374L192 465L62 540L131 648L252 559L281 709L402 675L353 529L502 548L508 419L361 420L420 280L302 234L260 381Z" />
<glyph unicode="+" glyph-name="plus" horiz-adv-x="580" d="M254 213H45L55 288H254V486L329 496V288H535L525 213H329V16L254 6V213Z" />
<glyph unicode="," glyph-name="comma" horiz-adv-x="346" d="M60 -109Q105 -52 121 -10L63 77Q63 100 75 122T111 159T163 173Q206 173 236 143T266 65Q266 10 222 -60T84 -196L60 -109Z" />
<glyph unicode="-" glyph-name="hyphen" horiz-adv-x="541" d="M75 358H475L465 243H65L75 358Z" />
<glyph unicode="." glyph-name="period" horiz-adv-x="336" d="M126 -34T96 -4T65 69Q65 112 95 142T168 173Q211 173 241 143T271 69Q271 27 241 -3T168 -34Q126 -34 96 -4Z" />
<glyph unicode="/" glyph-name="slash" horiz-adv-x="507" d="M20 0L374 730L487 720L133 -10L20 0Z" />
<glyph unicode="0" glyph-name="zero" horiz-adv-x="586" d="M172 -15T106 74T40 333Q40 502 106 591T293 680Q414 680 480 591T546 332Q546 163 480 74T293 -15Q172 -15 106 74ZM345 111T374 168T403 331Q403 436 374 495T293 555Q241 555 212 498T183 335Q183
230 212 171T293 111Q345 111 374 168Z" />
<glyph unicode="1" glyph-name="one" horiz-adv-x="438" d="M50 121H165V485L48 532V581L228 671H305V121H416L406 0H40L50 121Z" />
<glyph unicode="2" glyph-name="two" horiz-adv-x="517" d="M48 105Q158 223 212 285T294 393T321 476Q321 510 301 530T247 550Q184 550 131 475L28 548Q74 615 133 648T262 681Q320 681 366 659T438 594T465 494Q465 415 411 333T233 129H466L455 0H48V105Z" />
<glyph unicode="3" glyph-name="three" horiz-adv-x="486" d="M58 -15T4 -6L22 118Q80 108 122 108Q202 108 250 142T298 231Q298 266 278 286T222 306Q197 306 167 296L147 392Q195 407 234 441T274 511Q274 533 258 546T213 560Q185 560 155 545T99 501L15 593Q57
634 111 657T225 681Q280 681 322 662T387 608T410 530Q410 458 345 396Q392 374 416 333T441 238Q441 167 400 109T282 18T109 -15Q58 -15 4 -6Z" />
<glyph unicode="4" glyph-name="four" horiz-adv-x="574" d="M326 150H35L25 253L325 666H457V262H534L524 150H457V0H326V150ZM326 262V492L170 262H326Z" />
<glyph unicode="5" glyph-name="five" horiz-adv-x="491" d="M64 -15T10 -6L28 118Q86 108 128 108Q208 108 255 144T303 240Q303 282 280 303T211 325Q165 325 123 305L67 346L86 666H426L418 548H202L196 435Q213 439 240 439Q333 439 389 387T446 243Q446 169
405 110T288 18T115 -15Q64 -15 10 -6Z" />
<glyph unicode="6" glyph-name="six" horiz-adv-x="542" d="M158 -16T102 53T45 282Q45 464 120 572T342 681Q390 681 438 670L433 554Q381 561 351 561Q281 561 242 525T190 406Q258 429 314 429Q402 429 449 375T497 224Q497 110 434 47T263 -16Q158 -16 102
53ZM316 101T338 129T361 213Q361 316 285 316Q245 316 182 291Q180 255 180 242Q180 178 205 140T277 101Q316 101 338 129Z" />
<glyph unicode="7" glyph-name="seven" horiz-adv-x="473" d="M79 10L301 547H26L36 666H438V560L226 -20L79 10Z" />
<glyph unicode="8" glyph-name="eight" horiz-adv-x="561" d="M163 -15T103 37T43 182Q43 239 66 284T133 361Q69 420 69 502Q69 559 98 599T176 660T285 681Q374 681 433 636T492 513Q492 468 472 428T417 354Q463 325 489 285T516 186Q516 95 451 40T273 -15Q163
-15 103 37ZM340 420T350 443T360 491Q360 528 336 546T278 565Q248 565 227 550T205 506Q205 472 233 451T322 403Q340 420 350 443ZM329 102T354 121T380 175Q380 213 352 235T262 285L225 302Q200 279 188 251T175 194Q175 151 203 127T283 102Q329 102 354
121Z" />
<glyph unicode="9" glyph-name="nine" horiz-adv-x="542" d="M152 -16T104 -5L109 111Q162 104 191 104Q261 104 300 140T352 259Q284 236 228 236Q140 236 93 290T45 441Q45 555 108 618T279 681Q384 681 440 612T497 383Q497 201 422 93T200 -16Q152 -16 104
-5ZM297 349T360 374Q362 410 362 423Q362 487 337 525T265 564Q226 564 204 536T181 452Q181 349 257 349Q297 349 360 374Z" />
<glyph unicode=":" glyph-name="colon" horiz-adv-x="386" d="M150 339T120 369T90 442Q90 484 120 514T193 544Q235 544 265 514T296 442Q296 400 266 370T193 339Q150 339 120 369ZM150 -24T120 6T90 79Q90 121 120 151T193 181Q235 181 265 151T296 79Q296
37 266 7T193 -24Q150 -24 120 6Z" />
<glyph unicode=";" glyph-name="semicolon" horiz-adv-x="410" d="M154 339T124 369T94 442Q94 484 124 514T197 544Q239 544 269 514T300 442Q300 400 270 370T197 339Q154 339 124 369ZM90 -109Q135 -52 151 -10L93 77Q93 100 105 122T141 159T193 173Q236 173
266 143T296 65Q296 10 252 -60T114 -196L90 -109Z" />
<glyph unicode="&lt;" glyph-name="less" horiz-adv-x="644" d="M45 190L54 313L580 537V381L231 252L589 116L580 -37L45 190Z" />
<glyph unicode="=" glyph-name="equal" horiz-adv-x="650" d="M90 385H570L560 310H80L90 385ZM90 215H570L560 140H80L90 215Z" />
<glyph unicode="&gt;" glyph-name="greater" horiz-adv-x="634" d="M45 190L54 313L580 537V381L231 252L589 116L580 -37L45 190Z" />
<glyph unicode="?" glyph-name="question" horiz-adv-x="511" d="M159 279T159 304Q159 343 170 366T206 417Q216 427 252 461Q287 493 302 513T317 559Q317 586 300 602T252 619Q220 619 194 599T159 535Q91 549 25 571Q44 642 106 688T257 735Q344 735 398 690T452
569Q452 516 427 477T353 387L328 362Q292 325 282 311T270 278L268 240L167 231Q159 279 159 304ZM179 -25T151 3T123 70Q123 108 150 136T217 164Q256 164 283 136T311 69Q311 31 284 3T217 -25Q179 -25 151 3Z" />
<glyph unicode="@" glyph-name="at" horiz-adv-x="823" d="M298 -69T222 -27T103 90T60 262Q60 368 110 456T248 594T444 645Q537 645 609 607T722 500T763 341Q763 244 715 188T578 125Q548 123 524 123Q491 123 455 125L461 167H457Q438 144 411 131T353 118Q300
118 275 157T250 254Q250 293 261 329T294 393Q346 460 438 460Q488 460 560 439L531 191Q556 190 586 193Q636 199 660 233T685 333Q685 408 655 463T569 547T440 576Q353 576 284 536T177 426T138 269Q138 189 171 129T266 35T412 1Q493 1 567 31L558 -47Q527
-57 482 -63T398 -69Q298 -69 222 -27ZM399 189T420 205T459 250L475 382Q455 391 429 391Q381 391 357 352T332 260Q332 225 343 207T377 189Q399 189 420 205Z" />
<glyph unicode="A" glyph-name="A" horiz-adv-x="679" d="M251 666H425L672 0H522L468 152H206L155 0H7L251 666ZM425 276L335 531L248 276H425Z" />
<glyph unicode="B" glyph-name="B" horiz-adv-x="569" d="M70 666H293Q390 666 446 620T503 493Q503 402 424 353Q529 311 529 205Q529 145 499 99T416 26T295 0H70V666ZM259 395Q309 395 336 418T364 482Q364 556 272 556H209V395H259ZM273 111Q327 111 357 136T388
203Q388 241 362 262T287 283H209V111H273Z" />
<glyph unicode="C" glyph-name="C" horiz-adv-x="594" d="M221 -13T131 73T41 316Q41 423 83 505T204 631T384 676Q467 676 544 646L517 517Q449 548 385 548Q294 548 241 489T188 330Q188 229 244 173T399 117Q464 117 525 138L547 15Q474 -13 381 -13Q221 -13 131 73Z" />
<glyph unicode="D" glyph-name="D" horiz-adv-x="685" d="M104 -1T69 0V666Q112 667 196 667Q281 667 323 666Q421 665 493 627T605 517T645 351Q645 247 600 168T472 45T280 0Q245 -1 175 -1Q104 -1 69 0ZM279 126Q380 126 438 185T496 347Q496 440 447 490T304
540H214V126H279Z" />
<glyph unicode="E" glyph-name="E" horiz-adv-x="530" d="M70 666H475V540H213V407H430V285H213V126H475V0H70V666Z" />
<glyph unicode="F" glyph-name="F" horiz-adv-x="517" d="M70 666H477V540H215V388H432V263H215V0H70V666Z" />
<glyph unicode="G" glyph-name="G" horiz-adv-x="688" d="M292 -15T212 24T88 138T45 314Q45 421 90 503T218 630T409 675Q471 675 526 661T625 621L590 501Q551 525 503 538T409 552Q343 552 293 524T215 444T187 324Q187 224 247 167T413 109Q455 109 491 115V253H407V370H624V24Q521
-15 403 -15Q292 -15 212 24Z" />
<glyph unicode="H" glyph-name="H" horiz-adv-x="716" d="M70 666H216V408H499V666H646V0H499V284H216V0H70V666Z" />
<glyph unicode="I" glyph-name="I" horiz-adv-x="301" d="M78 666H223V0H78V666Z" />
<glyph unicode="J" glyph-name="J" horiz-adv-x="338" d="M35 -15T-13 6L25 127Q55 111 78 111Q128 111 128 173V666H268V161Q268 80 221 33T93 -15Q35 -15 -13 6Z" />
<glyph unicode="K" glyph-name="K" horiz-adv-x="615" d="M70 666H215V408L432 666H605L331 350L591 0H415L215 269V0H70V666Z" />
<glyph unicode="L" glyph-name="L" horiz-adv-x="485" d="M70 666H215V126H455V0H70V666Z" />
<glyph unicode="M" glyph-name="M" horiz-adv-x="911" d="M216 470L174 0H45L108 666H288L458 188L623 666H803L864 0H734L688 468L512 -7L393 -18L216 470Z" />
<glyph unicode="N" glyph-name="N" horiz-adv-x="719" d="M70 666H240L516 199V666H649V0H481L203 470V0H70V666Z" />
<glyph unicode="O" glyph-name="O" horiz-adv-x="741" d="M273 -13T198 30T82 151T40 330Q40 432 81 510T197 631T371 674Q469 674 544 632T660 512T701 334Q701 231 660 153T544 31T371 -13Q273 -13 198 30ZM453 114T502 173T552 330Q552 394 530 443T466 519T371
546Q318 546 277 520T213 444T190 330Q190 266 212 217T276 141T371 114Q453 114 502 173Z" />
<glyph unicode="P" glyph-name="P" horiz-adv-x="547" d="M70 666Q99 667 180 667Q262 667 291 666Q394 664 453 611T512 464Q512 397 482 346T398 266T274 238H209V0H70V666ZM268 356Q317 356 344 384T372 460Q372 548 275 548H209V356H268Z" />
<glyph unicode="Q" glyph-name="Q" horiz-adv-x="746" d="M479 1Q430 -14 371 -14Q273 -14 198 29T82 150T40 329Q40 431 81 509T197 630T371 673Q469 673 544 631T660 512T701 333Q701 257 678 193T611 82L704 34L689 -103L479 1ZM378 204L481 150Q515 178 533
224T552 329Q552 394 530 443T466 519T371 546Q318 546 277 519T213 443T190 329Q190 232 239 173T369 113L378 204Z" />
<glyph unicode="R" glyph-name="R" horiz-adv-x="560" d="M66 666Q96 667 178 667Q261 667 291 666Q405 662 461 611T517 472Q517 398 480 347T375 279Q396 262 418 233T479 141Q520 76 562 0H394L281 210Q263 243 249 251T205 260V0H66V666ZM267 371Q318 371
347 397T377 467Q377 507 351 528T275 549H205V371H267Z" />
<glyph unicode="S" glyph-name="S" horiz-adv-x="541" d="M188 -13T136 0T45 35L57 169Q102 141 151 126T243 110Q291 110 321 130T351 183Q351 210 331 224T268 256L244 266Q239 268 233 270T219 276Q163 299 129 319T71 377T46 473Q46 569 111 624T292 679Q380
679 472 643L450 511Q413 532 371 544T290 556Q243 556 217 538T191 488Q191 461 209 446T267 414L308 398Q366 376 404 355T469 295T496 192Q496 95 430 41T246 -13Q188 -13 136 0Z" />
<glyph unicode="T" glyph-name="T" horiz-adv-x="568" d="M212 540H30V666H538V540H358V0H212V540Z" />
<glyph unicode="U" glyph-name="U" horiz-adv-x="696" d="M265 -13T202 22T105 120T70 267V666H216V278Q216 204 251 161T348 117Q409 117 445 160T481 278V666H626V267Q626 184 592 121T494 22T348 -13Q265 -13 202 22Z" />
<glyph unicode="V" glyph-name="V" horiz-adv-x="644" d="M10 666H170L328 158L485 666H634L410 0H235L10 666Z" />
<glyph unicode="W" glyph-name="W" horiz-adv-x="1022" d="M30 666H184L300 187L419 662L606 676L732 173L849 666H992L812 0H637L508 527L374 0H201L30 666Z" />
<glyph unicode="X" glyph-name="X" horiz-adv-x="673" d="M243 342L23 666H195L340 452L485 666H645L426 350L667 0H490L329 235L173 0H6L243 342Z" />
<glyph unicode="Y" glyph-name="Y" horiz-adv-x="607" d="M228 277L5 666H168L303 403L437 666H597L373 277V0H228V277Z" />
<glyph unicode="Z" glyph-name="Z" horiz-adv-x="590" d="M45 109L363 540H54V666H540V552L224 126H540V0H45V109Z" />
<glyph unicode="[" glyph-name="bracketleft" horiz-adv-x="324" d="M75 740H289L279 636H185V-78H289L279 -182H75V740Z" />
<glyph unicode="\" glyph-name="backslash" horiz-adv-x="488" d="M-2 675H132L489 0H356L-2 675Z" />
<glyph unicode="]" glyph-name="bracketright" horiz-adv-x="324" d="M45 -78H139V636H35L45 740H249V-182H35L45 -78Z" />
<glyph unicode="^" glyph-name="asciicircum" horiz-adv-x="674" d="M278 681H407L619 284H468L341 579L203 284H55L278 681Z" />
<glyph unicode="_" glyph-name="underscore" horiz-adv-x="585" d="M11 0H574V-110H11V0Z" />
<glyph unicode="`" glyph-name="grave" horiz-adv-x="600" d="M69 580T48 601T27 656Q27 707 74 748T187 807L205 768Q166 737 144 702L170 649Q170 622 150 601T100 580Q69 580 48 601Z" />
<glyph unicode="a" glyph-name="a" horiz-adv-x="557" d="M134 -15T87 53T40 238Q40 380 112 454T319 529Q395 529 497 505V0H363L366 82H362Q336 35 299 10T214 -15Q134 -15 87 53ZM275 108T305 141T361 229V397Q329 406 297 406Q237 406 207 365T176 244Q176
181 194 145T244 108Q275 108 305 141Z" />
<glyph unicode="b" glyph-name="b" horiz-adv-x="577" d="M174 -15T65 9V730H204V465Q263 529 349 529Q437 529 487 463T537 277Q537 135 464 60T254 -15Q174 -15 65 9ZM331 108T363 149T396 269Q396 334 375 370T314 406Q282 406 254 384T204 318V117Q235 108
269 108Q331 108 363 149Z" />
<glyph unicode="c" glyph-name="c" horiz-adv-x="480" d="M177 -15T107 53T36 245Q36 329 69 393T162 493T301 529Q338 529 378 521T441 501L414 382Q391 393 364 399T312 406Q250 406 213 364T175 253Q175 183 213 145T323 107Q370 107 424 125L445 11Q380 -15
305 -15Q177 -15 107 53Z" />
<glyph unicode="d" glyph-name="d" horiz-adv-x="577" d="M139 -15T90 51T40 237Q40 378 113 453T323 529Q340 529 374 527V730H513V0H376L379 67H375Q349 27 312 6T226 -15Q139 -15 90 51ZM290 108T320 135T374 214V397Q340 406 309 406Q246 406 214 365T181
245Q181 181 201 145T258 108Q290 108 320 135Z" />
<glyph unicode="e" glyph-name="e" horiz-adv-x="563" d="M183 -15T112 57T40 257Q40 340 71 401T158 496T291 529Q403 529 463 457T523 249Q523 226 522 215H182Q192 162 228 135T325 107Q362 107 402 116T472 142L495 29Q455 8 407 -3T308 -15Q183 -15 112 57ZM388
321Q385 364 358 389T286 415Q243 415 216 390T181 321H388Z" />
<glyph unicode="f" glyph-name="f" horiz-adv-x="452" d="M46 121H137V394H46V515H137V578Q137 653 185 698T313 744Q369 744 437 716L388 605Q354 622 327 622Q304 622 291 609T278 571V515H398V394H278V121H398V0H46V121Z" />
<glyph unicode="g" glyph-name="g" horiz-adv-x="577" d="M143 -227T58 -204L85 -80Q181 -108 245 -108Q296 -108 323 -92T362 -42T376 51H373Q345 19 308 2T227 -15Q139 -15 90 51T40 236Q40 379 113 454T324 529Q403 529 512 505Q514 299 514 195Q514 102 513
55Q511 -87 442 -157T232 -227Q143 -227 58 -204ZM295 108T323 131T374 196L373 397Q340 406 309 406Q246 406 214 365T181 246Q181 181 202 145T264 108Q295 108 323 131Z" />
<glyph unicode="h" glyph-name="h" horiz-adv-x="606" d="M65 730H206V440Q237 486 277 507T369 529Q452 529 499 480T546 342V0H405V320Q405 360 385 382T331 405Q294 405 261 380T206 312V0H65V730Z" />
<glyph unicode="i" glyph-name="i" horiz-adv-x="398" d="M125 730H286V600H125V730ZM47 121H143V394H47V515H284V121H370V0H47V121Z" />
<glyph unicode="j" glyph-name="j" horiz-adv-x="303" d="M81 730H242V600H81V730ZM6 -233T-43 -213L-6 -96Q18 -107 40 -107Q66 -107 78 -92T91 -45V515H232V-56Q232 -138 185 -185T57 -233Q6 -233 -43 -213Z" />
<glyph unicode="k" glyph-name="k" horiz-adv-x="545" d="M206 224V0H65V731H206V327L367 515H534L328 284L545 6L392 -15L206 224Z" />
<glyph unicode="l" glyph-name="l" horiz-adv-x="393" d="M42 121H133V610H47V730H274V121H365V0H42V121Z" />
<glyph unicode="m" glyph-name="m" horiz-adv-x="943" d="M65 515H203V435Q264 529 368 529Q427 529 468 502T529 423Q564 478 607 503T707 529Q790 529 836 480T883 342V0H742V320Q742 360 723 382T670 405Q629 405 594 371T542 284V0H401V320Q401 359 381 382T328
405Q291 405 259 378T206 300V0H65V515Z" />
<glyph unicode="n" glyph-name="n" horiz-adv-x="612" d="M65 515H203V426Q235 479 277 504T375 529Q458 529 505 480T552 342V0H411V320Q411 360 391 382T337 405Q297 405 261 375T206 299V0H65V515Z" />
<glyph unicode="o" glyph-name="o" horiz-adv-x="604" d="M225 -15T166 19T73 114T40 257Q40 338 72 399T164 495T302 529Q380 529 439 496T531 401T564 260Q564 179 532 117T440 20T303 -15Q225 -15 166 19ZM356 107T388 148T421 258Q421 326 389 366T302 407Q248
407 216 367T183 258Q183 190 215 149T302 107Q356 107 388 148Z" />
<glyph unicode="p" glyph-name="p" horiz-adv-x="577" d="M65 515H202L199 448H203Q229 488 266 509T352 530Q439 530 488 464T538 278Q538 137 465 62T255 -14Q238 -14 204 -12V-218H65V515ZM332 109T364 150T397 270Q397 334 377 370T320 407Q288 407 258 380T204
301V118Q238 109 269 109Q332 109 364 150Z" />
<glyph unicode="q" glyph-name="q" horiz-adv-x="577" d="M373 51Q345 19 308 2T227 -15Q139 -15 90 51T40 236Q40 378 113 453T324 529Q406 529 512 506L513 -218H374L373 51ZM295 108T323 131T374 196L373 397Q340 406 309 406Q246 406 214 365T181 246Q181
181 202 145T264 108Q295 108 323 131Z" />
<glyph unicode="r" glyph-name="r" horiz-adv-x="399" d="M68 515H209V431H217Q246 482 274 506T346 530Q364 530 376 526L361 374Q335 381 319 381Q296 381 279 372T248 348T209 302V0H68V515Z" />
<glyph unicode="s" glyph-name="s" horiz-adv-x="469" d="M165 -15T120 -5T42 22L55 142Q89 121 130 108T207 95Q241 95 264 107T287 144Q287 163 271 173T210 200L183 210Q140 226 113 240T64 285T42 364Q42 442 100 485T253 529Q327 529 409 500L390 381Q361
398 325 408T256 419Q223 419 204 408T184 376Q184 356 200 346T254 323Q284 312 289 310Q331 293 359 277T408 230T429 149Q429 67 370 26T214 -15Q165 -15 120 -5Z" />
<glyph unicode="t" glyph-name="t" horiz-adv-x="421" d="M182 -15T143 21T103 125V394H23V515H103V625Q174 637 243 643V515H373V394H243V151Q243 130 255 119T291 108Q319 108 355 121L386 15Q322 -15 254 -15Q182 -15 143 21Z" />
<glyph unicode="u" glyph-name="u" horiz-adv-x="599" d="M154 -14T107 36T60 173V515H201V196Q201 155 221 133T275 110Q309 110 340 132T393 191V515H534V0H393V68Q364 29 327 8T236 -14Q154 -14 107 36Z" />
<glyph unicode="v" glyph-name="v" horiz-adv-x="547" d="M5 513L159 527L273 156L382 515H533L352 0H187L5 513Z" />
<glyph unicode="w" glyph-name="w" horiz-adv-x="850" d="M7 515H151L243 174L342 512L501 525L608 164L702 515H836L679 0H525L419 374L308 0H157L7 515Z" />
<glyph unicode="x" glyph-name="x" horiz-adv-x="545" d="M271 158L168 0H8L198 266L26 515L182 523L279 377L369 515H523L353 273L538 0L382 -8L271 158Z" />
<glyph unicode="y" glyph-name="y" horiz-adv-x="542" d="M92 -224T42 -202L63 -86Q101 -105 127 -105Q158 -105 173 -85T207 -15L6 513L152 525L275 156L389 515H528Q464 321 394 133T284 -125Q256 -175 222 -199T138 -224Q92 -224 42 -202Z" />
<glyph unicode="z" glyph-name="z" horiz-adv-x="503" d="M38 93L285 394H55V515H457V423L211 121H457V1H38V93Z" />
<glyph unicode="{" glyph-name="braceleft" horiz-adv-x="378" d="M153 -162V87Q153 164 129 194T45 223V355Q104 353 128 383T153 491V740L278 750V525Q278 451 272 413T243 347T170 289Q220 260 242 232T271 165T278 53V-172L153 -162Z" />
<glyph unicode="|" glyph-name="bar" horiz-adv-x="490" d="M200 725L290 735V-213L200 -223V725Z" />
<glyph unicode="}" glyph-name="braceright" horiz-adv-x="378" d="M100 53Q100 126 106 164T135 231T208 289Q158 318 136 346T107 413T100 525V750L225 740V491Q225 414 249 384T333 355V223Q274 225 250 195T225 87V-162L100 -172V53Z" />
<glyph unicode="~" glyph-name="asciitilde" horiz-adv-x="658" d="M85 287Q124 309 156 319T220 329Q247 329 275 323T342 305Q377 295 401 290T448 284Q476 284 506 294T578 327L573 249Q509 208 443 208Q414 208 386 214T319 232Q280 244 258 249T212 254Q182
254 154 244T80 208L85 287Z" />
<glyph unicode="&#xa1;" glyph-name="exclamdown" horiz-adv-x="392" d="M155 364T128 392T100 458Q100 496 127 523T193 551Q231 551 258 524T286 458Q286 420 259 392T193 364Q155 364 128 392ZM138 291H256L292 -190L101 -210L138 291Z" />
<glyph unicode="&#xa2;" glyph-name="cent" horiz-adv-x="531" d="M135 -199L184 5Q112 32 74 93T36 245Q36 329 69 393T162 493T301 529H310L358 730L445 720L396 517Q428 508 441 501L414 382Q399 390 367 399L298 108Q306 107 323 107Q370 107 424 125L445
11Q380 -15 305 -15Q292 -15 268 -13L221 -209L135 -199ZM279 403Q231 392 203 352T175 253Q175 181 217 142L279 403Z" />
<glyph unicode="&#xa3;" glyph-name="sterling" horiz-adv-x="596" d="M118 316H30V431H118V545Q118 640 174 692T319 744Q363 744 411 731T508 693L465 579Q392 618 338 618Q300 618 280 596T259 527V431H432V316H259V121H516V0H118V316Z" />
<glyph unicode="&#xa4;" glyph-name="currency" horiz-adv-x="705" d="M243 -17T165 40L121 -4L56 46L108 98Q55 173 55 277Q55 387 115 464L63 516L113 581L174 520Q247 571 349 571Q454 571 528 517L585 573L650 523L587 460Q643 384 643 277Q643 175 592 101L638
55L589 -10L536 43Q459 -17 349 -17Q243 -17 165 40ZM409 63T456 90T529 166T555 277Q555 339 529 388T456 464T349 491Q289 491 242 464T169 388T143 277Q143 215 169 166T242 90T349 63Q409 63 456 90Z" />
<glyph unicode="&#xa5;" glyph-name="yen" horiz-adv-x="612" d="M233 153H105L115 218H233V273H105L115 338H198L10 666H173L308 403L442 666H602L413 338H515L505 273H378V218H515L505 153H378V0H233V153Z" />
<glyph unicode="&#xa6;" glyph-name="brokenbar" horiz-adv-x="490" d="M200 725L290 735V403L200 393V725ZM200 109L290 119V-213L200 -223V109Z" />
<glyph unicode="&#xa7;" glyph-name="section" horiz-adv-x="583" d="M188 -232T99 -199L117 -71Q147 -90 184 -101T253 -113Q287 -113 307 -100T327 -63Q327 -35 304 -10T231 54Q180 94 147 127T89 205T65 306Q65 352 84 389T145 460Q123 491 113 518T103 576Q103
657 164 702T321 748Q399 748 485 716L467 588Q437 607 400 618T331 629Q297 629 277 616T257 579Q257 552 279 528T352 463Q403 423 436 390T494 312T518 211Q518 164 499 127T438 55Q460 25 470 -2T481 -61Q481 -140 421 -186T264 -232Q188 -232 99 -199ZM372
160T372 192Q372 231 349 261T273 338Q245 362 230 377Q210 354 210 319Q210 281 233 252T309 175Q307 177 352 135Q372 160 372 192Z" />
<glyph unicode="&#xa8;" glyph-name="dieresis" horiz-adv-x="600" d="M47 586T24 609T1 665Q1 698 25 721T82 744Q114 744 137 721T160 665Q160 633 136 610T79 586Q47 586 24 609ZM278 586T255 609T232 665Q232 697 256 720T313 744Q345 744 368 721T391 665Q391
632 368 609T310 586Q278 586 255 609Z" />
<glyph unicode="&#xa9;" glyph-name="copyright" horiz-adv-x="804" d="M298 -26T217 19T90 145T45 331Q45 435 90 516T216 643T402 688Q506 688 587 643T714 517T759 331Q759 227 714 146T588 19T402 -26Q298 -26 217 19ZM483 44T545 80T643 182T678 331Q678
415 643 480T546 581T402 618Q321 618 259 582T161 480T126 331Q126 247 161 182T258 81T402 44Q483 44 545 80ZM322 136T271 185T219 324Q219 417 272 473T415 529Q464 529 507 512L491 439Q452 456 416 456Q364 456 334 422T303 331Q303 273 335 241T425 208Q458
208 496 219L508 151Q466 136 415 136Q322 136 271 185Z" />
<glyph unicode="&#xaa;" glyph-name="ordfeminine" horiz-adv-x="451" d="M129 381T101 421T72 532Q72 617 114 662T236 708Q280 708 347 694V390H266L268 425H266Q251 404 228 393T179 381Q129 381 101 421ZM218 455T235 469T265 510V629Q243 634 227 634Q191
634 173 610T154 538Q154 499 166 477T201 455Q218 455 235 469ZM65 321H386V272H65V321Z" />
<glyph unicode="&#xab;" glyph-name="guillemotleft" horiz-adv-x="729" d="M80 277L294 538L387 469L261 277L394 81L302 17L80 277ZM350 277L564 538L657 469L531 277L664 81L572 17L350 277Z" />
<glyph unicode="&#xac;" glyph-name="logicalnot" horiz-adv-x="680" d="M485 319H70L80 394H560V164L485 154V319Z" />
<glyph unicode="&#xae;" glyph-name="registered" horiz-adv-x="804" d="M298 -26T217 19T90 145T45 331Q45 435 90 516T216 643T402 688Q506 688 587 643T714 517T759 331Q759 227 714 146T588 19T402 -26Q298 -26 217 19ZM483 44T545 80T643 182T678 331Q678
415 643 480T546 581T402 618Q321 618 259 582T161 480T126 331Q126 247 161 182T258 81T402 44Q483 44 545 80ZM282 525Q299 526 345 526Q393 526 410 525Q474 523 506 494T539 414Q539 374 519 344T459 305Q474 295 483 281T518 225L554 163L564 145H469L405
265Q395 284 387 288T361 293V145H282V525ZM397 357Q426 357 442 371T459 411Q459 458 401 458H361V357H397Z" />
<glyph unicode="&#xaf;" glyph-name="overscore" horiz-adv-x="600" d="M14 687H348L349 598H15L14 687Z" />
<glyph unicode="&#xb0;" glyph-name="degree" horiz-adv-x="410" d="M150 496T115 531T80 621Q80 677 115 711T205 746Q261 746 295 712T330 621Q330 566 296 531T205 496Q150 496 115 531ZM231 559T248 576T265 621Q265 649 248 666T205 684Q179 684 162 667T145
621Q145 593 162 576T205 559Q231 559 248 576Z" />
<glyph unicode="&#xb1;" glyph-name="plusminus" horiz-adv-x="630" d="M279 303H80L90 378H279V526L354 536V378H550L540 303H354V156L279 146V303ZM90 75H550L540 0H80L90 75Z" />
<glyph unicode="&#xb2;" glyph-name="uni00B2" horiz-adv-x="403" d="M91 414Q180 509 211 549T243 619Q243 638 232 648T201 659Q168 659 136 618L80 661Q130 734 210 734Q259 734 291 707T323 631Q323 587 293 542T194 428H323L316 356H91V414Z" />
<glyph unicode="&#xb3;" glyph-name="uni00B3" horiz-adv-x="387" d="M97 347T64 352L74 421Q107 416 130 416Q175 416 201 434T227 484Q227 504 216 515T185 526Q172 526 155 520L144 573Q171 582 192 601T214 640Q214 652 205 659T180 667Q165 667 148 659T117
634L70 685Q94 708 124 721T187 734Q233 734 261 710T290 650Q290 609 254 576Q280 563 293 541T307 488Q307 448 284 416T219 366T122 347Q97 347 64 352Z" />
<glyph unicode="&#xb4;" glyph-name="acute" horiz-adv-x="600" d="M67 619Q106 650 128 685L102 738Q102 765 122 786T172 807Q203 807 224 786T245 731Q245 680 198 639T85 580L67 619Z" />
<glyph unicode="&#xb5;" glyph-name="uni00B5" horiz-adv-x="609" d="M80 -218V515H221V196Q221 155 241 133T295 110Q329 110 360 132T413 191V515H554V0H413V68Q384 29 347 8T256 -14Q237 -14 221 -11V-219L80 -218Z" />
<glyph unicode="&#xb6;" glyph-name="paragraph" horiz-adv-x="628" d="M209 374Q164 378 127 403T67 467T45 551Q45 599 69 640T134 706T225 730H568V625H510V-124H402V625H316V-124H209V374Z" />
<glyph unicode="&#xb7;" glyph-name="middot" horiz-adv-x="306" d="M112 186T84 214T55 283Q55 323 83 351T152 379Q192 379 220 351T249 283Q249 243 221 215T152 186Q112 186 84 214Z" />
<glyph unicode="&#xb8;" glyph-name="cedilla" horiz-adv-x="600" d="M85 -243T50 -231T-8 -198L22 -155Q43 -170 66 -178T108 -187Q144 -187 144 -156Q144 -124 69 -126L48 -112L94 22L166 17L134 -56Q182 -64 211 -88T240 -151Q240 -191 205 -217T121 -243Q85
-243 50 -231Z" />
<glyph unicode="&#xb9;" glyph-name="uni00B9" horiz-adv-x="382" d="M96 424H155V626L100 653V680L189 730H230V424H292L287 356H91L96 424Z" />
<glyph unicode="&#xba;" glyph-name="ordmasculine" horiz-adv-x="451" d="M154 381T111 426T67 545Q67 618 110 663T224 708Q295 708 338 664T381 546Q381 472 338 427T225 381Q154 381 111 426ZM256 454T276 479T296 545Q296 585 276 610T224 635Q192 635 172
610T152 545Q152 504 172 479T224 454Q256 454 276 479ZM65 321H386V272H65V321Z" />
<glyph unicode="&#xbb;" glyph-name="guillemotright" horiz-adv-x="729" d="M65 81L198 277L72 469L165 538L379 277L157 17L65 81ZM335 81L468 277L342 469L435 538L649 277L427 17L335 81Z" />
<glyph unicode="&#xbc;" glyph-name="onequarter" horiz-adv-x="890" d="M191 -1L642 671L710 663L258 -10L191 -1ZM97 362H156V564L101 591V618L190 668H231V362H293L288 294H92L97 362ZM683 86H522L516 143L683 373H756V148H800L793 86H756V0H683V86ZM683 148V276L597
148H683Z" />
<glyph unicode="&#xbd;" glyph-name="onehalf" horiz-adv-x="914" d="M190 -1L641 671L709 663L257 -10L190 -1ZM96 362H155V564L100 591V618L189 668H230V362H292L287 294H91L96 362ZM592 58Q681 153 712 193T744 263Q744 282 733 292T702 303Q669 303 637 262L581
305Q631 378 711 378Q760 378 792 351T824 275Q824 231 794 186T695 72H824L817 0H592V58Z" />
<glyph unicode="&#xbe;" glyph-name="threequarters" horiz-adv-x="908" d="M124 287T91 292L101 361Q134 356 157 356Q202 356 228 374T254 424Q254 444 243 455T212 466Q199 466 182 460L171 513Q198 522 219 541T241 580Q241 592 232 599T207 607Q192 607 175
599T144 574L97 625Q121 648 151 661T214 674Q260 674 288 650T317 590Q317 549 281 516Q307 503 320 481T334 428Q334 388 311 356T246 306T149 287Q124 287 91 292ZM209 -1L660 671L728 663L276 -10L209 -1ZM701 86H540L534 143L701 373H774V148H818L811 86H774V0H701V86ZM701
148V276L615 148H701Z" />
<glyph unicode="&#xbf;" glyph-name="questiondown" horiz-adv-x="517" d="M256 357T229 385T201 452Q201 490 228 518T295 546Q333 546 361 518T389 451Q389 413 362 385T295 357Q256 357 229 385ZM168 -214T114 -169T60 -48Q60 5 85 44T159 134L184 159Q220
196 230 210T242 243L244 281L345 290Q353 242 353 217Q353 178 342 155T306 104Q296 94 260 60Q225 28 210 8T195 -38Q195 -65 212 -81T260 -98Q292 -98 318 -78T353 -14Q421 -28 487 -50Q468 -121 406 -167T255 -214Q168 -214 114 -169Z" />
<glyph unicode="&#xc0;" glyph-name="Agrave" horiz-adv-x="679" d="M251 666H425L672 0H522L468 152H206L155 0H7L251 666ZM425 276L335 531L248 276H425ZM312 731T291 752T270 807Q270 858 317 899T430 958L448 919Q409 888 387 853L413 800Q413 773 393 752T343
731Q312 731 291 752Z" />
<glyph unicode="&#xc1;" glyph-name="Aacute" horiz-adv-x="679" d="M251 666H425L672 0H522L468 152H206L155 0H7L251 666ZM425 276L335 531L248 276H425ZM309 770Q348 801 370 836L344 889Q344 916 364 937T414 958Q445 958 466 937T487 882Q487 831 440 790T327
731L309 770Z" />
<glyph unicode="&#xc2;" glyph-name="Acircumflex" horiz-adv-x="679" d="M251 666H425L672 0H522L468 152H206L155 0H7L251 666ZM425 276L335 531L248 276H425ZM172 800L340 932L508 800L464 731L340 798L216 731L172 800Z" />
<glyph unicode="&#xc3;" glyph-name="Atilde" horiz-adv-x="679" d="M251 666H425L672 0H522L468 152H206L155 0H7L251 666ZM425 276L335 531L248 276H425ZM390 732T368 741T316 769Q294 782 281 788T254 795Q238 795 224 781T198 734L144 775Q160 837 192 867T268
898Q294 898 316 889T368 861Q390 848 403 842T430 835Q446 835 460 849T486 896L540 855Q524 793 492 763T416 732Q390 732 368 741Z" />
<glyph unicode="&#xc4;" glyph-name="Adieresis" horiz-adv-x="679" d="M251 666H425L672 0H522L468 152H206L155 0H7L251 666ZM425 276L335 531L248 276H425ZM191 737T168 760T145 816Q145 849 169 872T226 895Q258 895 281 872T304 816Q304 784 280 761T223
737Q191 737 168 760ZM422 737T399 760T376 816Q376 848 400 871T457 895Q489 895 512 872T535 816Q535 783 512 760T454 737Q422 737 399 760Z" />
<glyph unicode="&#xc5;" glyph-name="Aring" horiz-adv-x="679" d="M251 666H425L672 0H522L468 152H206L155 0H7L251 666ZM425 276L335 531L248 276H425ZM286 725T249 761T211 850Q211 903 248 939T340 975Q394 975 431 939T469 850Q469 797 432 761T340 725Q286
725 249 761ZM362 796T376 812T390 850Q390 872 376 888T340 904Q318 904 304 888T290 850Q290 828 304 812T340 796Q362 796 376 812Z" />
<glyph unicode="&#xc6;" glyph-name="AE" horiz-adv-x="893" d="M328 666H838V540H576V407H793V285H576V126H838V0H433V152H222L148 0H0L328 666ZM433 276V548H415L283 276H433Z" />
<glyph unicode="&#xc7;" glyph-name="Ccedilla" horiz-adv-x="594" d="M404 -64T433 -88T462 -151Q462 -191 427 -217T343 -243Q307 -243 272 -231T214 -198L244 -155Q265 -170 288 -178T330 -187Q366 -187 366 -156Q366 -124 291 -126L270 -112L306 -8Q180 12
111 95T41 316Q41 423 83 505T204 631T384 676Q467 676 544 646L517 517Q449 548 385 548Q294 548 241 489T188 330Q188 229 244 173T399 117Q464 117 525 138L547 15Q474 -13 381 -13H375L356 -56Q404 -64 433 -88Z" />
<glyph unicode="&#xc8;" glyph-name="Egrave" horiz-adv-x="530" d="M70 666H475V540H213V407H430V285H213V126H475V0H70V666ZM247 731T226 752T205 807Q205 858 252 899T365 958L383 919Q344 888 322 853L348 800Q348 773 328 752T278 731Q247 731 226 752Z" />
<glyph unicode="&#xc9;" glyph-name="Eacute" horiz-adv-x="530" d="M70 666H475V540H213V407H430V285H213V126H475V0H70V666ZM244 770Q283 801 305 836L279 889Q279 916 299 937T349 958Q380 958 401 937T422 882Q422 831 375 790T262 731L244 770Z" />
<glyph unicode="&#xca;" glyph-name="Ecircumflex" horiz-adv-x="530" d="M70 666H475V540H213V407H430V285H213V126H475V0H70V666ZM107 800L275 932L443 800L399 731L275 798L151 731L107 800Z" />
<glyph unicode="&#xcb;" glyph-name="Edieresis" horiz-adv-x="530" d="M70 666H475V540H213V407H430V285H213V126H475V0H70V666ZM126 737T103 760T80 816Q80 849 104 872T161 895Q193 895 216 872T239 816Q239 784 215 761T158 737Q126 737 103 760ZM357 737T334
760T311 816Q311 848 335 871T392 895Q424 895 447 872T470 816Q470 783 447 760T389 737Q357 737 334 760Z" />
<glyph unicode="&#xcc;" glyph-name="Igrave" horiz-adv-x="301" d="M78 666H223V0H78V666ZM123 731T102 752T81 807Q81 858 128 899T241 958L259 919Q220 888 198 853L224 800Q224 773 204 752T154 731Q123 731 102 752Z" />
<glyph unicode="&#xcd;" glyph-name="Iacute" horiz-adv-x="301" d="M78 666H223V0H78V666ZM120 770Q159 801 181 836L155 889Q155 916 175 937T225 958Q256 958 277 937T298 882Q298 831 251 790T138 731L120 770Z" />
<glyph unicode="&#xce;" glyph-name="Icircumflex" horiz-adv-x="301" d="M78 666H223V0H78V666ZM-17 800L151 932L319 800L275 731L151 798L27 731L-17 800Z" />
<glyph unicode="&#xcf;" glyph-name="Idieresis" horiz-adv-x="301" d="M78 666H223V0H78V666ZM2 737T-21 760T-44 816Q-44 849 -20 872T37 895Q69 895 92 872T115 816Q115 784 91 761T34 737Q2 737 -21 760ZM233 737T210 760T187 816Q187 848 211 871T268 895Q300
895 323 872T346 816Q346 783 323 760T265 737Q233 737 210 760Z" />
<glyph unicode="&#xd0;" glyph-name="Eth" horiz-adv-x="685" d="M421 665T493 627T605 517T645 351Q645 247 600 168T472 45T280 0Q245 -1 175 -1Q104 -1 69 0V282H-23L-13 367H69V666Q112 667 196 667Q281 667 323 666Q421 665 493 627ZM380 126T438 185T496
347Q496 440 447 490T304 540H214V367H345L335 282H214V126H279Q380 126 438 185Z" />
<glyph unicode="&#xd1;" glyph-name="Ntilde" horiz-adv-x="719" d="M70 666H240L516 199V666H649V0H481L203 470V0H70V666ZM410 732T388 741T336 769Q314 782 301 788T274 795Q258 795 244 781T218 734L164 775Q180 837 212 867T288 898Q314 898 336 889T388
861Q410 848 423 842T450 835Q466 835 480 849T506 896L560 855Q544 793 512 763T436 732Q410 732 388 741Z" />
<glyph unicode="&#xd2;" glyph-name="Ograve" horiz-adv-x="741" d="M273 -13T198 30T82 151T40 330Q40 432 81 510T197 631T371 674Q469 674 544 632T660 512T701 334Q701 231 660 153T544 31T371 -13Q273 -13 198 30ZM453 114T502 173T552 330Q552 394 530 443T466
519T371 546Q318 546 277 520T213 444T190 330Q190 266 212 217T276 141T371 114Q453 114 502 173ZM343 731T322 752T301 807Q301 858 348 899T461 958L479 919Q440 888 418 853L444 800Q444 773 424 752T374 731Q343 731 322 752Z" />
<glyph unicode="&#xd3;" glyph-name="Oacute" horiz-adv-x="741" d="M273 -13T198 30T82 151T40 330Q40 432 81 510T197 631T371 674Q469 674 544 632T660 512T701 334Q701 231 660 153T544 31T371 -13Q273 -13 198 30ZM453 114T502 173T552 330Q552 394 530 443T466
519T371 546Q318 546 277 520T213 444T190 330Q190 266 212 217T276 141T371 114Q453 114 502 173ZM340 770Q379 801 401 836L375 889Q375 916 395 937T445 958Q476 958 497 937T518 882Q518 831 471 790T358 731L340 770Z" />
<glyph unicode="&#xd4;" glyph-name="Ocircumflex" horiz-adv-x="741" d="M273 -13T198 30T82 151T40 330Q40 432 81 510T197 631T371 674Q469 674 544 632T660 512T701 334Q701 231 660 153T544 31T371 -13Q273 -13 198 30ZM453 114T502 173T552 330Q552 394
530 443T466 519T371 546Q318 546 277 520T213 444T190 330Q190 266 212 217T276 141T371 114Q453 114 502 173ZM203 800L371 932L539 800L495 731L371 798L247 731L203 800Z" />
<glyph unicode="&#xd5;" glyph-name="Otilde" horiz-adv-x="741" d="M273 -13T198 30T82 151T40 330Q40 432 81 510T197 631T371 674Q469 674 544 632T660 512T701 334Q701 231 660 153T544 31T371 -13Q273 -13 198 30ZM453 114T502 173T552 330Q552 394 530 443T466
519T371 546Q318 546 277 520T213 444T190 330Q190 266 212 217T276 141T371 114Q453 114 502 173ZM421 732T399 741T347 769Q325 782 312 788T285 795Q269 795 255 781T229 734L175 775Q191 837 223 867T299 898Q325 898 347 889T399 861Q421 848 434 842T461
835Q477 835 491 849T517 896L571 855Q555 793 523 763T447 732Q421 732 399 741Z" />
<glyph unicode="&#xd6;" glyph-name="Odieresis" horiz-adv-x="741" d="M273 -13T198 30T82 151T40 330Q40 432 81 510T197 631T371 674Q469 674 544 632T660 512T701 334Q701 231 660 153T544 31T371 -13Q273 -13 198 30ZM453 114T502 173T552 330Q552 394 530
443T466 519T371 546Q318 546 277 520T213 444T190 330Q190 266 212 217T276 141T371 114Q453 114 502 173ZM222 737T199 760T176 816Q176 849 200 872T257 895Q289 895 312 872T335 816Q335 784 311 761T254 737Q222 737 199 760ZM453 737T430 760T407 816Q407
848 431 871T488 895Q520 895 543 872T566 816Q566 783 543 760T485 737Q453 737 430 760Z" />
<glyph unicode="&#xd7;" glyph-name="multiply" horiz-adv-x="510" d="M255 197L115 57L55 103L202 250L61 390L107 450L255 303L395 443L455 397L308 250L446 111L400 51L255 197Z" />
<glyph unicode="&#xd8;" glyph-name="Oslash" horiz-adv-x="741" d="M651 527Q701 444 701 334Q701 231 660 153T544 31T371 -13Q310 -13 257 4T162 54L70 -36L41 89L90 136Q40 220 40 330Q40 432 81 510T197 631T371 674Q493 674 578 609L672 700L701 575L651
527ZM190 283T202 245L477 511Q433 546 369 546Q316 546 276 519T213 443T190 330Q190 283 202 245ZM552 376T539 418L263 151Q308 114 371 114Q453 114 502 173T552 330Q552 376 539 418Z" />
<glyph unicode="&#xd9;" glyph-name="Ugrave" horiz-adv-x="696" d="M265 -13T202 22T105 120T70 267V666H216V278Q216 204 251 161T348 117Q409 117 445 160T481 278V666H626V267Q626 184 592 121T494 22T348 -13Q265 -13 202 22ZM320 731T299 752T278 807Q278
858 325 899T438 958L456 919Q417 888 395 853L421 800Q421 773 401 752T351 731Q320 731 299 752Z" />
<glyph unicode="&#xda;" glyph-name="Uacute" horiz-adv-x="696" d="M265 -13T202 22T105 120T70 267V666H216V278Q216 204 251 161T348 117Q409 117 445 160T481 278V666H626V267Q626 184 592 121T494 22T348 -13Q265 -13 202 22ZM317 770Q356 801 378 836L352
889Q352 916 372 937T422 958Q453 958 474 937T495 882Q495 831 448 790T335 731L317 770Z" />
<glyph unicode="&#xdb;" glyph-name="Ucircumflex" horiz-adv-x="696" d="M265 -13T202 22T105 120T70 267V666H216V278Q216 204 251 161T348 117Q409 117 445 160T481 278V666H626V267Q626 184 592 121T494 22T348 -13Q265 -13 202 22ZM180 800L348 932L516 800L472
731L348 798L224 731L180 800Z" />
<glyph unicode="&#xdc;" glyph-name="Udieresis" horiz-adv-x="696" d="M265 -13T202 22T105 120T70 267V666H216V278Q216 204 251 161T348 117Q409 117 445 160T481 278V666H626V267Q626 184 592 121T494 22T348 -13Q265 -13 202 22ZM199 737T176 760T153 816Q153
849 177 872T234 895Q266 895 289 872T312 816Q312 784 288 761T231 737Q199 737 176 760ZM430 737T407 760T384 816Q384 848 408 871T465 895Q497 895 520 872T543 816Q543 783 520 760T462 737Q430 737 407 760Z" />
<glyph unicode="&#xdd;" glyph-name="Yacute" horiz-adv-x="607" d="M228 277L5 666H168L303 403L437 666H597L373 277V0H228V277ZM270 770Q309 801 331 836L305 889Q305 916 325 937T375 958Q406 958 427 937T448 882Q448 831 401 790T288 731L270 770Z" />
<glyph unicode="&#xde;" glyph-name="Thorn" horiz-adv-x="557" d="M70 666H209V542H286Q392 542 452 489T512 341Q512 239 446 179T268 114L209 112V0H70V666ZM253 232Q308 232 340 260T372 336Q372 379 345 402T267 425H209V232H253Z" />
<glyph unicode="&#xdf;" glyph-name="germandbls" horiz-adv-x="580" d="M65 500Q65 613 128 679T299 746Q387 746 443 702T500 581Q500 532 480 499T425 431Q408 414 401 404T393 385Q393 374 404 363T441 333Q476 306 498 285T538 230T555 152Q555 77 507 32T381
-13Q326 -13 256 14L305 123Q337 106 366 106Q388 106 400 117T413 147Q413 168 400 183T357 222Q317 254 296 282T274 353Q274 385 286 413T321 480Q340 513 349 532T358 570Q358 595 342 611T295 627Q254 627 230 599T206 522V-218H65V500Z" />
<glyph unicode="&#xe0;" glyph-name="agrave" horiz-adv-x="557" d="M134 -15T87 53T40 238Q40 380 112 454T319 529Q395 529 497 505V0H363L366 82H362Q336 35 299 10T214 -15Q134 -15 87 53ZM275 108T305 141T361 229V397Q329 406 297 406Q237 406 207 365T176
244Q176 181 194 145T244 108Q275 108 305 141ZM277 580T256 601T235 656Q235 707 282 748T395 807L413 768Q374 737 352 702L378 649Q378 622 358 601T308 580Q277 580 256 601Z" />
<glyph unicode="&#xe1;" glyph-name="aacute" horiz-adv-x="557" d="M134 -15T87 53T40 238Q40 380 112 454T319 529Q395 529 497 505V0H363L366 82H362Q336 35 299 10T214 -15Q134 -15 87 53ZM275 108T305 141T361 229V397Q329 406 297 406Q237 406 207 365T176
244Q176 181 194 145T244 108Q275 108 305 141ZM274 619Q313 650 335 685L309 738Q309 765 329 786T379 807Q410 807 431 786T452 731Q452 680 405 639T292 580L274 619Z" />
<glyph unicode="&#xe2;" glyph-name="acircumflex" horiz-adv-x="557" d="M134 -15T87 53T40 238Q40 380 112 454T319 529Q395 529 497 505V0H363L366 82H362Q336 35 299 10T214 -15Q134 -15 87 53ZM275 108T305 141T361 229V397Q329 406 297 406Q237 406 207
365T176 244Q176 181 194 145T244 108Q275 108 305 141ZM137 649L305 781L473 649L429 580L305 647L181 580L137 649Z" />
<glyph unicode="&#xe3;" glyph-name="atilde" horiz-adv-x="557" d="M134 -15T87 53T40 238Q40 380 112 454T319 529Q395 529 497 505V0H363L366 82H362Q336 35 299 10T214 -15Q134 -15 87 53ZM275 108T305 141T361 229V397Q329 406 297 406Q237 406 207 365T176
244Q176 181 194 145T244 108Q275 108 305 141ZM355 581T333 590T281 618Q259 631 246 637T219 644Q203 644 189 630T163 583L109 624Q125 686 157 716T233 747Q259 747 281 738T333 710Q355 697 368 691T395 684Q411 684 425 698T451 745L505 704Q489 642 457
612T381 581Q355 581 333 590Z" />
<glyph unicode="&#xe4;" glyph-name="adieresis" horiz-adv-x="557" d="M134 -15T87 53T40 238Q40 380 112 454T319 529Q395 529 497 505V0H363L366 82H362Q336 35 299 10T214 -15Q134 -15 87 53ZM275 108T305 141T361 229V397Q329 406 297 406Q237 406 207 365T176
244Q176 181 194 145T244 108Q275 108 305 141ZM156 586T133 609T110 665Q110 698 134 721T191 744Q223 744 246 721T269 665Q269 633 245 610T188 586Q156 586 133 609ZM387 586T364 609T341 665Q341 697 365 720T422 744Q454 744 477 721T500 665Q500 632 477
609T419 586Q387 586 364 609Z" />
<glyph unicode="&#xe5;" glyph-name="aring" horiz-adv-x="557" d="M134 -15T87 53T40 238Q40 380 112 454T319 529Q395 529 497 505V0H363L366 82H362Q336 35 299 10T214 -15Q134 -15 87 53ZM275 108T305 141T361 229V397Q329 406 297 406Q237 406 207 365T176
244Q176 181 194 145T244 108Q275 108 305 141ZM251 574T214 610T176 699Q176 752 213 788T305 824Q359 824 396 788T434 699Q434 646 397 610T305 574Q251 574 214 610ZM327 645T341 661T355 699Q355 721 341 737T305 753Q283 753 269 737T255 699Q255 677 269
661T305 645Q327 645 341 661Z" />
<glyph unicode="&#xe6;" glyph-name="ae" horiz-adv-x="857" d="M134 -15T87 52T40 236Q40 378 110 453T313 529Q381 529 479 509Q527 529 585 529Q697 529 757 457T817 249Q817 226 816 215H476Q486 162 522 135T619 107Q656 107 696 116T766 142L789 29Q749
8 701 -3T602 -15Q528 -15 472 11T381 87H377Q356 39 313 12T217 -15Q134 -15 87 52ZM682 321Q679 364 652 389T580 415Q537 415 510 390T475 321H682ZM278 108T301 124T344 170Q334 207 334 257Q334 335 362 397Q332 406 297 406Q237 406 207 365T176 246Q176
181 196 145T254 108Q278 108 301 124Z" />
<glyph unicode="&#xe7;" glyph-name="ccedilla" horiz-adv-x="480" d="M361 -64T390 -88T419 -151Q419 -191 384 -217T300 -243Q264 -243 229 -231T171 -198L201 -155Q222 -170 245 -178T287 -187Q323 -187 323 -156Q323 -124 248 -126L227 -112L261 -13Q153 -2
95 65T36 245Q36 329 69 393T162 493T301 529Q338 529 378 521T441 501L414 382Q391 393 364 399T312 406Q250 406 213 364T175 253Q175 183 213 145T323 107Q370 107 424 125L445 11Q391 -11 331 -14L313 -56Q361 -64 390 -88Z" />
<glyph unicode="&#xe8;" glyph-name="egrave" horiz-adv-x="563" d="M183 -15T112 57T40 257Q40 340 71 401T158 496T291 529Q403 529 463 457T523 249Q523 226 522 215H182Q192 162 228 135T325 107Q362 107 402 116T472 142L495 29Q455 8 407 -3T308 -15Q183
-15 112 57ZM388 321Q385 364 358 389T286 415Q243 415 216 390T181 321H388ZM263 580T242 601T221 656Q221 707 268 748T381 807L399 768Q360 737 338 702L364 649Q364 622 344 601T294 580Q263 580 242 601Z" />
<glyph unicode="&#xe9;" glyph-name="eacute" horiz-adv-x="563" d="M183 -15T112 57T40 257Q40 340 71 401T158 496T291 529Q403 529 463 457T523 249Q523 226 522 215H182Q192 162 228 135T325 107Q362 107 402 116T472 142L495 29Q455 8 407 -3T308 -15Q183
-15 112 57ZM388 321Q385 364 358 389T286 415Q243 415 216 390T181 321H388ZM260 619Q299 650 321 685L295 738Q295 765 315 786T365 807Q396 807 417 786T438 731Q438 680 391 639T278 580L260 619Z" />
<glyph unicode="&#xea;" glyph-name="ecircumflex" horiz-adv-x="563" d="M183 -15T112 57T40 257Q40 340 71 401T158 496T291 529Q403 529 463 457T523 249Q523 226 522 215H182Q192 162 228 135T325 107Q362 107 402 116T472 142L495 29Q455 8 407 -3T308 -15Q183
-15 112 57ZM388 321Q385 364 358 389T286 415Q243 415 216 390T181 321H388ZM123 649L291 781L459 649L415 580L291 647L167 580L123 649Z" />
<glyph unicode="&#xeb;" glyph-name="edieresis" horiz-adv-x="563" d="M183 -15T112 57T40 257Q40 340 71 401T158 496T291 529Q403 529 463 457T523 249Q523 226 522 215H182Q192 162 228 135T325 107Q362 107 402 116T472 142L495 29Q455 8 407 -3T308 -15Q183
-15 112 57ZM388 321Q385 364 358 389T286 415Q243 415 216 390T181 321H388ZM142 586T119 609T96 665Q96 698 120 721T177 744Q209 744 232 721T255 665Q255 633 231 610T174 586Q142 586 119 609ZM373 586T350 609T327 665Q327 697 351 720T408 744Q440 744 463
721T486 665Q486 632 463 609T405 586Q373 586 350 609Z" />
<glyph unicode="&#xec;" glyph-name="igrave" horiz-adv-x="398" d="M47 121H143V394H47V515H284V121H370V0H47V121ZM171 580T150 601T129 656Q129 707 176 748T289 807L307 768Q268 737 246 702L272 649Q272 622 252 601T202 580Q171 580 150 601Z" />
<glyph unicode="&#xed;" glyph-name="iacute" horiz-adv-x="398" d="M47 121H143V394H47V515H284V121H370V0H47V121ZM168 619Q207 650 229 685L203 738Q203 765 223 786T273 807Q304 807 325 786T346 731Q346 680 299 639T186 580L168 619Z" />
<glyph unicode="&#xee;" glyph-name="icircumflex" horiz-adv-x="398" d="M47 121H143V394H47V515H284V121H370V0H47V121ZM31 649L199 781L367 649L323 580L199 647L75 580L31 649Z" />
<glyph unicode="&#xef;" glyph-name="idieresis" horiz-adv-x="398" d="M47 121H143V394H47V515H284V121H370V0H47V121ZM50 586T27 609T4 665Q4 698 28 721T85 744Q117 744 140 721T163 665Q163 633 139 610T82 586Q50 586 27 609ZM281 586T258 609T235 665Q235
697 259 720T316 744Q348 744 371 721T394 665Q394 632 371 609T313 586Q281 586 258 609Z" />
<glyph unicode="&#xf0;" glyph-name="eth" horiz-adv-x="586" d="M541 488T541 298Q541 157 478 71T294 -15Q220 -15 164 19T76 114T45 257Q45 338 76 399T162 495T291 529Q339 529 377 512Q344 554 301 594L183 553L170 625L239 649L161 712L308 751Q337 727
371 695L488 735L501 663L423 636Q541 488 541 298ZM342 106T372 147T402 258Q402 326 372 367T292 408Q242 408 212 367T182 258Q182 189 212 148T292 106Q342 106 372 147Z" />
<glyph unicode="&#xf1;" glyph-name="ntilde" horiz-adv-x="612" d="M65 515H203V426Q235 479 277 504T375 529Q458 529 505 480T552 342V0H411V320Q411 360 391 382T337 405Q297 405 261 375T206 299V0H65V515ZM356 581T334 590T282 618Q260 631 247 637T220
644Q204 644 190 630T164 583L110 624Q126 686 158 716T234 747Q260 747 282 738T334 710Q356 697 369 691T396 684Q412 684 426 698T452 745L506 704Q490 642 458 612T382 581Q356 581 334 590Z" />
<glyph unicode="&#xf2;" glyph-name="ograve" horiz-adv-x="604" d="M225 -15T166 19T73 114T40 257Q40 338 72 399T164 495T302 529Q380 529 439 496T531 401T564 260Q564 179 532 117T440 20T303 -15Q225 -15 166 19ZM356 107T388 148T421 258Q421 326 389 366T302
407Q248 407 216 367T183 258Q183 190 215 149T302 107Q356 107 388 148ZM274 580T253 601T232 656Q232 707 279 748T392 807L410 768Q371 737 349 702L375 649Q375 622 355 601T305 580Q274 580 253 601Z" />
<glyph unicode="&#xf3;" glyph-name="oacute" horiz-adv-x="604" d="M225 -15T166 19T73 114T40 257Q40 338 72 399T164 495T302 529Q380 529 439 496T531 401T564 260Q564 179 532 117T440 20T303 -15Q225 -15 166 19ZM356 107T388 148T421 258Q421 326 389 366T302
407Q248 407 216 367T183 258Q183 190 215 149T302 107Q356 107 388 148ZM271 619Q310 650 332 685L306 738Q306 765 326 786T376 807Q407 807 428 786T449 731Q449 680 402 639T289 580L271 619Z" />
<glyph unicode="&#xf4;" glyph-name="ocircumflex" horiz-adv-x="604" d="M225 -15T166 19T73 114T40 257Q40 338 72 399T164 495T302 529Q380 529 439 496T531 401T564 260Q564 179 532 117T440 20T303 -15Q225 -15 166 19ZM356 107T388 148T421 258Q421 326
389 366T302 407Q248 407 216 367T183 258Q183 190 215 149T302 107Q356 107 388 148ZM134 649L302 781L470 649L426 580L302 647L178 580L134 649Z" />
<glyph unicode="&#xf5;" glyph-name="otilde" horiz-adv-x="604" d="M225 -15T166 19T73 114T40 257Q40 338 72 399T164 495T302 529Q380 529 439 496T531 401T564 260Q564 179 532 117T440 20T303 -15Q225 -15 166 19ZM356 107T388 148T421 258Q421 326 389 366T302
407Q248 407 216 367T183 258Q183 190 215 149T302 107Q356 107 388 148ZM352 581T330 590T278 618Q256 631 243 637T216 644Q200 644 186 630T160 583L106 624Q122 686 154 716T230 747Q256 747 278 738T330 710Q352 697 365 691T392 684Q408 684 422 698T448
745L502 704Q486 642 454 612T378 581Q352 581 330 590Z" />
<glyph unicode="&#xf6;" glyph-name="odieresis" horiz-adv-x="604" d="M225 -15T166 19T73 114T40 257Q40 338 72 399T164 495T302 529Q380 529 439 496T531 401T564 260Q564 179 532 117T440 20T303 -15Q225 -15 166 19ZM356 107T388 148T421 258Q421 326 389
366T302 407Q248 407 216 367T183 258Q183 190 215 149T302 107Q356 107 388 148ZM153 586T130 609T107 665Q107 698 131 721T188 744Q220 744 243 721T266 665Q266 633 242 610T185 586Q153 586 130 609ZM384 586T361 609T338 665Q338 697 362 720T419 744Q451
744 474 721T497 665Q497 632 474 609T416 586Q384 586 361 609Z" />
<glyph unicode="&#xf7;" glyph-name="divide" horiz-adv-x="580" d="M253 360T228 385T203 446Q203 481 228 506T288 531Q323 531 348 506T373 446Q373 411 348 386T288 360Q253 360 228 385ZM55 288H535L525 213H45L55 288ZM254 -34T229 -9T203 51Q203 86 228
111T288 137Q323 137 348 112T373 51Q373 16 348 -9T288 -34Q254 -34 229 -9Z" />
<glyph unicode="&#xf8;" glyph-name="oslash" horiz-adv-x="607" d="M566 348T566 260Q566 179 534 117T442 20T305 -15Q213 -15 146 32L74 -41L50 67L83 100Q42 165 42 257Q42 338 74 399T166 495T304 529Q397 529 461 483L534 557L558 449L525 416Q566 348 566
260ZM185 234T190 209L367 388Q340 407 304 407Q250 407 218 367T185 258Q185 234 190 209ZM358 107T390 148T423 258Q423 282 418 307L240 127Q268 107 304 107Q358 107 390 148Z" />
<glyph unicode="&#xf9;" glyph-name="ugrave" horiz-adv-x="599" d="M154 -14T107 36T60 173V515H201V196Q201 155 221 133T275 110Q309 110 340 132T393 191V515H534V0H393V68Q364 29 327 8T236 -14Q154 -14 107 36ZM272 580T251 601T230 656Q230 707 277 748T390
807L408 768Q369 737 347 702L373 649Q373 622 353 601T303 580Q272 580 251 601Z" />
<glyph unicode="&#xfa;" glyph-name="uacute" horiz-adv-x="599" d="M154 -14T107 36T60 173V515H201V196Q201 155 221 133T275 110Q309 110 340 132T393 191V515H534V0H393V68Q364 29 327 8T236 -14Q154 -14 107 36ZM269 619Q308 650 330 685L304 738Q304 765
324 786T374 807Q405 807 426 786T447 731Q447 680 400 639T287 580L269 619Z" />
<glyph unicode="&#xfb;" glyph-name="ucircumflex" horiz-adv-x="599" d="M154 -14T107 36T60 173V515H201V196Q201 155 221 133T275 110Q309 110 340 132T393 191V515H534V0H393V68Q364 29 327 8T236 -14Q154 -14 107 36ZM132 649L300 781L468 649L424 580L300
647L176 580L132 649Z" />
<glyph unicode="&#xfc;" glyph-name="udieresis" horiz-adv-x="599" d="M154 -14T107 36T60 173V515H201V196Q201 155 221 133T275 110Q309 110 340 132T393 191V515H534V0H393V68Q364 29 327 8T236 -14Q154 -14 107 36ZM151 586T128 609T105 665Q105 698 129
721T186 744Q218 744 241 721T264 665Q264 633 240 610T183 586Q151 586 128 609ZM382 586T359 609T336 665Q336 697 360 720T417 744Q449 744 472 721T495 665Q495 632 472 609T414 586Q382 586 359 609Z" />
<glyph unicode="&#xfd;" glyph-name="yacute" horiz-adv-x="542" d="M92 -224T42 -202L63 -86Q101 -105 127 -105Q158 -105 173 -85T207 -15L6 513L152 525L275 156L389 515H528Q464 321 394 133T284 -125Q256 -175 222 -199T138 -224Q92 -224 42 -202ZM240 619Q279
650 301 685L275 738Q275 765 295 786T345 807Q376 807 397 786T418 731Q418 680 371 639T258 580L240 619Z" />
<glyph unicode="&#xfe;" glyph-name="thorn" horiz-adv-x="578" d="M65 730H201V448H203Q229 488 266 509T352 530Q439 530 488 464T538 278Q538 137 465 62T255 -14Q238 -14 204 -12V-218H65V730ZM332 109T364 150T397 270Q397 334 377 370T320 407Q288 407 258
380T204 301V118Q238 109 269 109Q332 109 364 150Z" />
<glyph unicode="&#xff;" glyph-name="ydieresis" horiz-adv-x="542" d="M92 -224T42 -202L63 -86Q101 -105 127 -105Q158 -105 173 -85T207 -15L6 513L152 525L275 156L389 515H528Q464 321 394 133T284 -125Q256 -175 222 -199T138 -224Q92 -224 42 -202ZM122
586T99 609T76 665Q76 698 100 721T157 744Q189 744 212 721T235 665Q235 633 211 610T154 586Q122 586 99 609ZM353 586T330 609T307 665Q307 697 331 720T388 744Q420 744 443 721T466 665Q466 632 443 609T385 586Q353 586 330 609Z" />
<glyph unicode="&#x2013;" glyph-name="endash" horiz-adv-x="696" d="M53 358H653L643 243H43L53 358Z" />
<glyph unicode="&#x2014;" glyph-name="emdash" horiz-adv-x="962" d="M86 358H886L876 243H76L86 358Z" />
<glyph unicode="&#x2018;" glyph-name="quoteleft" horiz-adv-x="316" d="M115 319T85 349T55 427Q55 482 99 552T237 688L261 601Q216 544 200 502L258 415Q258 392 246 370T210 333T158 319Q115 319 85 349Z" />
<glyph unicode="&#x2019;" glyph-name="quoteright" horiz-adv-x="306" d="M45 406Q90 463 106 505L48 592Q48 615 60 637T96 674T148 688Q191 688 221 658T251 580Q251 525 207 455T69 319L45 406Z" />
<glyph unicode="&#x201a;" glyph-name="quotesinglbase" horiz-adv-x="306" d="M45 -75Q90 -18 106 24L48 111Q48 134 60 156T96 193T148 207Q191 207 221 177T251 99Q251 44 207 -26T69 -162L45 -75Z" />
<glyph unicode="&#x201c;" glyph-name="quotedblleft" horiz-adv-x="578" d="M115 319T85 349T55 427Q55 482 99 552T237 688L261 601Q216 544 200 502L258 415Q258 392 246 370T210 333T158 319Q115 319 85 349ZM377 319T347 349T317 427Q317 482 361 552T499
688L523 601Q478 544 462 502L520 415Q520 392 508 370T472 333T420 319Q377 319 347 349Z" />
<glyph unicode="&#x201d;" glyph-name="quotedblright" horiz-adv-x="578" d="M55 406Q100 463 116 505L58 592Q58 615 70 637T106 674T158 688Q201 688 231 658T261 580Q261 525 217 455T79 319L55 406ZM317 406Q362 463 378 505L320 592Q320 615 332 637T368
674T420 688Q463 688 493 658T523 580Q523 525 479 455T341 319L317 406Z" />
<glyph unicode="&#x201e;" glyph-name="quotedblbase" horiz-adv-x="568" d="M55 -75Q100 -18 116 24L58 111Q58 134 70 156T106 193T158 207Q201 207 231 177T261 99Q261 44 217 -26T79 -162L55 -75ZM317 -75Q362 -18 378 24L320 111Q320 134 332 156T368 193T420
207Q463 207 493 177T523 99Q523 44 479 -26T341 -162L317 -75Z" />
<glyph unicode="&#x2022;" glyph-name="bullet" horiz-adv-x="463" d="M195 145T164 163T115 212T97 279Q97 315 115 345T164 394T231 412Q266 412 297 394T346 345T364 279Q364 243 346 212T298 163T231 145Q195 145 164 163Z" />
<glyph unicode="&#x2039;" glyph-name="guilsinglleft" horiz-adv-x="459" d="M80 277L294 538L387 469L261 277L394 81L302 17L80 277Z" />
<glyph unicode="&#x203a;" glyph-name="guilsinglright" horiz-adv-x="459" d="M65 81L198 277L72 469L165 538L379 277L157 17L65 81Z" />
</font>
</defs>
</svg>
