<?xml version="1.0" standalone="no"?>
<!DOCTYPE svg PUBLIC "-//W3C//DTD SVG 1.1//EN" "http://www.w3.org/Graphics/SVG/1.1/DTD/svg11.dtd">
<svg xmlns="http://www.w3.org/2000/svg">
<defs >
<font id="Heebo" horiz-adv-x="1072" ><font-face
    font-family="Heebo Thin"
    units-per-em="2048"
    panose-1="0 0 0 0 0 0 0 0 0 0"
    ascent="2146"
    descent="-862"
    alphabetic="0" />
<glyph unicode=" " horiz-adv-x="490" />
<glyph unicode="!" horiz-adv-x="397" d="M221 401H167V1456H221V401ZM147 49Q147 72 163 88T202 105Q225 105 241 89T258 49Q258 26 242 10T202 -6Q179 -6 163 10T147 49Z" />
<glyph unicode="&quot;" horiz-adv-x="521" d="M210 1393L200 1122H150L155 1390V1536H210V1393ZM411 1393L401 1122H351L357 1390V1536H411V1393Z" />
<glyph unicode="#" horiz-adv-x="1121" d="M512 1456H568L304 0H248L512 1456ZM933 1456H989L723 0H667L933 1456ZM127 986V1040H1167V986H127ZM51 410V462H1092V410H51Z" />
<glyph unicode="$" horiz-adv-x="1121" d="M609 1437H554V1663H609V1437ZM620 -208H565V19H620V-208ZM947 344Q947 431 914 492T799 602T576 702Q450 745 359 793T218 915T168 1110Q168 1221 218 1303T361 1431T579 1477Q708 1477 801 1427T943 1282T993 1047H939Q939
1208 847 1316T579 1424Q457 1424 378 1379T260 1263T222 1112Q222 1030 250 969T358 857T593 754Q716 712 807 664T950 541T1001 346Q1001 233 949 151T804 24T586 -21Q501 -21 418 1T268 73T161 205T121 409H175Q175 301 212 228T309 112T442 51T586 32Q700 32
780 76T904 192T947 344Z" />
<glyph unicode="%" horiz-adv-x="1527" d="M114 1176Q114 1259 148 1327T243 1436T386 1477Q467 1477 528 1436T623 1327T657 1176V1099Q657 1018 624 950T530 841T388 800Q306 800 244 841T148 950T114 1099V1176ZM169 1099Q169 1039 192 983T265 891T388 855Q461
855 508 890T578 982T602 1099V1176Q602 1238 579 1294T507 1386T386 1422Q314 1422 266 1386T193 1294T169 1176V1099ZM870 357Q870 439 904 507T999 616T1141 657Q1223 657 1284 616T1379 507T1413 357V279Q1413 197 1380 129T1285 20T1143 -21Q1061 -21 1000
20T904 129T870 279V357ZM925 279Q925 218 948 162T1020 70T1143 34Q1216 34 1263 69T1334 161T1358 279V357Q1358 458 1305 530T1141 602Q1034 602 980 530T925 357V279ZM422 131L377 162L1088 1300L1133 1269L422 131Z" />
<glyph unicode="&amp;" horiz-adv-x="1247" d="M621 960Q685 1010 733 1075T782 1213Q782 1296 726 1359T562 1423Q440 1423 376 1348T312 1169Q312 1092 350 1006T469 826L1196 0H1129L488 725Q378 851 318 953T257 1167Q257 1258 294 1328T399 1437T562 1477Q651
1477 712 1441T806 1346T838 1213Q838 1152 806 1096T729 995T646 918L402 723Q303 637 253 570T186 449T169 352Q169 270 210 197T335 79T549 34Q653 34 749 77T920 199T1040 388T1084 632H1139Q1139 496 1100 390T993 199Q986 189 986 189T977 181Q893 94 787
37T549 -20Q415 -20 318 25T168 154T115 352Q115 435 150 506T243 641T371 762L621 960Z" />
<glyph unicode="&apos;" horiz-adv-x="340" d="M200 1367L186 1122H136L145 1365V1536H200V1367Z" />
<glyph unicode="(" horiz-adv-x="607" d="M148 586Q148 759 181 922T271 1224T403 1467T562 1623L581 1580Q507 1531 439 1432T318 1199T233 908T202 590V564Q202 402 233 246T317 -44T439 -278T581 -427L562 -470Q478 -417 404 -318T272 -82T181 219T148 566V586Z" />
<glyph unicode=")" horiz-adv-x="623" d="M461 566Q461 384 428 220T338 -81T206 -317T47 -470L28 -427Q102 -378 170 -279T291 -45T376 246T407 564V590Q407 752 376 908T292 1198T170 1432T28 1580L47 1623Q131 1570 205 1467T337 1225T428 922T461 586V566Z" />
<glyph unicode="*" horiz-adv-x="856" d="M393 1017L30 1141L48 1195L410 1062L411 1456H467L460 1061L812 1204L832 1151L472 1014L721 697L674 664L432 986L204 661L159 693L393 1017Z" />
<glyph unicode="+" horiz-adv-x="1151" d="M1071 649H73V702H1071V649ZM590 146H535V1206H590V146Z" />
<glyph unicode="," horiz-adv-x="383" d="M235 27Q235 -65 206 -135T129 -255L92 -223Q122 -184 142 -147T171 -68T181 25V159H235V27Z" />
<glyph unicode="-" horiz-adv-x="607" d="M531 639H61V693H531V639Z" />
<glyph unicode="." horiz-adv-x="439" d="M147 49Q147 73 163 89T202 105Q225 105 241 89T258 49Q258 26 242 10T202 -6Q179 -6 163 10T147 49Z" />
<glyph unicode="/" horiz-adv-x="782" d="M101 -125H42L650 1456H709L101 -125Z" />
<glyph unicode="0" horiz-adv-x="1121" d="M996 594Q996 404 947 267T800 55T562 -20Q423 -20 325 54T176 266T125 594V862Q125 1052 175 1190T323 1402T560 1477Q701 1477 798 1403T945 1190T996 862V594ZM942 862Q942 1029 900 1155T774 1352T560 1423Q432 1423
347 1353T221 1156T179 862V596Q179 432 221 305T348 106T562 34Q691 34 775 106T900 305T942 596V862Z" />
<glyph unicode="1" horiz-adv-x="1121" d="M659 0H605V1388L187 1231V1290L648 1460H659V0Z" />
<glyph unicode="2" horiz-adv-x="1121" d="M1024 0H153V54L630 604Q721 709 778 793T863 949T891 1085Q891 1240 801 1331T536 1422Q432 1422 349 1373T219 1239T171 1045H117Q117 1163 170 1261T317 1417T536 1476Q724 1476 835 1376T946 1085Q946 995 902 904T789
723T646 546L224 54H1024V0Z" />
<glyph unicode="3" horiz-adv-x="1121" d="M528 770Q656 770 743 814T876 929T921 1085Q921 1177 884 1253T767 1376T564 1422Q459 1422 374 1380T239 1260T188 1074H134Q134 1199 192 1289T349 1427T564 1476Q689 1476 781 1429T924 1293T975 1081Q975 1006 944
941T854 826T714 748T532 720H417V770H528ZM417 763H532Q642 763 729 739T879 666T974 548T1007 386Q1007 257 951 167T797 28T573 -20Q491 -20 408 5T256 82T145 214T103 405H157Q157 297 211 214T360 82T573 34Q755 34 854 126T953 382Q953 501 899 574T748 680T528
714H417V763Z" />
<glyph unicode="4" horiz-adv-x="1121" d="M1094 397H82V427L777 1456H827L704 1253L166 451H1094V397ZM842 0H788V1456H842V0Z" />
<glyph unicode="5" horiz-adv-x="1121" d="M231 762L299 1456H1009V1403H348L289 819Q325 850 408 883T594 916Q720 916 817 862T969 707T1024 464Q1024 325 983 216T852 43T614 -20Q529 -20 454 4T321 79T227 205T182 383H237Q253 214 349 124T614 34Q734 34
812 82T930 226T969 462Q969 576 926 666T799 809T595 862Q480 862 405 831T272 746L231 762Z" />
<glyph unicode="6" horiz-adv-x="1121" d="M840 1476V1422H821Q691 1422 576 1380T372 1248T233 1018T182 681V493Q182 354 236 251T384 90T602 33Q712 33 792 95T915 260T959 480Q959 598 918 694T794 846T585 903Q479 903 386 857T233 731T174 556L135 558Q135
635 168 706T263 834T408 924T592 957Q726 957 820 895T963 725T1013 480Q1013 339 961 226T816 46T602 -20Q501 -20 415 15T264 118T164 279T128 492V660Q128 878 182 1033T333 1286T554 1430T821 1476H840Z" />
<glyph unicode="7" horiz-adv-x="1121" d="M1007 1422L366 0H311L945 1402H77V1456H1007V1422Z" />
<glyph unicode="8" horiz-adv-x="1121" d="M1028 379Q1028 247 966 158T799 25T565 -20Q434 -20 329 24T162 158T100 379Q100 494 161 580T328 716T563 765Q692 765 797 716T965 581T1028 379ZM973 374Q973 479 918 556T770 675T563 718Q448 718 355 676T208 556T154
374Q154 264 208 188T355 73T565 34Q679 34 771 73T918 188T973 374ZM986 1086Q986 979 929 897T777 769T563 723Q443 723 348 769T197 897T141 1086Q141 1213 196 1299T347 1431T561 1476Q679 1476 775 1431T928 1300T986 1086ZM932 1091Q932 1188 882 1262T748
1379T561 1422Q457 1422 374 1382T243 1268T195 1091Q195 992 243 921T374 811T563 772Q666 772 749 810T882 920T932 1091Z" />
<glyph unicode="9" horiz-adv-x="1121" d="M332 34Q489 34 603 81T792 218T903 433T939 718V902Q939 1075 891 1190T753 1364T535 1422Q419 1422 334 1355T203 1182T157 958Q157 846 200 747T326 585T523 522Q633 522 713 563T846 667T925 799T951 925L983 927Q983
827 948 743T850 598T704 502T523 468Q395 468 301 535T155 715T103 958Q103 1099 156 1216T306 1405T531 1476Q640 1476 726 1441T871 1334T962 1155T993 903V740Q993 595 967 476T889 264T758 108T573 13T332 -20H298L300 34H332Z" />
<glyph unicode=":" horiz-adv-x="364" d="M375 49Q375 73 391 89T430 105Q453 105 469 89T486 49Q486 26 470 10T430 -6Q407 -6 391 10T375 49ZM124 1011Q124 1035 140 1051T179 1067Q202 1067 218 1051T235 1011Q235 988 219 972T179 956Q156 956 140 972T124 1011Z" />
<glyph unicode=";" horiz-adv-x="364" d="M125 1011Q125 1035 141 1051T180 1067Q203 1067 219 1051T236 1011Q236 988 220 972T180 956Q157 956 141 972T125 1011ZM479 27Q479 -65 450 -135T373 -255L336 -223Q366 -184 386 -147T415 -68T425 25V159H479V27Z" />
<glyph unicode="&lt;" horiz-adv-x="1053" d="M919 321V262L82 641V683H117L919 321ZM118 649H82V691L919 1069V1011L118 649Z" />
<glyph unicode="=" horiz-adv-x="1142" d="M981 843H147V897H981V843ZM981 436H147V490H981V436Z" />
<glyph unicode="&gt;" horiz-adv-x="1053" d="M114 1013V1072L950 694V651L913 650L114 1013ZM916 688H950V644L114 265V324L916 688Z" />
<glyph unicode="?" horiz-adv-x="893" d="M395 400Q396 474 411 530T460 636T553 740Q614 799 657 849T724 960T747 1112Q747 1246 675 1334T458 1423Q313 1423 232 1337T147 1116H93Q95 1231 145 1311T277 1434T458 1476Q625 1476 713 1371T801 1110Q801 1022
778 955T705 827T581 698Q507 640 478 563T449 400H395ZM371 49Q371 72 387 88T426 105Q449 105 465 89T482 49Q482 26 466 10T426 -6Q403 -6 387 10T371 49Z" />
<glyph unicode="@" horiz-adv-x="1902" d="M1767 523Q1764 427 1741 331T1672 156T1559 28T1397 -20Q1279 -20 1215 64T1161 293L1210 878H1265L1216 293Q1209 206 1227 155T1276 77T1342 43T1400 35Q1497 35 1564 98T1667 272T1710 523Q1724 778 1655 964T1424
1252T997 1354Q777 1354 598 1248T309 945T184 478Q175 292 218 133T355 -145T587 -331T910 -398Q998 -398 1088 -376T1240 -318L1264 -364Q1200 -407 1097 -430T906 -453Q653 -453 475 -340T207 -18T129 478Q138 692 204 864T385 1158T656 1346T1001 1411Q1277
1411 1450 1303T1701 995T1767 523ZM632 436Q620 325 637 234T701 88T827 34Q892 34 957 60T1079 163T1178 386L1209 336Q1159 161 1063 71T829 -20Q738 -20 678 37T592 196T578 436Q594 605 654 728T808 920T1015 988Q1109 988 1162 955T1265 878L1214 844Q1182
885 1133 909T1012 933Q925 933 845 881T708 718T632 436Z" />
<glyph unicode="A" horiz-adv-x="1223" d="M92 0H33L578 1456H630L618 1410L92 0ZM604 1410L593 1456H644L1189 0H1130L604 1410ZM976 435H247V489H976V435Z" />
<glyph unicode="B" horiz-adv-x="1235" d="M233 719L231 773H603Q801 773 902 850T1004 1087Q1004 1244 898 1323T583 1402H254V0H200V1456H583Q804 1456 931 1366T1059 1083Q1059 993 1026 921T928 804T770 749L685 719H233ZM231 0L248 54H675Q859 54 965 145T1071
399Q1071 483 1029 556T900 674T685 719H449L451 773H796L800 754Q892 743 965 693T1082 567T1125 401Q1125 207 1000 104T675 0H231Z" />
<glyph unicode="C" horiz-adv-x="1327" d="M1190 446Q1175 289 1108 186T929 31T671 -20Q511 -20 393 60T209 285T144 619V837Q144 1027 209 1171T392 1395T671 1476Q817 1476 928 1425T1107 1271T1190 1012H1136Q1114 1212 996 1317T671 1422Q530 1422 424 1350T258
1146T198 839V619Q198 443 257 311T423 107T671 34Q806 34 905 77T1062 212T1136 446H1190Z" />
<glyph unicode="D" horiz-adv-x="1340" d="M248 0L250 54H603Q760 54 883 129T1078 336T1150 639V820Q1150 990 1079 1121T884 1327T603 1402H242V1456H603Q775 1456 911 1375T1125 1151T1204 817V639Q1204 449 1126 306T911 81T603 0H248ZM254 0H200V1456H254V0Z" />
<glyph unicode="E" horiz-adv-x="1166" d="M1086 0H219V54H1086V0ZM254 0H200V1456H254V0ZM984 722H219V776H984V722ZM1086 1402H219V1456H1086V1402Z" />
<glyph unicode="F" horiz-adv-x="1172" d="M254 0H200V1456H254V0ZM1000 716H215V772H1000V716ZM1102 1402H215V1456H1102V1402Z" />
<glyph unicode="G" horiz-adv-x="1406" d="M1226 156Q1203 123 1140 82T974 11T729 -20Q563 -20 437 61T239 286T168 620V858Q168 1042 237 1181T429 1398T712 1476Q870 1476 979 1421T1149 1273T1224 1062H1170Q1155 1157 1105 1239T960 1371T712 1422Q564 1422
454 1350T283 1151T222 860V620Q222 449 284 317T461 109T729 34Q848 34 939 58T1090 117T1172 181V605H727V660H1226V156Z" />
<glyph unicode="H" horiz-adv-x="1438" d="M1207 722H227V776H1207V722ZM254 0H200V1456H254V0ZM1238 0H1184V1456H1238V0Z" />
<glyph unicode="I" horiz-adv-x="534" d="M294 0H240V1456H294V0Z" />
<glyph unicode="J" horiz-adv-x="1125" d="M876 1456H930V442Q930 293 875 190T724 33T510 -20Q382 -20 288 26T142 165T90 401H144Q144 224 236 129T510 34Q610 34 693 80T826 217T876 442V1456Z" />
<glyph unicode="K" horiz-adv-x="1300" d="M254 0H200V1456H254V0ZM525 801L232 531L240 601L492 847L1098 1456H1176L525 801ZM470 785L503 832L1226 0H1156L470 785Z" />
<glyph unicode="L" horiz-adv-x="1057" d="M1002 0H220V54H1002V0ZM255 0H200V1456H255V0Z" />
<glyph unicode="M" horiz-adv-x="1756" d="M277 1456L876 79L1477 1456H1537L898 0H855L216 1456H277ZM254 1456V703V0H200V1456H254ZM1556 1456V0H1502V703V1456H1556Z" />
<glyph unicode="N" horiz-adv-x="1449" d="M1249 0H1195L255 1364V0H200V1456H255L1195 95V1456H1249V0Z" />
<glyph unicode="O" horiz-adv-x="1364" d="M1231 619Q1231 429 1164 285T974 61T683 -20Q516 -20 393 60T201 285T133 619V837Q133 1027 200 1171T391 1395T681 1476Q849 1476 972 1396T1163 1171T1231 837V619ZM1177 839Q1177 1010 1119 1141T949 1347T681 1422Q525
1422 415 1348T247 1142T188 839V619Q188 448 247 316T416 109T683 34Q840 34 950 109T1119 316T1177 619V839Z" />
<glyph unicode="P" horiz-adv-x="1230" d="M213 615V669H655Q802 669 894 717T1028 848T1071 1029Q1071 1132 1029 1216T894 1351T655 1402H254V0H200V1456H655Q810 1456 914 1403T1072 1255T1125 1031Q1125 903 1073 810T916 666T655 615H213Z" />
<glyph unicode="Q" horiz-adv-x="1364" d="M1191 -228L1152 -263L853 25L894 63L1191 -228ZM1231 619Q1231 429 1164 285T974 61T683 -20Q516 -20 393 60T201 285T133 619V837Q133 1027 200 1171T391 1395T681 1476Q849 1476 972 1396T1163 1171T1231 837V619ZM1177
839Q1177 1010 1119 1141T949 1347T681 1422Q525 1422 415 1348T247 1142T188 839V619Q188 448 247 316T416 109T683 34Q840 34 950 109T1119 316T1177 619V839Z" />
<glyph unicode="R" horiz-adv-x="1340" d="M659 1456Q798 1456 906 1408T1075 1266T1137 1036Q1137 930 1091 845T968 704T796 635L765 623H208L206 677H708Q833 677 916 729T1041 863T1083 1036Q1083 1208 968 1305T659 1402H249V0H195V1456H659ZM742 642L805
644L1198 14V0H1141L742 642Z" />
<glyph unicode="S" horiz-adv-x="1211" d="M1072 349Q1072 441 1029 507T887 623T623 718Q512 748 423 782T272 862T176 969T143 1120Q143 1231 206 1310T379 1433T626 1476Q768 1476 877 1422T1048 1272T1111 1046H1057Q1057 1154 1003 1239T853 1373T626 1422Q489
1422 393 1380T247 1270T197 1122Q197 1045 235 982T368 867T638 770Q782 733 892 682T1064 553T1127 351Q1127 232 1060 149T881 23T633 -20Q540 -20 445 2T271 73T144 206T96 411H150Q150 302 195 229T312 114T469 53T633 34Q761 34 860 74T1015 185T1072 349Z"
/>
<glyph unicode="T" horiz-adv-x="1224" d="M639 0H585V1456H639V0ZM1169 1402H55V1456H1169V1402Z" />
<glyph unicode="U" horiz-adv-x="1365" d="M1180 1456V469Q1180 306 1115 197T938 34T683 -20Q541 -20 429 34T251 197T185 469V1456H239V469Q239 329 297 232T456 84T683 34Q809 34 909 84T1068 231T1126 469V1456H1180Z" />
<glyph unicode="V" horiz-adv-x="1223" d="M1130 1456H1189L645 0H594L641 142L1130 1456ZM583 142L630 0H579L35 1456H94L583 142Z" />
<glyph unicode="W" horiz-adv-x="1855" d="M899 1456H957L879 1214L515 0H464L555 330L899 1456ZM423 330L514 0H454L61 1456H121L423 330ZM1734 1456H1793L1401 0H1341L1434 330L1734 1456ZM1301 330L1391 0H1340L979 1214L900 1456H959L1301 330Z" />
<glyph unicode="X" horiz-adv-x="1223" d="M611 785L1081 1456H1149L645 743L1168 0H1101L611 701L119 0H54L577 743L73 1456H141L611 785Z" />
<glyph unicode="Y" horiz-adv-x="1223" d="M609 602L1119 1456H1185L636 553V0H582V553L33 1456H105L609 602Z" />
<glyph unicode="Z" horiz-adv-x="1224" d="M1130 0H111V54H1130V0ZM131 0H94V44L1059 1456H1098V1418L131 0ZM1072 1403H134V1456H1072V1403Z" />
<glyph unicode="[" horiz-adv-x="439" d="M464 1610H235V-258H464V-312H181V1664H464V1610Z" />
<glyph unicode="\" horiz-adv-x="774" d="M57 1456H115L723 -125H665L57 1456Z" />
<glyph unicode="]" horiz-adv-x="439" d="M-8 1664H275V-312H-8V-258H220V1610H-8V1664Z" />
<glyph unicode="^" horiz-adv-x="849" d="M150 729H91L390 1456H438L430 1417L150 729ZM402 1417L393 1456H442L741 729H680L402 1417Z" />
<glyph unicode="_" horiz-adv-x="845" d="M845 -54H-1V0H845V-54Z" />
<glyph unicode="`" horiz-adv-x="537" d="M403 1270H344L149 1536H215L403 1270Z" />
<glyph unicode="a" horiz-adv-x="1081" d="M851 762Q851 897 765 972T521 1048Q423 1048 345 1014T221 919T175 784L121 786Q121 871 172 942T314 1058T521 1102Q634 1102 720 1064T856 950T905 760V218Q905 160 912 101T933 9V0H871Q861 39 856 94T851 203V762ZM877
549H595Q386 549 266 471T146 270Q146 172 224 103T425 33Q539 33 627 70T776 176T869 337L893 287Q874 231 837 177T741 78T605 7T425 -20Q324 -20 249 17T133 121T92 274Q92 419 224 511T592 604H875L877 549Z" />
<glyph unicode="b" horiz-adv-x="1121" d="M224 1536V210V0H170V1536H224ZM999 531Q999 366 951 242T812 49T593 -20Q471 -20 383 25T242 145T172 304V745Q196 847 249 927T388 1055T591 1102Q720 1102 811 1036T950 846T999 552V531ZM943 552Q943 696 905 808T789
984T592 1048Q490 1048 421 1015T309 929T243 818T208 709V329Q226 248 273 181T401 74T594 34Q712 34 789 98T905 275T943 531V552Z" />
<glyph unicode="c" horiz-adv-x="1039" d="M539 34Q624 34 700 64T828 160T886 328H940Q935 218 879 140T734 21T539 -20Q399 -20 300 49T149 240T97 520V562Q97 721 149 842T299 1033T537 1102Q642 1102 731 1060T878 933T940 725H886Q881 833 832 904T704 1012T537
1048Q405 1048 320 983T193 807T151 562V520Q151 385 192 275T320 99T539 34Z" />
<glyph unicode="d" horiz-adv-x="1121" d="M897 1536H951V0H897V210V1536ZM122 552Q122 723 170 846T310 1035T530 1102Q648 1102 732 1055T870 928T947 745V304Q930 219 878 145T738 26T528 -20Q400 -20 309 49T170 242T122 531V552ZM178 531Q178 387 216 275T331
99T527 34Q641 34 721 74T849 181T915 329V709Q904 759 881 817T814 928T701 1014T529 1048Q410 1048 332 984T216 808T178 552V531Z" />
<glyph unicode="e" horiz-adv-x="1032" d="M561 -20Q430 -20 322 49T151 239T87 518V562Q87 720 148 842T313 1033T541 1102Q661 1102 754 1044T899 882T952 640V577H122V631H898V644Q898 753 854 844T730 992T541 1048Q422 1048 332 983T191 807T141 562V518Q141
383 196 273T347 98T561 33Q654 33 734 64T882 182L920 155Q866 78 779 29T561 -20Z" />
<glyph unicode="f" horiz-adv-x="645" d="M254 0V1236Q254 1391 329 1474T537 1557Q568 1557 601 1554T665 1540L657 1488Q629 1496 604 1499T538 1503Q432 1503 370 1433T308 1236V0H254ZM594 1027H66V1082H594V1027Z" />
<glyph unicode="g" horiz-adv-x="1123" d="M950 1082V15Q950 -123 901 -224T761 -381T541 -436Q462 -436 397 -413T279 -349T187 -254L225 -218Q288 -297 363 -340T539 -383Q715 -383 805 -275T895 15V844V1082H950ZM121 552Q121 723 169 846T309 1035T529 1102Q617
1102 686 1075T808 1000T894 886T946 745V304Q929 219 877 145T737 26T527 -20Q399 -20 308 49T169 242T121 531V552ZM176 531Q176 387 214 275T330 99T526 34Q640 34 719 74T845 181T910 329V709Q899 759 876 817T810 928T699 1014T528 1048Q409 1048 331 984T215
808T176 552V531Z" />
<glyph unicode="h" horiz-adv-x="1121" d="M226 0H172V1536H226V0ZM188 691Q202 798 257 891T402 1043T610 1102Q720 1102 796 1062T913 933T954 700V0H900V700Q900 838 863 913T759 1019T607 1049Q505 1049 433 1004T314 890T244 752T217 634L188 691Z" />
<glyph unicode="i" horiz-adv-x="422" d="M239 0H185V1082H239V0ZM157 1420Q157 1443 173 1459T212 1476Q235 1476 251 1460T268 1420Q268 1397 252 1381T212 1365Q189 1365 173 1381T157 1420Z" />
<glyph unicode="j" horiz-adv-x="445" d="M240 1082V-129Q240 -278 165 -357T-45 -437Q-70 -437 -94 -432T-143 -417L-140 -365Q-124 -371 -99 -377T-45 -383Q66 -383 126 -317T186 -129V1082H240ZM163 1420Q163 1443 179 1459T218 1476Q241 1476 257 1460T274
1420Q274 1397 258 1381T218 1365Q195 1365 179 1381T163 1420Z" />
<glyph unicode="k" horiz-adv-x="969" d="M226 0H172V1536H226V0ZM383 583L216 440L196 479L353 627L845 1082H922L383 583ZM366 608L401 650L953 0H883L366 608Z" />
<glyph unicode="l" horiz-adv-x="422" d="M239 0H185V1536H239V0Z" />
<glyph unicode="m" horiz-adv-x="1836" d="M216 0H161V1082H216V850V0ZM180 691Q194 798 248 891T392 1043T599 1102Q763 1102 854 1014T946 720V0H892V720Q892 850 854 921T749 1020T596 1049Q494 1049 422 1004T304 890T235 752T209 634L180 691ZM909 753Q923
845 978 924T1125 1053T1333 1102Q1443 1102 1520 1062T1639 933T1680 700V0H1626V700Q1626 838 1588 914T1483 1020T1330 1049Q1234 1048 1164 1014T1046 927T975 820T946 720L909 753Z" />
<glyph unicode="n" horiz-adv-x="1121" d="M226 0H172V1082H226V851V0ZM188 691Q202 798 257 891T402 1043T610 1102Q720 1102 796 1062T913 933T954 700V0H900V700Q900 838 863 913T759 1019T607 1049Q505 1049 433 1004T314 890T244 752T217 634L188 691Z" />
<glyph unicode="o" horiz-adv-x="1127" d="M90 562Q90 721 150 842T316 1033T563 1102Q705 1102 811 1033T977 843T1037 562V520Q1037 362 978 240T812 49T565 -20Q424 -20 317 49T150 240T90 520V562ZM144 520Q144 391 194 280T338 102T565 34Q697 34 790 101T933
280T983 520V562Q983 689 933 799T790 979T563 1048Q431 1048 338 979T194 800T144 562V520Z" />
<glyph unicode="p" horiz-adv-x="1121" d="M224 -416H170V1082H224V874V-416ZM999 531Q999 366 951 242T812 49T593 -20Q471 -20 383 25T241 145T170 305V745Q194 847 248 927T387 1055T591 1102Q720 1102 811 1036T950 846T999 552V531ZM944 552Q944 696 906
808T789 984T592 1048Q490 1048 421 1015T308 929T241 818T206 709V330Q224 248 272 181T400 74T594 34Q712 34 789 98T905 275T944 531V552Z" />
<glyph unicode="q" horiz-adv-x="1121" d="M897 874V1082H951V-416H897V874ZM122 552Q122 723 170 846T310 1035T530 1102Q648 1102 733 1055T873 928T951 745V304Q934 219 881 145T739 26T528 -20Q400 -20 309 49T170 242T122 531V552ZM178 531Q178 387 216 275T331
99T527 34Q641 34 721 74T849 181T915 329V709Q905 756 881 814T813 925T700 1013T529 1048Q410 1048 332 984T216 808T178 552V531Z" />
<glyph unicode="r" horiz-adv-x="685" d="M226 0H172V1082H226V894V0ZM649 1043Q633 1045 616 1047T579 1049Q458 1049 377 985T256 815T215 580L179 577Q179 729 223 847T355 1034T579 1102Q604 1102 623 1099T655 1091L649 1043Z" />
<glyph unicode="s" horiz-adv-x="1019" d="M839 265Q839 314 812 364T714 459T509 532Q388 558 307 593T184 684T143 829Q143 905 186 966T311 1065T505 1102Q626 1102 712 1063T845 955T892 793H837Q837 894 752 971T505 1048Q396 1048 328 1015T229 932T197
831Q197 776 220 731T314 648T525 579Q654 550 735 509T854 409T893 264Q893 181 847 117T715 16T513 -20Q382 -20 292 20T155 128T108 275H162Q169 182 223 130T356 56T513 34Q620 34 692 68T802 155T839 265Z" />
<glyph unicode="t" horiz-adv-x="648" d="M539 1027H38V1082H539V1027ZM293 1374V259Q293 164 315 116T375 51T456 34Q487 34 511 36T563 43L572 -8Q550 -15 515 -17T459 -20Q390 -20 341 4T265 90T238 259V1374H293Z" />
<glyph unicode="u" horiz-adv-x="1121" d="M897 1082H952V0H897V250V1082ZM952 425Q952 297 907 197T768 38T524 -20Q365 -20 267 74T168 395V1082H222V393Q222 261 261 182T368 69T522 34Q668 34 752 90T871 235T906 423L952 425Z" />
<glyph unicode="v" horiz-adv-x="978" d="M879 1082H937L516 0H465L481 64L879 1082ZM499 63L515 0H463L43 1082H101L499 63Z" />
<glyph unicode="w" horiz-adv-x="1550" d="M742 1082H790L714 813L451 0H400L499 313L742 1082ZM366 313L446 0H397L83 1082H145L366 313ZM1393 1082H1456L1141 0H1092L1173 313L1393 1082ZM1039 313L1138 0H1087L820 813L749 1082H797L1039 313Z" />
<glyph unicode="x" horiz-adv-x="978" d="M489 602L834 1082H902L522 555L922 0H855L488 508L122 0H55L455 555L75 1082H143L489 602Z" />
<glyph unicode="y" horiz-adv-x="978" d="M884 1082H944L463 -180Q450 -214 432 -258T382 -343T302 -410T178 -437Q167 -437 152 -436T121 -432T98 -426L97 -375Q112 -379 136 -381T170 -384Q271 -384 323 -324T409 -170L510 104L884 1082ZM511 64L528 10L485
-21L43 1082H102L511 64Z" />
<glyph unicode="z" horiz-adv-x="978" d="M930 0H102V54H930V0ZM121 0H87V44L838 1082H871V1034L121 0ZM846 1027H118V1082H846V1027Z" />
<glyph unicode="{" horiz-adv-x="660" d="M657 1552Q509 1505 443 1393T377 1132V885Q377 796 347 724T249 609T73 566V609Q206 609 264 684T323 885V1132Q323 1237 352 1328T450 1489T642 1597L657 1552ZM642 -441Q520 -402 451 -334T352 -176T323 20V265Q323
392 265 467T73 543V586Q182 586 249 543T346 428T377 265V20Q377 -131 446 -238T662 -395L642 -441Z" />
<glyph unicode="|" horiz-adv-x="406" d="M235 -270H181V1456H235V-270Z" />
<glyph unicode="}" horiz-adv-x="660" d="M19 1597Q142 1559 211 1490T309 1329T338 1132V885Q338 759 397 684T588 609V566Q479 566 413 608T315 723T284 885V1132Q284 1281 219 1393T5 1552L19 1597ZM0 -395Q146 -345 215 -238T284 20V265Q284 355 315 427T412
543T588 586V543Q456 543 397 468T338 265V20Q338 -85 310 -175T212 -334T19 -441L0 -395Z" />
<glyph unicode="~" horiz-adv-x="1412" d="M1246 752Q1246 671 1217 601T1128 487T977 443Q887 443 824 481T679 593Q605 660 553 690T428 720Q328 720 272 655T215 462H160Q160 547 188 617T276 731T428 774Q519 774 584 734T728 624Q804 554 858 525T977 496Q1081
496 1135 565T1190 753L1246 752Z" />
<glyph unicode="&#xa0;" horiz-adv-x="490" />
<glyph unicode="&#xa1;" horiz-adv-x="406" d="M179 696H233V-359H179V696ZM253 1048Q253 1025 237 1009T198 992Q175 992 159 1008T142 1048Q142 1071 158 1087T198 1103Q221 1103 237 1087T253 1048Z" />
<glyph unicode="&#xa2;" horiz-adv-x="1110" d="M604 1070H549V1318H604V1070ZM604 -245H549V2H604V-245ZM576 34Q661 34 737 64T865 160T923 328H977Q972 218 916 140T771 21T576 -20Q436 -20 337 49T186 240T134 520V562Q134 721 186 842T336 1033T574 1102Q679
1102 768 1060T915 933T977 725H923Q918 833 869 904T741 1012T574 1048Q442 1048 357 983T230 807T188 562V520Q188 385 229 275T357 99T576 34Z" />
<glyph unicode="&#xa3;" horiz-adv-x="1150" d="M99 0V54H1060L1061 0H99ZM95 667V721H728V667H95ZM370 336Q373 224 350 148T280 30L219 54Q255 65 277 109T308 215T316 336L295 1039Q295 1177 340 1274T468 1424T661 1476Q842 1476 938 1368T1035 1089H981Q981
1207 938 1280T822 1388T661 1422Q517 1422 433 1324T349 1039L370 336Z" />
<glyph unicode="&#xa4;" horiz-adv-x="1502" d="M204 608Q204 489 246 385T363 201T536 78T745 33Q856 33 953 77T1125 201T1242 384T1285 608Q1285 727 1243 831T1126 1013T954 1136T745 1181Q634 1181 536 1137T364 1014T247 831T204 608ZM149 608Q149 741 195
855T324 1054T514 1186T745 1234Q868 1234 975 1187T1165 1054T1293 855T1339 608Q1339 475 1293 361T1165 162T976 28T745 -20Q622 -20 514 28T324 161T196 361T149 608ZM1178 1019L1137 1059L1339 1265L1380 1225L1178 1019ZM154 -26L114 13L316 219L356 180L154
-26ZM1137 179L1178 219L1380 13L1339 -27L1137 179ZM114 1225L154 1264L356 1058L316 1019L114 1225Z" />
<glyph unicode="&#xa5;" horiz-adv-x="1038" d="M935 621H99V676H935V621ZM935 326H99V381H935V326ZM938 1456H1000L542 629H492L547 738L938 1456ZM487 738L541 629H490L33 1456H95L487 738ZM543 0H489V687H543V0Z" />
<glyph unicode="&#xa6;" horiz-adv-x="398" d="M172 -270V482H226V-270H172ZM226 698H172V1456H226V698Z" />
<glyph unicode="&#xa7;" horiz-adv-x="1223" d="M685 196Q855 196 947 264T1040 428Q1040 511 1000 568T861 672T590 766Q457 800 362 843T217 955T166 1129Q166 1234 221 1312T379 1433T618 1476Q830 1476 951 1365T1072 1045H1018Q1018 1149 972 1234T837 1371T618
1422Q412 1422 316 1337T220 1132Q220 1050 252 994T370 894T616 804Q765 767 872 724T1036 612T1094 431Q1094 308 983 233T685 157V196ZM512 797Q338 797 257 726T175 553Q175 466 212 410T346 310T624 215Q760 180 855 137T1000 26T1050 -149Q1050 -312 927
-403T600 -495Q510 -495 424 -473T268 -401T157 -268T115 -64L169 -62Q169 -171 207 -244T309 -360T449 -422T600 -441Q790 -441 892 -359T995 -151Q995 -74 963 -19T848 81T607 166Q461 201 352 247T182 366T121 551Q121 680 227 755T512 830V797Z" />
<glyph unicode="&#xa8;" horiz-adv-x="906" d="M174 1421Q174 1444 190 1460T229 1477Q252 1477 268 1461T285 1421Q285 1398 269 1382T229 1366Q206 1366 190 1382T174 1421ZM619 1421Q619 1444 635 1460T674 1477Q697 1477 713 1461T730 1421Q730 1398 714 1382T674
1366Q651 1366 635 1382T619 1421Z" />
<glyph unicode="&#xa9;" horiz-adv-x="1666" d="M1124 616Q1124 459 1043 381T826 302Q683 302 595 409T506 689V768Q506 940 594 1047T826 1155Q962 1155 1043 1077T1125 842H1073Q1073 973 1009 1037T826 1102Q742 1102 683 1058T592 938T561 769V689Q561 549
630 453T826 357Q945 357 1008 419T1072 616H1124ZM179 729Q179 584 230 458T371 236T580 88T833 34Q967 34 1085 87T1294 236T1436 457T1487 729Q1487 875 1436 1000T1295 1220T1086 1368T833 1421Q698 1421 580 1368T372 1221T230 1001T179 729ZM123 729Q123
888 178 1024T331 1261T557 1419T833 1476Q980 1476 1108 1420T1335 1262T1488 1024T1543 729Q1543 570 1488 434T1335 196T1109 36T833 -21Q686 -21 558 36T332 195T179 434T123 729Z" />
<glyph unicode="&#xaa;" horiz-adv-x="898" d="M657 1201Q657 1305 607 1363T458 1422Q349 1422 285 1378T221 1243H167Q167 1344 247 1410T458 1476Q570 1476 641 1407T712 1200V886Q712 837 718 793T738 705H680Q669 740 663 780T657 861V1201ZM675 1078H488Q361
1078 292 1036T222 904Q222 834 267 790T418 746Q477 746 533 775T625 847T662 928L685 877Q671 835 634 792T541 720T417 691Q296 691 232 748T168 900Q168 1009 252 1070T487 1132H674L675 1078Z" />
<glyph unicode="&#xab;" horiz-adv-x="905" d="M213 776L145 777V790L440 1160H510L213 776ZM510 401H440L145 771V784L213 785L510 401ZM500 520L432 521V534L727 904H797L500 520ZM797 145H727L432 515V528L500 529L797 145Z" />
<glyph unicode="&#xac;" horiz-adv-x="1101" d="M915 700H122V753H915V700ZM915 396H861V706H915V396Z" />
<glyph unicode="&#xad;" horiz-adv-x="600" d="M531 639H61V693H531V639Z" />
<glyph unicode="&#xae;" horiz-adv-x="1674" d="M614 678L612 734H853Q940 734 1003 780T1066 917Q1066 1011 1016 1056T832 1101H648V326H593V1156H832Q976 1156 1048 1096T1121 916Q1121 834 1073 781T938 700Q935 699 932 699T925 699Q908 689 904 685T895
679T870 678H614ZM871 723Q1004 723 1052 659T1100 505V469Q1100 432 1104 399T1117 342V326H1058Q1048 352 1046 400T1044 470V504Q1044 598 1003 638T860 678L871 723ZM170 729Q170 584 221 458T363 236T571 88T825 34Q959 34 1077 87T1286 236T1428 457T1479
729Q1479 875 1428 1000T1287 1220T1078 1368T825 1421Q690 1421 572 1368T363 1221T222 1001T170 729ZM115 729Q115 888 170 1024T323 1261T549 1419T825 1476Q972 1476 1100 1420T1327 1262T1480 1024T1535 729Q1535 570 1480 434T1327 196T1101 36T825 -21Q678
-21 550 36T323 195T170 434T115 729Z" />
<glyph unicode="&#xaf;" horiz-adv-x="811" d="M699 1383H132V1436H699V1383Z" />
<glyph unicode="&#xb0;" horiz-adv-x="783" d="M156 1236Q156 1302 188 1356T273 1443T392 1476Q456 1476 508 1444T592 1357T624 1236Q624 1170 593 1116T509 1031T392 999Q327 999 274 1030T188 1116T156 1236ZM211 1236Q211 1157 263 1106T392 1055Q469 1055
518 1106T568 1236Q568 1316 519 1368T392 1421Q315 1421 263 1369T211 1236Z" />
<glyph unicode="&#xb1;" horiz-adv-x="1077" d="M988 751H72V805H988V751ZM569 289H515V1267H569V289ZM957 -1H122V53H957V-1Z" />
<glyph unicode="&#xb2;" horiz-adv-x="728" d="M651 664H108V708L398 1003Q480 1084 515 1141T551 1247Q551 1324 502 1369T356 1415Q250 1415 195 1362T140 1226H86Q86 1291 118 1345T211 1431T356 1464Q468 1464 536 1407T605 1248Q605 1199 579 1151T513 1056T426
961L175 713H651V664Z" />
<glyph unicode="&#xb3;" horiz-adv-x="728" d="M341 1090Q451 1090 507 1137T564 1249Q564 1318 516 1366T362 1415Q273 1415 212 1370T150 1246H97Q97 1312 132 1361T228 1437T362 1464Q478 1464 548 1407T618 1246Q618 1195 586 1151T494 1079T349 1051H270V1090H341ZM270
1080H349Q443 1080 507 1055T604 983T637 875Q637 769 560 711T367 653Q298 653 232 677T123 752T80 881H134Q134 802 200 752T367 701Q470 701 526 747T583 874Q583 963 516 1002T341 1041H270V1080Z" />
<glyph unicode="&#xb4;" horiz-adv-x="511" d="M315 1536H381L186 1270H126L315 1536Z" />
<glyph unicode="&#xb5;" horiz-adv-x="1121" d="M168 640H222V-415H168V640ZM897 1082H952V0H897V250V1082ZM952 425Q952 297 907 197T768 38T524 -20Q365 -20 267 74T168 395V1082H222V393Q222 261 261 182T368 69T522 34Q668 34 752 90T871 235T906 423L952 425Z" />
<glyph unicode="&#xb6;" horiz-adv-x="946" d="M716 0V520H591Q432 520 322 580T156 747T99 988Q99 1122 155 1228T322 1395T591 1456H770V0H716Z" />
<glyph unicode="&#xb7;" horiz-adv-x="472" d="M179 706Q179 729 195 745T234 762Q257 762 273 746T290 706Q290 683 274 667T234 651Q211 651 195 667T179 706Z" />
<glyph unicode="&#xb8;" horiz-adv-x="490" d="M207 0L196 -76Q263 -83 318 -118T373 -245Q373 -330 297 -382T88 -435L81 -386Q135 -386 189 -372T281 -326T318 -245Q318 -179 270 -155T129 -121L154 0H207Z" />
<glyph unicode="&#xb9;" horiz-adv-x="728" d="M433 664H379V1386L131 1305V1358L424 1455H433V664Z" />
<glyph unicode="&#xba;" horiz-adv-x="914" d="M148 1141Q148 1287 229 1381T452 1476Q595 1476 676 1382T757 1141V1024Q757 878 676 784T454 690Q312 690 230 784T148 1024V1141ZM202 1024Q202 908 262 826T454 744Q580 744 642 826T704 1024V1141Q704 1257
642 1339T452 1422Q326 1422 264 1340T202 1141V1024Z" />
<glyph unicode="&#xbb;" horiz-adv-x="897" d="M425 555L492 554V541L198 171H128L425 555ZM198 940L492 560V547L425 546L128 940H198ZM715 555L782 554V541L488 171H418L715 555ZM488 940L782 560V547L715 546L418 940H488Z" />
<glyph unicode="&#xbc;" horiz-adv-x="1442" d="M433 131L388 162L1099 1300L1144 1269L433 131ZM433 546H379V1268L131 1187V1240L424 1337H433V546ZM1403 204H780L779 236L1196 789H1241L1159 656L849 253H1403V204ZM1256 0H1203V789H1256V0Z" />
<glyph unicode="&#xbd;" horiz-adv-x="1560" d="M423 131L378 162L1089 1300L1134 1269L423 131ZM433 546H379V1268L131 1187V1240L424 1337H433V546ZM1483 0H940V44L1230 339Q1312 420 1347 477T1383 583Q1383 660 1334 705T1188 751Q1082 751 1027 698T972 562H918Q918
627 950 681T1043 767T1188 800Q1300 800 1368 743T1437 584Q1437 535 1411 487T1345 392T1258 297L1007 49H1483V0Z" />
<glyph unicode="&#xbe;" horiz-adv-x="1552" d="M341 965Q451 965 507 1012T564 1124Q564 1193 516 1241T362 1290Q273 1290 212 1245T150 1121H97Q97 1187 132 1236T228 1312T362 1339Q478 1339 548 1282T618 1121Q618 1070 586 1026T494 954T349 926H270V965H341ZM270
955H349Q443 955 507 930T604 858T637 750Q637 644 560 586T367 528Q298 528 232 552T123 627T80 756H134Q134 677 200 627T367 576Q470 576 526 622T583 749Q583 838 516 877T341 916H270V955ZM543 131L498 162L1209 1300L1254 1269L543 131ZM1513 204H890L889
236L1306 789H1351L1269 656L959 253H1513V204ZM1366 0H1313V789H1366V0Z" />
<glyph unicode="&#xbf;" horiz-adv-x="912" d="M514 695Q513 621 507 577T474 495T389 403Q328 345 277 289T194 160T162 -17Q162 -162 239 -245T461 -328Q606 -328 682 -242T762 -21H816Q815 -142 767 -222T639 -341T461 -381Q294 -381 201 -280T108 -15Q108
86 140 164T229 310T361 445Q411 484 431 519T456 596T460 695H514ZM538 1046Q538 1023 522 1007T483 990Q460 990 444 1006T427 1046Q427 1069 443 1085T483 1101Q506 1101 522 1085T538 1046Z" />
<glyph unicode="&#xc0;" horiz-adv-x="1223" d="M92 0H33L578 1456H630L618 1410L92 0ZM604 1410L593 1456H644L1189 0H1130L604 1410ZM976 435H247V489H976V435ZM666 1589H607L412 1855H478L666 1589Z" />
<glyph unicode="&#xc1;" horiz-adv-x="1223" d="M92 0H33L578 1456H630L618 1410L92 0ZM604 1410L593 1456H644L1189 0H1130L604 1410ZM976 435H247V489H976V435ZM755 1855H821L626 1589H566L755 1855Z" />
<glyph unicode="&#xc2;" horiz-adv-x="1223" d="M92 0H33L578 1456H630L618 1410L92 0ZM604 1410L593 1456H644L1189 0H1130L604 1410ZM976 435H247V489H976V435ZM866 1593V1583H798L611 1779L426 1583H362V1597L592 1836H632L866 1593Z" />
<glyph unicode="&#xc3;" horiz-adv-x="1223" d="M92 0H33L578 1456H630L618 1410L92 0ZM604 1410L593 1456H644L1189 0H1130L604 1410ZM976 435H247V489H976V435ZM940 1806Q940 1751 917 1709T853 1644T764 1620Q710 1620 675 1639T611 1682T552 1726T477 1745Q427
1745 392 1714T356 1620H301Q301 1675 324 1715T388 1777T477 1799Q529 1799 565 1781T630 1737T691 1694T764 1675Q814 1675 849 1709T885 1806H940Z" />
<glyph unicode="&#xc4;" horiz-adv-x="1223" d="M92 0H33L578 1456H630L618 1410L92 0ZM604 1410L593 1456H644L1189 0H1130L604 1410ZM976 435H247V489H976V435ZM336 1740Q336 1763 352 1779T391 1796Q414 1796 430 1780T447 1740Q447 1717 431 1701T391 1685Q368
1685 352 1701T336 1740ZM781 1740Q781 1763 797 1779T836 1796Q859 1796 875 1780T892 1740Q892 1717 876 1701T836 1685Q813 1685 797 1701T781 1740Z" />
<glyph unicode="&#xc5;" horiz-adv-x="1223" d="M92 0H33L578 1456H630L618 1410L92 0ZM604 1410L593 1456H644L1189 0H1130L604 1410ZM976 435H247V489H976V435ZM443 1701Q443 1775 492 1825T614 1875Q685 1875 735 1825T785 1701Q785 1628 735 1580T614 1531Q542
1531 493 1579T443 1701ZM497 1701Q497 1649 530 1617T614 1585Q665 1585 698 1617T731 1701Q731 1754 698 1787T614 1821Q563 1821 530 1788T497 1701Z" />
<glyph unicode="&#xc6;" horiz-adv-x="1816" d="M115 0H50L931 1456H980L963 1408L115 0ZM1003 425H354V478H1003V425ZM1768 0H1035V54H1768V0ZM1070 0H1016L955 1456H1009L1070 0ZM1625 732H995V786H1625V732ZM1707 1402H974V1456H1707V1402Z" />
<glyph unicode="&#xc7;" horiz-adv-x="1327" d="M1190 446Q1175 289 1108 186T929 31T671 -20Q511 -20 393 60T209 285T144 619V837Q144 1027 209 1171T392 1395T671 1476Q817 1476 928 1425T1107 1271T1190 1012H1136Q1114 1212 996 1317T671 1422Q530 1422 424
1350T258 1146T198 839V619Q198 443 257 311T423 107T671 34Q806 34 905 77T1062 212T1136 446H1190ZM706 -10L695 -86Q762 -93 817 -128T872 -255Q872 -340 796 -392T587 -445L580 -396Q634 -396 688 -382T780 -336T817 -255Q817 -189 769 -165T628 -131L653 -10H706Z"
/>
<glyph unicode="&#xc8;" horiz-adv-x="1166" d="M1086 0H219V54H1086V0ZM254 0H200V1456H254V0ZM984 722H219V776H984V722ZM1086 1402H219V1456H1086V1402ZM673 1589H614L419 1855H485L673 1589Z" />
<glyph unicode="&#xc9;" horiz-adv-x="1166" d="M1086 0H219V54H1086V0ZM254 0H200V1456H254V0ZM984 722H219V776H984V722ZM1086 1402H219V1456H1086V1402ZM762 1855H828L633 1589H573L762 1855Z" />
<glyph unicode="&#xca;" horiz-adv-x="1166" d="M1086 0H219V54H1086V0ZM254 0H200V1456H254V0ZM984 722H219V776H984V722ZM1086 1402H219V1456H1086V1402ZM873 1593V1583H805L618 1779L433 1583H369V1597L599 1836H639L873 1593Z" />
<glyph unicode="&#xcb;" horiz-adv-x="1166" d="M1086 0H219V54H1086V0ZM254 0H200V1456H254V0ZM984 722H219V776H984V722ZM1086 1402H219V1456H1086V1402ZM343 1740Q343 1763 359 1779T398 1796Q421 1796 437 1780T454 1740Q454 1717 438 1701T398 1685Q375 1685
359 1701T343 1740ZM788 1740Q788 1763 804 1779T843 1796Q866 1796 882 1780T899 1740Q899 1717 883 1701T843 1685Q820 1685 804 1701T788 1740Z" />
<glyph unicode="&#xcc;" horiz-adv-x="534" d="M294 0H240V1456H294V0ZM322 1589H263L68 1855H134L322 1589Z" />
<glyph unicode="&#xcd;" horiz-adv-x="534" d="M294 0H240V1456H294V0ZM411 1855H477L282 1589H222L411 1855Z" />
<glyph unicode="&#xce;" horiz-adv-x="534" d="M294 0H240V1456H294V0ZM522 1593V1583H454L267 1779L82 1583H18V1597L248 1836H288L522 1593Z" />
<glyph unicode="&#xcf;" horiz-adv-x="534" d="M294 0H240V1456H294V0ZM-8 1740Q-8 1763 8 1779T47 1796Q70 1796 86 1780T103 1740Q103 1717 87 1701T47 1685Q24 1685 8 1701T-8 1740ZM437 1740Q437 1763 453 1779T492 1796Q515 1796 531 1780T548 1740Q548 1717
532 1701T492 1685Q469 1685 453 1701T437 1740Z" />
<glyph unicode="&#xd0;" horiz-adv-x="1340" d="M248 0L250 54H603Q760 54 883 129T1078 336T1150 639V820Q1150 990 1079 1121T884 1327T603 1402H242V1456H603Q775 1456 911 1375T1125 1151T1204 817V639Q1204 449 1126 306T911 81T603 0H248ZM254 0H200V1456H254V0ZM903
969H316V1023H903V969Z" />
<glyph unicode="&#xd1;" horiz-adv-x="1449" d="M1249 0H1195L255 1364V0H200V1456H255L1195 95V1456H1249V0ZM1054 1806Q1054 1751 1031 1709T967 1644T878 1620Q824 1620 789 1639T725 1682T666 1726T591 1745Q541 1745 506 1714T470 1620H415Q415 1675 438
1715T502 1777T591 1799Q643 1799 679 1781T744 1737T805 1694T878 1675Q928 1675 963 1709T999 1806H1054Z" />
<glyph unicode="&#xd2;" horiz-adv-x="1364" d="M1231 619Q1231 429 1164 285T974 61T683 -20Q516 -20 393 60T201 285T133 619V837Q133 1027 200 1171T391 1395T681 1476Q849 1476 972 1396T1163 1171T1231 837V619ZM1177 839Q1177 1010 1119 1141T949 1347T681
1422Q525 1422 415 1348T247 1142T188 839V619Q188 448 247 316T416 109T683 34Q840 34 950 109T1119 316T1177 619V839ZM730 1610H671L476 1876H542L730 1610Z" />
<glyph unicode="&#xd3;" horiz-adv-x="1364" d="M1231 619Q1231 429 1164 285T974 61T683 -20Q516 -20 393 60T201 285T133 619V837Q133 1027 200 1171T391 1395T681 1476Q849 1476 972 1396T1163 1171T1231 837V619ZM1177 839Q1177 1010 1119 1141T949 1347T681
1422Q525 1422 415 1348T247 1142T188 839V619Q188 448 247 316T416 109T683 34Q840 34 950 109T1119 316T1177 619V839ZM819 1876H885L690 1610H630L819 1876Z" />
<glyph unicode="&#xd4;" horiz-adv-x="1364" d="M1231 619Q1231 429 1164 285T974 61T683 -20Q516 -20 393 60T201 285T133 619V837Q133 1027 200 1171T391 1395T681 1476Q849 1476 972 1396T1163 1171T1231 837V619ZM1177 839Q1177 1010 1119 1141T949 1347T681
1422Q525 1422 415 1348T247 1142T188 839V619Q188 448 247 316T416 109T683 34Q840 34 950 109T1119 316T1177 619V839ZM930 1614V1604H862L675 1800L490 1604H426V1618L656 1857H696L930 1614Z" />
<glyph unicode="&#xd5;" horiz-adv-x="1364" d="M1231 619Q1231 429 1164 285T974 61T683 -20Q516 -20 393 60T201 285T133 619V837Q133 1027 200 1171T391 1395T681 1476Q849 1476 972 1396T1163 1171T1231 837V619ZM1177 839Q1177 1010 1119 1141T949 1347T681
1422Q525 1422 415 1348T247 1142T188 839V619Q188 448 247 316T416 109T683 34Q840 34 950 109T1119 316T1177 619V839ZM1004 1827Q1004 1772 981 1730T917 1665T828 1641Q774 1641 739 1660T675 1703T616 1747T541 1766Q491 1766 456 1735T420 1641H365Q365 1696
388 1736T452 1798T541 1820Q593 1820 629 1802T694 1758T755 1715T828 1696Q878 1696 913 1730T949 1827H1004Z" />
<glyph unicode="&#xd6;" horiz-adv-x="1364" d="M1231 619Q1231 429 1164 285T974 61T683 -20Q516 -20 393 60T201 285T133 619V837Q133 1027 200 1171T391 1395T681 1476Q849 1476 972 1396T1163 1171T1231 837V619ZM1177 839Q1177 1010 1119 1141T949 1347T681
1422Q525 1422 415 1348T247 1142T188 839V619Q188 448 247 316T416 109T683 34Q840 34 950 109T1119 316T1177 619V839ZM400 1761Q400 1784 416 1800T455 1817Q478 1817 494 1801T511 1761Q511 1738 495 1722T455 1706Q432 1706 416 1722T400 1761ZM845 1761Q845
1784 861 1800T900 1817Q923 1817 939 1801T956 1761Q956 1738 940 1722T900 1706Q877 1706 861 1722T845 1761Z" />
<glyph unicode="&#xd7;" horiz-adv-x="1052" d="M98 36L877 832L916 793L137 -1L98 36ZM125 793L164 832L944 36L905 -1L125 793Z" />
<glyph unicode="&#xd8;" horiz-adv-x="1364" d="M243 -75H177L1174 1495H1240L243 -75ZM1231 619Q1231 429 1164 285T974 61T683 -20Q516 -20 393 60T201 285T133 619V837Q133 1027 200 1171T391 1395T681 1476Q849 1476 972 1396T1163 1171T1231 837V619ZM1177
839Q1177 1010 1119 1141T949 1347T681 1422Q525 1422 415 1348T247 1142T188 839V619Q188 448 247 316T416 109T683 34Q840 34 950 109T1119 316T1177 619V839Z" />
<glyph unicode="&#xd9;" horiz-adv-x="1365" d="M1180 1456V469Q1180 306 1115 197T938 34T683 -20Q541 -20 429 34T251 197T185 469V1456H239V469Q239 329 297 232T456 84T683 34Q809 34 909 84T1068 231T1126 469V1456H1180ZM751 1589H692L497 1855H563L751 1589Z" />
<glyph unicode="&#xda;" horiz-adv-x="1365" d="M1180 1456V469Q1180 306 1115 197T938 34T683 -20Q541 -20 429 34T251 197T185 469V1456H239V469Q239 329 297 232T456 84T683 34Q809 34 909 84T1068 231T1126 469V1456H1180ZM840 1855H906L711 1589H651L840 1855Z" />
<glyph unicode="&#xdb;" horiz-adv-x="1365" d="M1180 1456V469Q1180 306 1115 197T938 34T683 -20Q541 -20 429 34T251 197T185 469V1456H239V469Q239 329 297 232T456 84T683 34Q809 34 909 84T1068 231T1126 469V1456H1180ZM951 1593V1583H883L696 1779L511
1583H447V1597L677 1836H717L951 1593Z" />
<glyph unicode="&#xdc;" horiz-adv-x="1365" d="M1180 1456V469Q1180 306 1115 197T938 34T683 -20Q541 -20 429 34T251 197T185 469V1456H239V469Q239 329 297 232T456 84T683 34Q809 34 909 84T1068 231T1126 469V1456H1180ZM421 1740Q421 1763 437 1779T476
1796Q499 1796 515 1780T532 1740Q532 1717 516 1701T476 1685Q453 1685 437 1701T421 1740ZM866 1740Q866 1763 882 1779T921 1796Q944 1796 960 1780T977 1740Q977 1717 961 1701T921 1685Q898 1685 882 1701T866 1740Z" />
<glyph unicode="&#xdd;" horiz-adv-x="1223" d="M609 602L1119 1456H1185L636 553V0H582V553L33 1456H105L609 602ZM751 1844H817L622 1578H562L751 1844Z" />
<glyph unicode="&#xde;" horiz-adv-x="1219" d="M254 1456V0H200V1456H254ZM625 1143Q771 1143 871 1090T1023 946T1075 738Q1075 622 1023 531T871 387T625 334H213V388H625Q766 388 853 440T980 573T1021 736Q1021 823 981 904T853 1037T625 1089H232L218 1143H625Z" />
<glyph unicode="&#xdf;" horiz-adv-x="1183" d="M218 0H164V1143Q164 1333 249 1434T493 1535Q572 1535 643 1501T759 1404T804 1257Q804 1186 786 1139T745 1050T703 958T685 829Q685 767 723 720T817 630T930 542T1024 438T1062 297Q1062 196 1005 125T862 17T695
-21Q637 -21 575 -9T462 23T383 68L408 117Q448 86 528 59T687 32Q781 32 853 70T967 170T1008 306Q1008 375 970 426T876 519T764 606T669 703T631 831Q631 908 648 960T687 1054T727 1144T744 1259Q744 1322 709 1372T619 1451T503 1481Q374 1481 296 1405T218
1143V0Z" />
<glyph unicode="&#xe0;" horiz-adv-x="1081" d="M851 762Q851 897 765 972T521 1048Q423 1048 345 1014T221 919T175 784L121 786Q121 871 172 942T314 1058T521 1102Q634 1102 720 1064T856 950T905 760V218Q905 160 912 101T933 9V0H871Q861 39 856 94T851 203V762ZM877
549H595Q386 549 266 471T146 270Q146 172 224 103T425 33Q539 33 627 70T776 176T869 337L893 287Q874 231 837 177T741 78T605 7T425 -20Q324 -20 249 17T133 121T92 274Q92 419 224 511T592 604H875L877 549ZM631 1269H572L377 1535H443L631 1269Z" />
<glyph unicode="&#xe1;" horiz-adv-x="1081" d="M851 762Q851 897 765 972T521 1048Q423 1048 345 1014T221 919T175 784L121 786Q121 871 172 942T314 1058T521 1102Q634 1102 720 1064T856 950T905 760V218Q905 160 912 101T933 9V0H871Q861 39 856 94T851 203V762ZM877
549H595Q386 549 266 471T146 270Q146 172 224 103T425 33Q539 33 627 70T776 176T869 337L893 287Q874 231 837 177T741 78T605 7T425 -20Q324 -20 249 17T133 121T92 274Q92 419 224 511T592 604H875L877 549ZM720 1535H786L591 1269H531L720 1535Z" />
<glyph unicode="&#xe2;" horiz-adv-x="1081" d="M851 762Q851 897 765 972T521 1048Q423 1048 345 1014T221 919T175 784L121 786Q121 871 172 942T314 1058T521 1102Q634 1102 720 1064T856 950T905 760V218Q905 160 912 101T933 9V0H871Q861 39 856 94T851 203V762ZM877
549H595Q386 549 266 471T146 270Q146 172 224 103T425 33Q539 33 627 70T776 176T869 337L893 287Q874 231 837 177T741 78T605 7T425 -20Q324 -20 249 17T133 121T92 274Q92 419 224 511T592 604H875L877 549ZM831 1273V1263H763L576 1459L391 1263H327V1277L557
1516H597L831 1273Z" />
<glyph unicode="&#xe3;" horiz-adv-x="1081" d="M851 762Q851 897 765 972T521 1048Q423 1048 345 1014T221 919T175 784L121 786Q121 871 172 942T314 1058T521 1102Q634 1102 720 1064T856 950T905 760V218Q905 160 912 101T933 9V0H871Q861 39 856 94T851 203V762ZM877
549H595Q386 549 266 471T146 270Q146 172 224 103T425 33Q539 33 627 70T776 176T869 337L893 287Q874 231 837 177T741 78T605 7T425 -20Q324 -20 249 17T133 121T92 274Q92 419 224 511T592 604H875L877 549ZM905 1486Q905 1431 882 1389T818 1324T729 1300Q675
1300 640 1319T576 1362T517 1406T442 1425Q392 1425 357 1394T321 1300H266Q266 1355 289 1395T353 1457T442 1479Q494 1479 530 1461T595 1417T656 1374T729 1355Q779 1355 814 1389T850 1486H905Z" />
<glyph unicode="&#xe4;" horiz-adv-x="1081" d="M851 762Q851 897 765 972T521 1048Q423 1048 345 1014T221 919T175 784L121 786Q121 871 172 942T314 1058T521 1102Q634 1102 720 1064T856 950T905 760V218Q905 160 912 101T933 9V0H871Q861 39 856 94T851 203V762ZM877
549H595Q386 549 266 471T146 270Q146 172 224 103T425 33Q539 33 627 70T776 176T869 337L893 287Q874 231 837 177T741 78T605 7T425 -20Q324 -20 249 17T133 121T92 274Q92 419 224 511T592 604H875L877 549ZM301 1676Q301 1699 317 1715T356 1732Q379 1732
395 1716T412 1676Q412 1653 396 1637T356 1621Q333 1621 317 1637T301 1676ZM746 1676Q746 1699 762 1715T801 1732Q824 1732 840 1716T857 1676Q857 1653 841 1637T801 1621Q778 1621 762 1637T746 1676Z" />
<glyph unicode="&#xe5;" horiz-adv-x="1081" d="M851 762Q851 897 765 972T521 1048Q423 1048 345 1014T221 919T175 784L121 786Q121 871 172 942T314 1058T521 1102Q634 1102 720 1064T856 950T905 760V218Q905 160 912 101T933 9V0H871Q861 39 856 94T851 203V762ZM877
549H595Q386 549 266 471T146 270Q146 172 224 103T425 33Q539 33 627 70T776 176T869 337L893 287Q874 231 837 177T741 78T605 7T425 -20Q324 -20 249 17T133 121T92 274Q92 419 224 511T592 604H875L877 549ZM408 1381Q408 1455 457 1505T579 1555Q650 1555
700 1505T750 1381Q750 1308 700 1260T579 1211Q507 1211 458 1259T408 1381ZM462 1381Q462 1329 495 1297T579 1265Q630 1265 663 1297T696 1381Q696 1434 663 1467T579 1501Q528 1501 495 1468T462 1381Z" />
<glyph unicode="&#xe6;" horiz-adv-x="1735" d="M813 720Q813 876 742 962T521 1048Q355 1048 265 969T174 771L121 778Q121 872 170 945T309 1060T521 1102Q679 1102 773 1006T868 718V218L813 183V720ZM838 575H525Q396 575 313 534T189 426T148 280Q148 165
225 99T447 32Q519 32 582 52T695 104T776 168T814 229L869 218Q845 165 790 110T650 17T448 -20Q277 -20 185 63T93 284Q93 438 202 534T523 630H838V575ZM1268 -20Q1122 -20 1021 47T868 231T815 500V564Q815 722 872 843T1029 1033T1253 1102Q1442 1102 1549
984T1657 660V577H850V632H1603V664Q1603 772 1564 859T1447 997T1253 1048Q1134 1048 1048 983T916 808T870 564V500Q870 371 911 265T1041 97T1268 34Q1375 34 1458 70T1600 164L1630 122Q1595 86 1547 54T1432 1T1268 -20Z" />
<glyph unicode="&#xe7;" horiz-adv-x="1039" d="M539 34Q624 34 700 64T828 160T886 328H940Q935 218 879 140T734 21T539 -20Q399 -20 300 49T149 240T97 520V562Q97 721 149 842T299 1033T537 1102Q642 1102 731 1060T878 933T940 725H886Q881 833 832 904T704
1012T537 1048Q405 1048 320 983T193 807T151 562V520Q151 385 192 275T320 99T539 34ZM575 -10L564 -86Q631 -93 686 -128T741 -255Q741 -340 665 -392T456 -445L449 -396Q503 -396 557 -382T649 -336T686 -255Q686 -189 638 -165T497 -131L522 -10H575Z" />
<glyph unicode="&#xe8;" horiz-adv-x="1032" d="M561 -20Q430 -20 322 49T151 239T87 518V562Q87 720 148 842T313 1033T541 1102Q661 1102 754 1044T899 882T952 640V577H122V631H898V644Q898 753 854 844T730 992T541 1048Q422 1048 332 983T191 807T141 562V518Q141
383 196 273T347 98T561 33Q654 33 734 64T882 182L920 155Q866 78 779 29T561 -20ZM621 1268H562L367 1534H433L621 1268Z" />
<glyph unicode="&#xe9;" horiz-adv-x="1032" d="M561 -20Q430 -20 322 49T151 239T87 518V562Q87 720 148 842T313 1033T541 1102Q661 1102 754 1044T899 882T952 640V577H122V631H898V644Q898 753 854 844T730 992T541 1048Q422 1048 332 983T191 807T141 562V518Q141
383 196 273T347 98T561 33Q654 33 734 64T882 182L920 155Q866 78 779 29T561 -20ZM710 1534H776L581 1268H521L710 1534Z" />
<glyph unicode="&#xea;" horiz-adv-x="1032" d="M561 -20Q430 -20 322 49T151 239T87 518V562Q87 720 148 842T313 1033T541 1102Q661 1102 754 1044T899 882T952 640V577H122V631H898V644Q898 753 854 844T730 992T541 1048Q422 1048 332 983T191 807T141 562V518Q141
383 196 273T347 98T561 33Q654 33 734 64T882 182L920 155Q866 78 779 29T561 -20ZM821 1272V1262H753L566 1458L381 1262H317V1276L547 1515H587L821 1272Z" />
<glyph unicode="&#xeb;" horiz-adv-x="1032" d="M561 -20Q430 -20 322 49T151 239T87 518V562Q87 720 148 842T313 1033T541 1102Q661 1102 754 1044T899 882T952 640V577H122V631H898V644Q898 753 854 844T730 992T541 1048Q422 1048 332 983T191 807T141 562V518Q141
383 196 273T347 98T561 33Q654 33 734 64T882 182L920 155Q866 78 779 29T561 -20ZM291 1675Q291 1698 307 1714T346 1731Q369 1731 385 1715T402 1675Q402 1652 386 1636T346 1620Q323 1620 307 1636T291 1675ZM736 1675Q736 1698 752 1714T791 1731Q814 1731
830 1715T847 1675Q847 1652 831 1636T791 1620Q768 1620 752 1636T736 1675Z" />
<glyph unicode="&#xec;" horiz-adv-x="406" d="M235 0H181V1082H235V0ZM263 1246H204L9 1512H75L263 1246Z" />
<glyph unicode="&#xed;" horiz-adv-x="406" d="M235 0H181V1082H235V0ZM352 1512H418L223 1246H163L352 1512Z" />
<glyph unicode="&#xee;" horiz-adv-x="406" d="M235 0H181V1082H235V0ZM463 1250V1240H395L208 1436L23 1240H-41V1254L189 1493H229L463 1250Z" />
<glyph unicode="&#xef;" horiz-adv-x="406" d="M235 0H181V1082H235V0ZM-67 1397Q-67 1420 -51 1436T-12 1453Q11 1453 27 1437T44 1397Q44 1374 28 1358T-12 1342Q-35 1342 -51 1358T-67 1397ZM378 1397Q378 1420 394 1436T433 1453Q456 1453 472 1437T489 1397Q489
1374 473 1358T433 1342Q410 1342 394 1358T378 1397Z" />
<glyph unicode="&#xf0;" horiz-adv-x="1183" d="M358 1577Q587 1493 738 1367T965 1056T1041 615V535Q1041 371 988 246T842 50T629 -20Q495 -20 392 45T231 220T173 465Q173 620 224 729T371 895T601 953Q713 953 813 910T976 784T1039 583L1008 574Q1008 621
984 676T910 781T783 863T601 895Q470 895 388 838T267 683T228 465Q228 358 275 260T412 100T633 38Q742 38 821 102T943 278T987 535V617Q987 823 938 972T800 1227T594 1404T338 1527L358 1577ZM517 1149L489 1197L962 1461L991 1413L517 1149Z" />
<glyph unicode="&#xf1;" horiz-adv-x="1121" d="M226 0H172V1082H226V851V0ZM188 691Q202 798 257 891T402 1043T610 1102Q720 1102 796 1062T913 933T954 700V0H900V700Q900 838 863 913T759 1019T607 1049Q505 1049 433 1004T314 890T244 752T217 634L188 691ZM906
1484Q906 1429 883 1387T819 1322T730 1298Q676 1298 641 1317T577 1360T518 1404T443 1423Q393 1423 358 1392T322 1298H267Q267 1353 290 1393T354 1455T443 1477Q495 1477 531 1459T596 1415T657 1372T730 1353Q780 1353 815 1387T851 1484H906Z" />
<glyph unicode="&#xf2;" horiz-adv-x="1127" d="M90 562Q90 721 150 842T316 1033T563 1102Q705 1102 811 1033T977 843T1037 562V520Q1037 362 978 240T812 49T565 -20Q424 -20 317 49T150 240T90 520V562ZM144 520Q144 391 194 280T338 102T565 34Q697 34 790
101T933 280T983 520V562Q983 689 933 799T790 979T563 1048Q431 1048 338 979T194 800T144 562V520ZM621 1267H562L367 1533H433L621 1267Z" />
<glyph unicode="&#xf3;" horiz-adv-x="1127" d="M90 562Q90 721 150 842T316 1033T563 1102Q705 1102 811 1033T977 843T1037 562V520Q1037 362 978 240T812 49T565 -20Q424 -20 317 49T150 240T90 520V562ZM144 520Q144 391 194 280T338 102T565 34Q697 34 790
101T933 280T983 520V562Q983 689 933 799T790 979T563 1048Q431 1048 338 979T194 800T144 562V520ZM710 1533H776L581 1267H521L710 1533Z" />
<glyph unicode="&#xf4;" horiz-adv-x="1127" d="M90 562Q90 721 150 842T316 1033T563 1102Q705 1102 811 1033T977 843T1037 562V520Q1037 362 978 240T812 49T565 -20Q424 -20 317 49T150 240T90 520V562ZM144 520Q144 391 194 280T338 102T565 34Q697 34 790
101T933 280T983 520V562Q983 689 933 799T790 979T563 1048Q431 1048 338 979T194 800T144 562V520ZM821 1271V1261H753L566 1457L381 1261H317V1275L547 1514H587L821 1271Z" />
<glyph unicode="&#xf5;" horiz-adv-x="1127" d="M90 562Q90 721 150 842T316 1033T563 1102Q705 1102 811 1033T977 843T1037 562V520Q1037 362 978 240T812 49T565 -20Q424 -20 317 49T150 240T90 520V562ZM144 520Q144 391 194 280T338 102T565 34Q697 34 790
101T933 280T983 520V562Q983 689 933 799T790 979T563 1048Q431 1048 338 979T194 800T144 562V520ZM895 1484Q895 1429 872 1387T808 1322T719 1298Q665 1298 630 1317T566 1360T507 1404T432 1423Q382 1423 347 1392T311 1298H256Q256 1353 279 1393T343 1455T432
1477Q484 1477 520 1459T585 1415T646 1372T719 1353Q769 1353 804 1387T840 1484H895Z" />
<glyph unicode="&#xf6;" horiz-adv-x="1127" d="M90 562Q90 721 150 842T316 1033T563 1102Q705 1102 811 1033T977 843T1037 562V520Q1037 362 978 240T812 49T565 -20Q424 -20 317 49T150 240T90 520V562ZM144 520Q144 391 194 280T338 102T565 34Q697 34 790
101T933 280T983 520V562Q983 689 933 799T790 979T563 1048Q431 1048 338 979T194 800T144 562V520ZM291 1674Q291 1697 307 1713T346 1730Q369 1730 385 1714T402 1674Q402 1651 386 1635T346 1619Q323 1619 307 1635T291 1674ZM736 1674Q736 1697 752 1713T791
1730Q814 1730 830 1714T847 1674Q847 1651 831 1635T791 1619Q768 1619 752 1635T736 1674Z" />
<glyph unicode="&#xf7;" horiz-adv-x="1159" d="M1071 686H73V738H1071V686ZM529 1079Q529 1102 545 1118T584 1135Q607 1135 623 1119T640 1079Q640 1056 624 1040T584 1024Q561 1024 545 1040T529 1079ZM529 301Q529 324 545 340T584 357Q607 357 623 341T640
301Q640 278 624 262T584 246Q561 246 545 262T529 301Z" />
<glyph unicode="&#xf8;" horiz-adv-x="1121" d="M268 -145H205L868 1219H931L268 -145ZM87 562Q87 721 147 842T313 1033T560 1102Q702 1102 808 1033T974 843T1034 562V520Q1034 362 975 240T809 49T562 -20Q421 -20 314 49T147 240T87 520V562ZM141 520Q141
391 191 280T335 102T562 34Q694 34 787 101T930 280T980 520V562Q980 689 930 799T787 979T560 1048Q428 1048 335 979T191 800T141 562V520Z" />
<glyph unicode="&#xf9;" horiz-adv-x="1121" d="M897 1082H952V0H897V250V1082ZM952 425Q952 297 907 197T768 38T524 -20Q365 -20 267 74T168 395V1082H222V393Q222 261 261 182T368 69T522 34Q668 34 752 90T871 235T906 423L952 425ZM634 1270H575L380 1536H446L634
1270Z" />
<glyph unicode="&#xfa;" horiz-adv-x="1121" d="M897 1082H952V0H897V250V1082ZM952 425Q952 297 907 197T768 38T524 -20Q365 -20 267 74T168 395V1082H222V393Q222 261 261 182T368 69T522 34Q668 34 752 90T871 235T906 423L952 425ZM723 1536H789L594 1270H534L723
1536Z" />
<glyph unicode="&#xfb;" horiz-adv-x="1121" d="M897 1082H952V0H897V250V1082ZM952 425Q952 297 907 197T768 38T524 -20Q365 -20 267 74T168 395V1082H222V393Q222 261 261 182T368 69T522 34Q668 34 752 90T871 235T906 423L952 425ZM834 1274V1264H766L579
1460L394 1264H330V1278L560 1517H600L834 1274Z" />
<glyph unicode="&#xfc;" horiz-adv-x="1121" d="M897 1082H952V0H897V250V1082ZM952 425Q952 297 907 197T768 38T524 -20Q365 -20 267 74T168 395V1082H222V393Q222 261 261 182T368 69T522 34Q668 34 752 90T871 235T906 423L952 425ZM304 1421Q304 1444 320
1460T359 1477Q382 1477 398 1461T415 1421Q415 1398 399 1382T359 1366Q336 1366 320 1382T304 1421ZM749 1421Q749 1444 765 1460T804 1477Q827 1477 843 1461T860 1421Q860 1398 844 1382T804 1366Q781 1366 765 1382T749 1421Z" />
<glyph unicode="&#xfd;" horiz-adv-x="978" d="M884 1082H944L463 -180Q450 -214 432 -258T382 -343T302 -410T178 -437Q167 -437 152 -436T121 -432T98 -426L97 -375Q112 -379 136 -381T170 -384Q271 -384 323 -324T409 -170L510 104L884 1082ZM511 64L528 10L485
-21L43 1082H102L511 64ZM662 1536H728L533 1270H473L662 1536Z" />
<glyph unicode="&#xfe;" horiz-adv-x="1121" d="M224 -416H170V1536H224V-416ZM999 531Q999 366 951 242T812 49T593 -20Q471 -20 383 25T241 145T170 305V745Q194 847 248 927T387 1055T591 1102Q720 1102 811 1036T950 846T999 552V531ZM944 552Q944 696 906
808T789 984T592 1048Q490 1048 421 1015T308 929T241 818T206 709V330Q224 248 272 181T400 74T594 34Q712 34 789 98T905 275T944 531V552Z" />
<glyph unicode="&#xff;" horiz-adv-x="978" d="M884 1082H944L463 -180Q450 -214 432 -258T382 -343T302 -410T178 -437Q167 -437 152 -436T121 -432T98 -426L97 -375Q112 -379 136 -381T170 -384Q271 -384 323 -324T409 -170L510 104L884 1082ZM511 64L528 10L485
-21L43 1082H102L511 64ZM243 1421Q243 1444 259 1460T298 1477Q321 1477 337 1461T354 1421Q354 1398 338 1382T298 1366Q275 1366 259 1382T243 1421ZM688 1421Q688 1444 704 1460T743 1477Q766 1477 782 1461T799 1421Q799 1398 783 1382T743 1366Q720 1366
704 1382T688 1421Z" />
<glyph unicode="&#x2013;" horiz-adv-x="1324" d="M1414 721H412V775H1414V721Z" />
<glyph unicode="&#x2014;" horiz-adv-x="1561" d="M1445 721H109V775H1445V721Z" />
<glyph unicode="&#x2018;" horiz-adv-x="320" d="M101 1272Q101 1334 114 1385T152 1478T207 1554L244 1522Q199 1464 177 1408T155 1274V1168H101V1272Z" />
<glyph unicode="&#x2019;" horiz-adv-x="320" d="M220 1433Q220 1372 207 1321T170 1227T114 1151L77 1183Q122 1242 144 1298T166 1431V1536H220V1433Z" />
<glyph unicode="&#x201a;" horiz-adv-x="300" d="M190 100Q190 39 177 -12T140 -106T84 -182L47 -150Q92 -91 114 -35T136 98V228H190V100Z" />
<glyph unicode="&#x201c;" horiz-adv-x="500" d="M351 1272Q351 1334 364 1385T402 1478T457 1554L494 1522Q449 1464 427 1408T405 1274V1168H351V1272ZM281 1272Q281 1334 294 1385T332 1478T387 1554L424 1522Q379 1464 357 1408T335 1274V1168H281V1272Z" />
<glyph unicode="&#x201d;" horiz-adv-x="502" d="M220 1433Q220 1372 207 1321T170 1227T114 1151L77 1183Q122 1242 144 1298T166 1431V1536H220V1433ZM402 1433Q402 1372 389 1321T352 1227T296 1151L259 1183Q304 1242 326 1298T348 1431V1536H402V1433Z" />
<glyph unicode="&#x201e;" horiz-adv-x="481" d="M190 100Q190 39 177 -12T140 -106T84 -182L47 -150Q92 -91 114 -35T136 98V228H190V100ZM361 100Q361 39 348 -12T311 -106T255 -182L218 -150Q263 -91 285 -35T307 98V228H361V100Z" />
<glyph unicode="&#x2022;" horiz-adv-x="635" d="M155 733Q155 802 200 847T321 893Q399 893 444 847T489 733V703Q489 635 444 590T322 545Q245 545 200 590T155 703V733Z" />
<glyph unicode="&#x2039;" horiz-adv-x="604" d="M176 556L108 557V570L403 940H473L176 556ZM473 181H403L108 551V564L176 565L473 181Z" />
<glyph unicode="&#x203a;" horiz-adv-x="604" d="M403 555L470 554V541L176 171H106L403 555ZM176 940L470 560V547L403 546L106 940H176Z" />
</font>
</defs>
</svg>
