<?xml version="1.0" standalone="no"?>
<!DOCTYPE svg PUBLIC "-//W3C//DTD SVG 1.1//EN" "http://www.w3.org/Graphics/SVG/1.1/DTD/svg11.dtd">
<svg xmlns="http://www.w3.org/2000/svg">
<defs >
<font id="Assistant" horiz-adv-x="458" ><font-face
    font-family="Assistant ExtraLight ExtraBold"
    units-per-em="1000"
    panose-1="0 0 0 0 0 0 0 0 0 0"
    ascent="1021"
    descent="-287"
    alphabetic="0" />
<glyph unicode=" " horiz-adv-x="200" />
<glyph unicode="!" horiz-adv-x="360" d="M124 244L100 522L94 670H266L260 522L236 244H124ZM180 -12Q137 -12 109 18T80 92Q80 136 108 166T180 196Q224 196 252 166T280 92Q280 49 252 19T180 -12Z" />
<glyph unicode="&quot;" horiz-adv-x="580" d="M114 324L80 536L74 684H246L240 536L206 324H114ZM374 324L340 536L334 684H506L500 536L466 324H374Z" />
<glyph unicode="#" horiz-adv-x="540" d="M84 0L106 180H34V288H118L130 384H54V492H144L164 650H260L242 492H334L354 650H450L432 492H510V384H418L406 288H490V180H394L372 0H274L296 180H204L182 0H84ZM216 288H308L320 384H228L216 288Z" />
<glyph unicode="$" horiz-adv-x="540" d="M246 -12Q216 -12 178 -4T102 21T34 66L108 182Q149 152 182 139T246 126Q284 126 300 139T316 182Q316 202 298 217T250 247T187 279T125 318T77 372T58 448Q58 509 84 553T160 622T276 646Q342 646 390 622T475 558L390
460Q363 484 339 496T286 508Q254 508 238 497T222 456Q222 437 240 423T288 395T351 365T413 326T461 272T480 194Q480 135 455 89T377 15T246 -12ZM212 -110V60H324V-110H212ZM212 594V744H324V594H212Z" />
<glyph unicode="%" horiz-adv-x="860" d="M208 -12L556 662H652L304 -12H208ZM190 268Q142 268 104 293T44 364T22 476Q22 574 70 628T190 682Q262 682 310 628T358 476Q358 411 336 365T276 293T190 268ZM190 362Q210 362 225 386T240 476Q240 542 225 565T190
588Q171 588 156 565T140 476Q140 410 155 386T190 362ZM670 -12Q622 -12 584 13T524 84T502 196Q502 294 550 348T670 402Q742 402 790 348T838 196Q838 131 816 85T756 13T670 -12ZM670 82Q690 82 705 106T720 196Q720 262 705 285T670 308Q651 308 636 285T620
196Q620 130 635 106T670 82Z" />
<glyph unicode="&amp;" horiz-adv-x="690" d="M246 -12Q171 -12 121 14T47 84T22 176Q22 231 44 269T101 333T175 378T249 416T306 456T328 508Q328 529 319 539T290 550Q270 550 255 534T239 486Q239 450 263 409T327 327T417 248T518 183Q559 161 598 146T670
126L630 -12Q578 -3 523 19T415 75Q351 115 294 166T192 273T123 383T98 486Q98 533 121 573T186 637T286 662Q364 662 411 621T458 508Q458 464 438 431T387 371T321 322T255 280T204 237T184 186Q184 166 194 151T223 127T268 118Q300 118 333 135T398 180Q436
216 466 264T512 374H668Q646 301 609 234T516 104Q468 52 401 20T246 -12Z" />
<glyph unicode="&apos;" horiz-adv-x="320" d="M114 324L80 536L74 684H246L240 536L206 324H114Z" />
<glyph unicode="(" horiz-adv-x="360" d="M200 -180Q137 -76 103 35T68 278Q68 410 102 521T200 736L308 692Q254 595 230 489T206 278Q206 175 230 69T308 -136L200 -180Z" />
<glyph unicode=")" horiz-adv-x="360" d="M160 -180L52 -136Q106 -38 130 68T154 278Q154 382 130 488T52 692L160 736Q223 633 257 522T292 278Q292 146 258 35T160 -180Z" />
<glyph unicode="*" horiz-adv-x="472" d="M152 321L82 372L142 479L30 531L57 614L178 590L192 712H280L294 589L415 614L442 531L329 479L390 372L320 321L236 412L152 321Z" />
<glyph unicode="+" horiz-adv-x="540" d="M208 90V270H34V390H208V570H332V390H506V270H332V90H208Z" />
<glyph unicode="," horiz-adv-x="320" d="M80 -204L46 -114Q107 -94 137 -61T167 10V118L218 27Q206 18 192 13T160 8Q121 8 91 32T60 102Q60 144 90 170T164 196Q220 196 249 155T278 40Q278 -48 228 -112T80 -204Z" />
<glyph unicode="-" horiz-adv-x="340" d="M44 194V314H296V194H44Z" />
<glyph unicode="." horiz-adv-x="320" d="M160 -12Q117 -12 89 18T60 92Q60 136 88 166T160 196Q204 196 232 166T260 92Q260 49 232 19T160 -12Z" />
<glyph unicode="/" horiz-adv-x="334" d="M14 -160L190 710H300L124 -160H14Z" />
<glyph unicode="0" horiz-adv-x="540" d="M270 -12Q165 -12 100 72T34 320Q34 483 99 564T270 646Q375 646 440 564T506 320Q506 157 441 73T270 -12ZM270 120Q290 120 307 135T334 193T344 320Q344 404 334 445T307 500T270 514Q250 514 233 501T206 446T196
320Q196 236 206 193T233 135T270 120Z" />
<glyph unicode="1" horiz-adv-x="492" d="M35 0V138H171V466H51V572Q105 583 143 597T217 634H343V138H457V0H35Z" />
<glyph unicode="2" horiz-adv-x="540" d="M36 0V98Q111 167 171 226T267 335T302 428Q302 471 281 491T224 512Q193 512 168 494T120 452L28 544Q78 597 128 621T248 646Q312 646 361 621T438 548T466 438Q466 387 439 334T369 231T284 136Q308 139 338 141T390
144H496V0H36Z" />
<glyph unicode="3" horiz-adv-x="540" d="M246 -12Q195 -12 153 -1T77 30T20 78L98 186Q127 159 160 143T228 126Q270 126 295 141T320 186Q320 210 308 227T263 253T162 262V382Q215 382 245 391T287 416T300 454Q300 483 283 497T234 512Q203 512 178 499T122
460L36 564Q83 603 133 624T242 646Q312 646 363 625T443 565T472 467Q472 421 447 387T370 330V326Q406 315 433 295T476 244T492 174Q492 114 458 73T368 10T246 -12Z" />
<glyph unicode="4" horiz-adv-x="540" d="M290 0V344Q290 376 292 419T296 494H292Q280 466 267 438T240 380L182 272H518V142H20V262L236 634H450V0H290Z" />
<glyph unicode="5" horiz-adv-x="540" d="M252 -12Q200 -12 158 -1T82 31T22 78L98 186Q127 161 159 144T226 126Q256 126 277 135T309 162T320 208Q320 249 296 269T234 290Q209 290 192 284T146 260L72 308L88 634H464V490H236L228 398Q245 404 258 406T288
408Q343 408 389 387T464 323T492 212Q492 141 459 91T372 15T252 -12Z" />
<glyph unicode="6" horiz-adv-x="540" d="M286 -12Q240 -12 196 5T117 61T60 159T38 306Q38 392 59 456T118 562T202 625T300 646Q368 646 417 622T498 566L408 464Q393 481 366 494T312 508Q279 508 252 489T210 426T194 306Q194 227 208 186T242 131T282 116Q300
116 315 124T340 151T350 204Q350 235 340 251T314 273T280 280Q258 280 236 267T196 220L188 328Q211 363 248 381T314 400Q368 400 411 380T480 316T506 204Q506 136 476 88T396 14T286 -12Z" />
<glyph unicode="7" horiz-adv-x="540" d="M152 0Q158 100 174 180T223 334T316 490H44V634H498V528Q443 464 411 408T361 293T337 164T324 0H152Z" />
<glyph unicode="8" horiz-adv-x="540" d="M268 -12Q204 -12 153 10T72 71T42 162Q42 199 55 226T92 275T146 312V316Q109 345 86 381T62 466Q62 522 89 562T164 624T274 646Q363 646 417 599T472 470Q472 441 461 416T432 372T391 337V333Q422 317 446 294T485
240T500 166Q500 115 471 75T390 12T268 -12ZM272 106Q291 106 306 112T331 133T341 172Q341 195 327 210T287 239T222 268Q208 252 199 229T189 182Q189 157 200 140T231 115T272 106ZM306 378Q320 398 327 417T334 458Q334 480 327 495T305 519T270 528Q247 528
230 514T212 466Q212 445 223 430T255 403T306 378Z" />
<glyph unicode="9" horiz-adv-x="540" d="M238 -12Q171 -12 122 12T40 68L130 170Q145 154 172 140T226 126Q260 126 286 145T328 208T344 328Q344 407 330 448T296 503T256 518Q238 518 223 510T198 483T188 430Q188 400 198 384T224 361T258 354Q281 354 303
367T342 414L350 306Q328 272 290 253T224 234Q170 234 127 254T58 318T32 430Q32 498 62 546T142 620T252 646Q298 646 342 629T421 573T478 475T500 328Q500 242 479 178T420 72T336 9T238 -12Z" />
<glyph unicode=":" horiz-adv-x="320" d="M160 298Q117 298 89 328T60 402Q60 446 88 476T160 506Q204 506 232 476T260 402Q260 359 232 329T160 298ZM160 -12Q117 -12 89 18T60 92Q60 136 88 166T160 196Q204 196 232 166T260 92Q260 49 232 19T160 -12Z" />
<glyph unicode=";" horiz-adv-x="320" d="M160 298Q117 298 89 328T60 402Q60 446 88 476T160 506Q204 506 232 476T260 402Q260 359 232 329T160 298ZM80 -204L46 -114Q107 -94 137 -61T167 10V118L218 27Q206 18 192 13T160 8Q121 8 91 32T60 102Q60 144 90
170T164 196Q220 196 249 155T278 40Q278 -48 228 -112T80 -204Z" />
<glyph unicode="&lt;" horiz-adv-x="540" d="M506 94L34 274V390L506 570V430L344 380L208 334V330L344 284L506 234V94Z" />
<glyph unicode="=" horiz-adv-x="540" d="M34 390V510H506V390H34ZM34 406V526H506V406H34Z" />
<glyph unicode="&gt;" horiz-adv-x="540" d="M34 94V234L196 284L332 330V334L196 380L34 430V570L506 390V274L34 94Z" />
<glyph unicode="?" horiz-adv-x="478" d="M152 244Q146 283 156 314T186 370T225 416T260 456T274 494Q274 512 267 523T246 539T218 544Q193 544 175 532T136 502L42 588Q79 630 129 656T240 682Q295 682 340 665T411 608T438 506Q438 470 424 443T388 394T346
349T312 302T302 244H152ZM226 -12Q183 -12 155 18T126 92Q126 136 154 166T226 196Q270 196 298 166T326 92Q326 49 298 19T226 -12Z" />
<glyph unicode="@" horiz-adv-x="924" d="M438 -178Q362 -178 292 -155T167 -85T80 34T48 206Q48 313 84 399T185 548T333 644T512 678Q623 678 705 631T831 502T876 312Q876 242 855 190T798 104T721 52T638 34Q594 34 561 54T518 110H516Q497 80 462 62T396
44Q335 44 298 86T260 198Q260 246 276 291T320 371T386 427T466 448Q490 448 509 437T540 398H542L558 440H662L614 212Q596 138 656 138Q686 138 712 159T754 218T770 308Q770 359 756 407T710 493T626 553T498 576Q435 576 375 550T267 476T191 361T162 210Q162
136 186 82T251 -7T344 -59T452 -76Q488 -76 529 -66T600 -40L636 -132Q590 -156 541 -167T438 -178ZM434 150Q448 150 461 159T490 190L512 316Q507 327 497 333T472 340Q446 340 427 319T398 266T388 208Q388 180 400 165T434 150Z" />
<glyph unicode="A" horiz-adv-x="584" d="M-10 0L188 650H396L594 0H412L338 316Q326 363 314 418T290 522H286Q276 473 264 418T240 316L166 0H-10ZM132 138V271H450V138H132Z" />
<glyph unicode="B" horiz-adv-x="612" d="M72 0V650H306Q374 650 430 636T519 587T552 488Q552 446 530 405T470 348V344Q517 331 549 294T582 192Q582 125 547 83T454 20T326 0H72ZM244 132H314Q365 132 389 150T414 204Q414 240 390 255T314 270H244V132ZM244
396H302Q344 396 364 414T384 462Q384 492 364 505T302 518H244V396Z" />
<glyph unicode="C" horiz-adv-x="586" d="M354 -12Q271 -12 201 24T87 135T44 320Q44 402 69 465T139 573T240 639T358 662Q423 662 474 637T560 576L470 466Q446 487 421 500T362 514Q324 514 292 492T240 427T220 326Q220 265 237 223T286 158T360 136Q398 136
427 153T478 192L568 84Q527 36 472 12T354 -12Z" />
<glyph unicode="D" horiz-adv-x="642" d="M72 0V650H264Q363 650 438 618T556 514T598 328Q598 213 556 141T441 34T274 0H72ZM244 138H254Q301 138 339 154T399 211T422 328Q422 404 400 443T339 497T254 512H244V138Z" />
<glyph unicode="E" horiz-adv-x="556" d="M72 0V650H492V506H244V404H456V260H244V144H502V0H72Z" />
<glyph unicode="F" horiz-adv-x="536" d="M72 0V650H496V506H244V382H460V238H244V0H72Z" />
<glyph unicode="G" horiz-adv-x="646" d="M372 -12Q281 -12 207 24T88 135T44 320Q44 402 70 465T141 573T244 639T368 662Q440 662 493 637T580 576L490 466Q466 487 440 500T374 514Q330 514 295 492T240 427T220 326Q220 265 238 223T294 158T390 136Q404 136
417 139T440 148V238H344V378H592V68Q558 35 500 12T372 -12Z" />
<glyph unicode="H" horiz-adv-x="682" d="M72 0V650H244V408H438V650H610V0H438V258H244V0H72Z" />
<glyph unicode="I" horiz-adv-x="316" d="M72 0V650H244V0H72Z" />
<glyph unicode="J" horiz-adv-x="520" d="M232 -12Q153 -12 100 18T10 111L126 198Q143 167 165 152T208 136Q243 136 261 157T280 240V650H452V226Q452 161 429 107T356 21T232 -12Z" />
<glyph unicode="K" horiz-adv-x="628" d="M72 0V650H244V408H248L412 650H600L406 386L638 0H450L306 250L244 162V0H72Z" />
<glyph unicode="L" horiz-adv-x="530" d="M72 0V650H244V144H490V0H72Z" />
<glyph unicode="M" horiz-adv-x="776" d="M72 0V650H256L354 384Q363 357 371 328T388 270H392Q401 299 409 328T426 384L520 650H704V0H548V192Q548 225 552 266T561 350T570 424H566L512 268L432 53H340L260 268L208 424H204Q208 392 213 350T222 267T226 192V0H72Z" />
<glyph unicode="N" horiz-adv-x="672" d="M72 0V650H248L392 360L454 214H458Q452 267 444 334T436 462V650H600V0H424L280 291L218 436H214Q220 381 228 315T236 188V0H72Z" />
<glyph unicode="O" horiz-adv-x="692" d="M346 -12Q256 -12 188 28T82 145T44 328Q44 435 82 509T188 623T346 662Q436 662 504 623T610 510T648 328Q648 221 610 145T504 29T346 -12ZM346 136Q385 136 413 159T457 226T472 328Q472 387 457 428T414 492T346 514Q307
514 279 492T235 429T220 328Q220 269 235 226T278 160T346 136Z" />
<glyph unicode="P" horiz-adv-x="608" d="M72 0V650H310Q381 650 441 630T537 563T574 434Q574 355 538 305T442 230T314 206H244V0H72ZM244 342H306Q357 342 381 366T406 434Q406 478 379 496T302 514H244V342Z" />
<glyph unicode="Q" horiz-adv-x="692" d="M346 -12Q256 -12 188 28T82 145T44 328Q44 435 82 509T188 623T346 662Q436 662 504 623T610 510T648 328Q648 221 610 145T504 29T346 -12ZM566 -188Q454 -188 377 -133T264 6L438 24Q450 -5 474 -21T528 -45T586 -52Q607
-52 626 -49T660 -40L690 -164Q671 -174 639 -181T566 -188ZM346 128Q385 128 413 151T457 219T472 328Q472 387 457 428T414 492T346 514Q307 514 279 492T235 429T220 328Q220 264 235 220T278 152T346 128Z" />
<glyph unicode="R" horiz-adv-x="630" d="M72 0V650H318Q388 650 447 632T542 567T578 440Q578 362 542 313T447 241T318 218H244V0H72ZM422 0L287 263L403 377L614 0H422ZM244 354H306Q357 354 383 376T410 440Q410 482 384 498T306 514H244V354Z" />
<glyph unicode="S" horiz-adv-x="564" d="M278 -12Q217 -12 151 11T32 81L130 199Q165 171 205 154T282 136Q321 136 338 148T356 182Q356 198 346 207T316 225T268 245L187 279Q152 293 122 317T74 377T56 460Q56 516 87 561T172 634T298 662Q354 662 411 641T514
575L428 467Q395 490 365 502T298 514Q267 514 249 503T230 470Q230 455 241 445T275 426T326 405L405 374Q446 358 474 334T517 275T532 196Q532 141 503 94T416 17T278 -12Z" />
<glyph unicode="T" horiz-adv-x="564" d="M196 0V506H24V650H540V506H368V0H196Z" />
<glyph unicode="U" horiz-adv-x="672" d="M338 -12Q270 -12 219 8T135 68T85 169T68 314V650H240V294Q240 236 250 202T282 152T338 136Q372 136 394 151T427 201T438 294V650H604V314Q604 231 588 170T540 68T457 8T338 -12Z" />
<glyph unicode="V" horiz-adv-x="572" d="M182 0L-10 650H172L240 366Q254 314 264 264T288 160H292Q306 213 316 263T340 366L406 650H582L390 0H182Z" />
<glyph unicode="W" horiz-adv-x="824" d="M124 0L10 650H186L222 366Q227 315 233 264T244 162H248Q257 213 266 264T284 366L346 650H490L552 366Q561 317 570 266T588 162H592Q597 214 603 265T614 366L650 650H814L706 0H488L438 258Q431 296 425 335T414 410H410Q405
374 400 335T386 258L338 0H124Z" />
<glyph unicode="X" horiz-adv-x="588" d="M10 0L186 334L20 650H212L256 544Q267 522 278 495T302 436H306Q317 468 327 495T346 544L384 650H568L402 326L578 0H386L334 116Q322 142 311 168T288 224H284Q274 194 264 168T242 116L194 0H10Z" />
<glyph unicode="Y" horiz-adv-x="544" d="M186 0V224L-10 650H174L222 514Q234 477 246 442T271 369H275Q288 407 300 442T326 514L374 650H554L358 224V0H186Z" />
<glyph unicode="Z" horiz-adv-x="542" d="M32 0V104L298 506H58V650H510V546L244 144H512V0H32Z" />
<glyph unicode="[" horiz-adv-x="360" d="M84 -152V708H308V618H212V-62H308V-152H84Z" />
<glyph unicode="\" horiz-adv-x="334" d="M210 -160L34 710H144L320 -160H210Z" />
<glyph unicode="]" horiz-adv-x="360" d="M52 -152V-62H148V618H52V708H276V-152H52Z" />
<glyph unicode="^" horiz-adv-x="540" d="M46 270L202 670H338L494 270H354L316 380L272 516H268L224 380L186 270H46Z" />
<glyph unicode="_" horiz-adv-x="500" d="M12 -146V-52H488V-146H12Z" />
<glyph unicode="`" horiz-adv-x="560" d="M260 572L70 730L186 844L344 656L260 572Z" />
<glyph unicode="a" horiz-adv-x="536" d="M188 -12Q141 -12 108 9T56 66T38 142Q38 220 102 264T310 324Q308 342 300 353T277 370T240 376Q213 376 183 366T114 334L54 446Q89 467 125 482T198 504T274 512Q339 512 385 488T457 412T482 278V0H342L330 48H326Q296
21 263 5T188 -12ZM248 120Q269 120 283 129T310 154V222Q269 216 246 206T212 183T202 156Q202 139 214 130T248 120Z" />
<glyph unicode="b" horiz-adv-x="580" d="M336 -12Q303 -12 271 4T210 54H206L192 0H58V696H230V534L226 462Q252 486 284 499T349 512Q408 512 452 481T520 393T544 259Q544 173 514 112T437 20T336 -12ZM294 128Q314 128 331 140T358 180T368 256Q368 297 360
322T337 360T298 372Q279 372 263 364T230 336V152Q245 139 261 134T294 128Z" />
<glyph unicode="c" horiz-adv-x="472" d="M284 -12Q213 -12 156 19T66 108T32 250Q32 333 69 391T168 481T300 512Q345 512 381 498T446 460L366 350Q350 364 337 369T310 374Q278 374 255 359T220 316T208 250Q208 212 221 184T255 141T304 126Q325 126 345 135T384
158L450 46Q413 13 368 1T284 -12Z" />
<glyph unicode="d" horiz-adv-x="580" d="M240 -12Q147 -12 92 58T36 250Q36 332 65 390T142 480T240 512Q281 512 307 499T356 462L350 534V696H522V0H382L370 46H366Q341 21 307 5T240 -12ZM286 128Q306 128 321 135T350 164V348Q335 362 317 367T282 372Q264
372 248 361T222 323T212 252Q212 185 232 157T286 128Z" />
<glyph unicode="e" horiz-adv-x="526" d="M290 -12Q217 -12 159 19T66 108T32 250Q32 331 66 389T156 480T272 512Q346 512 394 480T466 392T490 270Q490 248 488 228T483 198H168L166 310H344Q344 339 330 360T276 382Q254 382 234 370T201 329T188 250Q188 197
207 169T255 129T314 118Q340 118 364 125T416 148L472 46Q432 18 382 3T290 -12Z" />
<glyph unicode="f" horiz-adv-x="360" d="M88 0V506Q88 560 106 606T168 680T286 708Q321 708 348 702T392 690L362 564Q350 569 337 571T312 574Q288 574 274 561T260 512V0H88ZM22 366V494L98 500H344V366H22Z" />
<glyph unicode="g" horiz-adv-x="546" d="M240 -206Q183 -206 135 -194T59 -154T30 -82Q30 -51 48 -28T100 14V18Q81 32 68 52T54 104Q54 130 69 155T110 198V202Q83 220 63 253T42 330Q42 392 72 432T152 492T256 512Q277 512 297 509T336 500H522V376H450Q453
367 455 353T458 324Q458 265 431 229T358 175T256 158Q244 158 231 159T200 165Q193 158 191 153T188 136Q188 120 204 113T258 106H333Q427 106 478 76T530 -24Q530 -78 495 -119T394 -183T240 -206ZM268 -100Q296 -100 318 -95T353 -79T366 -54Q366 -34 349
-29T299 -24H260Q230 -24 215 -23T188 -18Q179 -27 175 -35T170 -54Q170 -78 197 -89T268 -100ZM256 260Q272 260 284 267T303 290T310 330Q310 353 303 368T284 390T256 398Q232 398 217 382T202 330Q202 306 209 291T228 268T256 260Z" />
<glyph unicode="h" horiz-adv-x="582" d="M58 0V696H230V534L222 448Q248 471 284 491T372 512Q455 512 491 457T528 308V0H356V286Q356 334 344 350T306 366Q282 366 266 356T230 328V0H58Z" />
<glyph unicode="i" horiz-adv-x="288" d="M58 0V500H230V0H58ZM144 562Q104 562 78 586T52 648Q52 686 78 710T144 734Q185 734 210 710T236 648Q236 611 211 587T144 562Z" />
<glyph unicode="j" horiz-adv-x="290" d="M44 -188Q10 -188 -11 -184T-50 -174L-20 -48Q-9 -51 -1 -52T16 -54Q43 -54 54 -37T66 20L68 500H240L238 26Q238 -30 221 -79T162 -158T44 -188ZM44 -188Q10 -188 -11 -184T-50 -174L-20 -48Q-9 -51 -1 -52T16 -54Q43
-54 54 -37T66 20L68 500H240L238 26Q238 -30 221 -79T162 -158T44 -188ZM146 562Q106 562 80 586T54 648Q54 686 80 710T146 734Q187 734 212 710T238 648Q238 611 213 587T146 562Z" />
<glyph unicode="k" horiz-adv-x="568" d="M58 0V696H226V326H230L368 500H554L376 292L564 0H378L278 178L226 120V0H58Z" />
<glyph unicode="l" horiz-adv-x="298" d="M212 -12Q154 -12 121 11T73 77T58 176V696H230V170Q230 145 239 136T258 126Q263 126 266 126T276 128L296 2Q283 -4 262 -8T212 -12Z" />
<glyph unicode="m" horiz-adv-x="868" d="M58 0V500H198L210 439H214Q244 468 278 490T364 512Q415 512 448 492T502 432Q533 464 569 488T656 512Q739 512 776 457T814 308V0H642V286Q642 334 630 350T592 366Q577 366 560 357T522 328V0H350V286Q350 334 338
350T300 366Q268 366 230 328V0H58Z" />
<glyph unicode="n" horiz-adv-x="582" d="M58 0V500H198L210 440H214Q244 469 282 490T372 512Q455 512 491 457T528 308V0H356V286Q356 334 344 350T306 366Q282 366 266 356T230 328V0H58Z" />
<glyph unicode="o" horiz-adv-x="560" d="M280 -12Q216 -12 160 19T68 108T32 250Q32 333 67 391T159 481T280 512Q344 512 400 481T492 392T528 250Q528 167 493 109T401 19T280 -12ZM280 126Q306 126 322 141T345 184T352 250Q352 288 345 316T322 359T280 374Q254
374 238 359T215 316T208 250Q208 212 215 184T238 141T280 126Z" />
<glyph unicode="p" horiz-adv-x="580" d="M58 -176V500H198L210 454H214Q242 480 277 496T350 512Q409 512 452 481T520 392T544 258Q544 172 514 112T437 20T336 -12Q305 -12 277 1T224 38L230 -38V-176H58ZM294 128Q314 128 331 140T358 180T368 256Q368 297
360 322T337 360T298 372Q279 372 263 364T230 336V152Q245 139 261 134T294 128Z" />
<glyph unicode="q" horiz-adv-x="580" d="M350 -176V-33L356 38Q334 16 302 2T240 -12Q147 -12 92 58T36 250Q36 332 65 390T142 480T240 512Q280 512 311 498T370 450H374L388 500H522V-176H350ZM286 128Q306 128 321 135T350 164V348Q335 362 317 367T282 372Q264
372 248 361T222 323T212 252Q212 185 232 157T286 128Z" />
<glyph unicode="r" horiz-adv-x="418" d="M58 0V500H198L210 414H214Q242 465 280 488T356 512Q379 512 393 510T418 502L390 354Q377 357 364 359T334 362Q307 362 278 344T230 278V0H58Z" />
<glyph unicode="s" horiz-adv-x="452" d="M212 -12Q164 -12 111 7T18 58L94 164Q129 139 159 127T216 114Q243 114 254 121T266 144Q266 157 253 166T217 184T170 202Q141 214 112 232T64 280T44 350Q44 424 99 468T242 512Q304 512 348 492T426 446L350 344Q323
364 297 375T248 386Q226 386 215 380T204 358Q204 345 217 337T251 321T298 304Q328 293 357 275T406 228T426 154Q426 107 402 70T330 10T212 -12Z" />
<glyph unicode="t" horiz-adv-x="400" d="M264 -12Q167 -12 124 44T80 192V366H14V494L90 500L110 630H252V500H366V366H252V195Q252 154 270 138T312 122Q324 122 335 124T356 130L382 6Q363 0 334 -6T264 -12Z" />
<glyph unicode="u" horiz-adv-x="578" d="M210 -12Q128 -12 91 43T54 192V500H226V214Q226 166 238 150T276 134Q300 134 316 144T348 178V500H520V0H380L368 66H364Q334 30 298 9T210 -12Z" />
<glyph unicode="v" horiz-adv-x="544" d="M176 0L12 500H184L238 282Q247 245 256 206T274 126H278Q287 167 296 206T314 282L368 500H532L374 0H176Z" />
<glyph unicode="w" horiz-adv-x="798" d="M144 0L24 500H194L232 290Q238 253 242 215T252 138H256Q262 177 268 215T284 290L330 500H476L524 290Q533 253 540 215T554 138H558Q564 177 568 215T578 290L616 500H774L660 0H460L424 174Q418 209 412 244T400 321H396Q390
280 385 245T374 174L340 0H144Z" />
<glyph unicode="x" horiz-adv-x="540" d="M14 0L164 260L22 500H206L242 430Q252 409 262 387T282 344H286Q293 365 301 387T316 430L340 500H518L376 240L526 0H342L302 70Q291 91 280 113T258 156H254Q246 135 237 114T220 70L192 0H14Z" />
<glyph unicode="y" horiz-adv-x="542" d="M132 -188Q107 -188 90 -185T56 -178L86 -48Q93 -49 102 -51T118 -54Q153 -54 171 -40T196 -4L202 18L12 500H184L244 308Q255 274 263 239T280 166H284Q292 202 299 237T316 308L366 500H530L362 8Q336 -59 307 -102T236
-167T132 -188Z" />
<glyph unicode="z" horiz-adv-x="474" d="M40 0V92L230 366H62V500H444V408L254 134H450V0H40Z" />
<glyph unicode="{" horiz-adv-x="360" d="M238 -152Q169 -152 138 -120T106 -6Q106 29 108 53T113 101T116 156Q116 182 97 204T30 228V328Q62 329 81 340T108 367T116 400Q116 431 114 454T109 502T106 562Q106 645 137 676T238 708H308V618H292Q264 618 254
607T244 556Q244 518 246 481T248 400Q248 340 228 315T168 280V276Q208 267 228 242T248 156Q248 113 246 76T244 0Q244 -39 254 -50T292 -62H308V-152H238Z" />
<glyph unicode="|" horiz-adv-x="278" d="M84 -250V750H194V-250H84Z" />
<glyph unicode="}" horiz-adv-x="360" d="M52 -152V-62H68Q96 -62 106 -51T116 0Q116 38 114 75T112 156Q112 216 132 241T192 276V280Q152 289 132 314T112 400Q112 444 114 481T116 556Q116 595 106 606T68 618H52V708H122Q191 708 222 677T254 562Q254 527
252 503T247 455T244 400Q244 383 252 367T279 340T330 328V228Q282 227 263 205T244 156Q244 125 246 102T251 54T254 -6Q254 -88 223 -120T122 -152H52Z" />
<glyph unicode="~" horiz-adv-x="540" d="M354 234Q323 234 300 245T258 270T222 295T184 306Q165 306 147 291T114 250L26 318Q67 378 107 402T186 426Q218 426 241 415T282 390T318 365T356 354Q376 354 393 369T426 410L514 342Q474 282 434 258T354 234Z" />
<glyph unicode="&#xa0;" horiz-adv-x="200" />
<glyph unicode="&#xa1;" horiz-adv-x="360" d="M94 -170L100 -22L124 256H236L260 -22L266 -170H94ZM180 304Q137 304 109 334T80 408Q80 452 108 482T180 512Q224 512 252 482T280 408Q280 365 252 335T180 304Z" />
<glyph unicode="&#xa2;" horiz-adv-x="540" d="M332 44Q250 44 189 75T94 164T60 306Q60 389 98 447T201 537T348 568Q393 568 431 553T494 512L416 406Q400 420 386 425T358 430Q312 430 283 415T240 372T226 306Q226 249 258 216T352 182Q376 182 396 192T432
214L500 106Q463 73 417 59T332 44ZM280 -44V656H372V-44H280Z" />
<glyph unicode="&#xa3;" horiz-adv-x="540" d="M46 0V106Q88 124 120 161T152 250Q152 280 142 311T121 374T110 432Q110 498 139 546T219 620T334 646Q391 646 434 625T514 562L422 470Q406 490 389 499T352 508Q318 508 296 489T274 422Q274 395 281 367T295
309T302 248Q302 219 294 197T264 148V144H514V0H46ZM52 266V364L120 370H424V266H52Z" />
<glyph unicode="&#xa4;" horiz-adv-x="540" d="M102 76L17 161L77 221Q61 244 53 271T44 330Q44 362 52 388T76 437L17 497L102 582L172 512Q220 532 270 532Q320 532 368 512L438 582L523 497L463 437Q479 415 487 389T496 330Q496 298 487 271T462 221L523 161L438
76L367 147Q344 137 319 133T270 128Q218 128 173 147L102 76ZM270 246Q291 246 308 256T334 285T344 330Q344 356 335 375T308 404T270 414Q249 414 233 404T206 375T196 330Q196 304 206 285T232 256T270 246Z" />
<glyph unicode="&#xa5;" horiz-adv-x="540" d="M184 0V142H34V222H184V272H34V352H148L8 634H184L224 516Q235 483 246 451T270 386H274Q285 418 297 451T320 516L360 634H532L392 352H506V272H356V222H506V142H356V0H184Z" />
<glyph unicode="&#xa6;" horiz-adv-x="278" d="M84 320V750H194V320H84ZM84 -250V200H194V-250H84Z" />
<glyph unicode="&#xa7;" horiz-adv-x="540" d="M400 136L302 204Q334 215 348 231T362 270Q362 295 342 311T291 342T223 371T156 406T104 456T84 530Q84 579 106 615T171 672T272 692Q334 692 382 671T462 624L384 518Q361 538 333 552T282 566Q260 566 249 560T238
536Q238 522 257 510T307 486T372 457T436 417T486 362T506 284Q506 252 494 225T459 176T400 136ZM242 -92Q187 -92 131 -70T40 -2L138 84Q162 59 189 47T242 34Q269 34 280 42T292 66Q292 82 274 94T226 118T163 145T101 183T53 239T34 320Q34 364 66 406T152
466L238 396Q207 387 193 371T178 332Q178 309 197 293T247 262T312 233T376 198T426 148T446 74Q446 27 424 -10T356 -70T242 -92Z" />
<glyph unicode="&#xa8;" horiz-adv-x="560" d="M394 562Q359 562 337 585T314 642Q314 676 336 699T394 722Q429 722 451 699T474 642Q474 608 452 585T394 562ZM166 562Q131 562 109 585T86 642Q86 676 108 699T166 722Q201 722 223 699T246 642Q246 608 224
585T166 562Z" />
<glyph unicode="&#xa9;" horiz-adv-x="752" d="M376 -8Q309 -8 249 15T143 81T71 186T44 326Q44 404 70 465T143 569T249 634T376 656Q443 656 503 634T609 569T681 465T708 326Q708 248 682 186T609 81T503 15T376 -8ZM390 128Q332 128 288 152T218 220T192 324Q192
383 220 426T292 494T388 518Q436 518 468 500T524 458L461 388Q447 403 433 411T400 420Q356 420 335 392T313 324Q313 279 335 253T394 226Q417 226 432 234T466 256L520 178Q492 156 460 142T390 128ZM376 60Q431 60 477 79T558 133T612 217T632 326Q632 386
613 434T559 517T478 569T376 588Q321 588 275 570T194 517T140 435T120 326Q120 266 139 217T193 133T274 79T376 60Z" />
<glyph unicode="&#xaa;" horiz-adv-x="364" d="M128 360Q80 360 53 391T26 462Q26 515 69 544T208 582Q206 599 195 606T164 614Q146 614 125 607T78 586L36 664Q72 685 109 696T186 708Q251 708 289 671T328 554V368H232L222 400H218Q200 382 178 371T128 360ZM169
450Q182 450 190 455T208 470V514Q169 510 155 498T140 472Q140 462 147 456T169 450Z" />
<glyph unicode="&#xab;" horiz-adv-x="500" d="M184 52L50 192V312L184 452L246 402L138 252L246 102L184 52ZM384 52L250 192V312L384 452L446 402L338 252L446 102L384 52Z" />
<glyph unicode="&#xac;" horiz-adv-x="540" d="M382 90V270H34V390H506V90H382Z" />
<glyph unicode="&#xad;" horiz-adv-x="340" d="M44 194V314H296V194H44Z" />
<glyph unicode="&#xae;" horiz-adv-x="477" d="M238 308Q182 308 136 334T63 407T36 512Q36 571 63 617T136 689T238 716Q294 716 340 690T413 617T440 512Q440 453 413 407T340 335T238 308ZM238 362Q280 362 312 380T362 432T380 512Q380 558 362 591T312 643T238
662Q196 662 164 644T114 592T96 512Q96 466 114 433T164 381T238 362ZM154 416V610H248Q284 610 307 594T330 544Q330 528 322 514T296 490L336 416H270L242 472H218V416H154ZM218 515H236Q250 515 256 523T262 540Q262 550 255 556T236 563H218V515Z" />
<glyph unicode="&#xaf;" horiz-adv-x="560" d="M126 588V696H434V588H126Z" />
<glyph unicode="&#xb0;" horiz-adv-x="378" d="M190 386Q147 386 113 405T58 459T38 536Q38 579 58 613T112 666T190 686Q233 686 267 667T322 613T342 536Q342 493 322 459T268 406T190 386ZM190 466Q219 466 236 485T254 536Q254 568 237 587T190 606Q162 606
144 587T126 536Q126 505 144 486T190 466Z" />
<glyph unicode="&#xb1;" horiz-adv-x="540" d="M208 170V290H34V410H208V570H332V410H506V290H332V170H208ZM34 0V120H506V0H34Z" />
<glyph unicode="&#xb2;" horiz-adv-x="400" d="M61 400V466Q107 502 144 535T204 596T227 646Q227 672 214 686T177 700Q159 700 144 689T111 656L41 720Q74 762 112 782T197 802Q265 802 306 767T347 668Q347 639 334 611T301 557T259 504H359V400H61Z" />
<glyph unicode="&#xb3;" horiz-adv-x="379" d="M188 388Q136 388 94 408T24 468L98 526Q116 502 134 492T174 482Q194 482 208 492T222 520Q222 543 203 553T140 564V634Q171 634 189 643T208 674Q208 691 197 699T168 708Q150 708 136 698T110 672L40 734Q75
770 108 786T190 802Q227 802 259 789T310 751T330 692Q330 662 317 642T278 604Q307 591 325 567T344 510Q344 474 322 447T265 404T188 388Z" />
<glyph unicode="&#xb4;" horiz-adv-x="560" d="M300 572L216 656L374 844L490 730L300 572Z" />
<glyph unicode="&#xb5;" horiz-adv-x="578" d="M24 -170L30 -22L54 256H166L190 -22L196 -170H24ZM210 -12Q128 -12 91 43T54 192V500H226V214Q226 166 238 150T276 134Q300 134 316 144T348 178V500H520V0H380L368 66H364Q334 30 298 9T210 -12Z" />
<glyph unicode="&#xb6;" horiz-adv-x="666" d="M298 186Q228 186 169 213T74 293T38 424Q38 510 74 559T169 629T298 650H342V186H298ZM398 -80V650H570V-80H398Z" />
<glyph unicode="&#xb7;" horiz-adv-x="320" d="M160 216Q117 216 89 246T60 320Q60 364 88 394T160 424Q204 424 232 394T260 320Q260 277 232 247T160 216Z" />
<glyph unicode="&#xb8;" horiz-adv-x="560" d="M172 -244L160 -178Q217 -175 238 -166T260 -136Q260 -122 246 -112T184 -96L234 4H332L304 -60Q343 -69 362 -86T382 -136Q382 -190 327 -215T172 -244Z" />
<glyph unicode="&#xb9;" horiz-adv-x="320" d="M142 400V670H52V746Q96 752 119 762T170 790H268V400H142Z" />
<glyph unicode="&#xba;" horiz-adv-x="376" d="M188 360Q145 360 107 380T46 440T22 533Q22 588 45 627T107 687T188 708Q231 708 269 687T330 627T354 533Q354 479 331 440T269 381T188 360ZM188 454Q213 454 222 475T232 533Q232 570 223 592T188 614Q163 614
154 592T144 533Q144 497 153 476T188 454Z" />
<glyph unicode="&#xbb;" horiz-adv-x="500" d="M116 52L54 102L162 252L54 402L116 452L250 312V192L116 52ZM316 52L254 102L362 252L254 402L316 452L450 312V192L316 52Z" />
<glyph unicode="&#xbc;" horiz-adv-x="860" d="M208 -12L556 662H652L304 -12H208ZM162 300V570H72V646Q116 652 139 662T190 690H288V300H162ZM692 0V190L698 310H694L658 234L624 160H860V80H512V142L644 390H802V0H692Z" />
<glyph unicode="&#xbd;" horiz-adv-x="860" d="M208 -12L556 662H652L304 -12H208ZM162 300V570H72V646Q116 652 139 662T190 690H288V300H162ZM522 0V66Q568 102 605 135T665 196T688 246Q688 272 675 286T638 300Q620 300 605 289T572 256L502 320Q535 362 573
382T658 402Q726 402 767 367T808 268Q808 239 795 211T762 157T720 104H820V0H522Z" />
<glyph unicode="&#xbe;" horiz-adv-x="860" d="M208 -12L556 662H652L304 -12H208ZM188 288Q136 288 94 308T24 368L98 426Q116 402 134 392T174 382Q194 382 208 392T222 420Q222 443 203 453T140 464V534Q171 534 189 543T208 574Q208 591 197 599T168 608Q150
608 136 598T110 572L40 634Q75 670 108 686T190 702Q227 702 259 689T310 651T330 592Q330 562 317 542T278 504Q307 491 325 467T344 410Q344 374 322 347T265 304T188 288ZM692 0V190L698 310H694L658 234L624 160H860V80H512V142L644 390H802V0H692Z" />
<glyph unicode="&#xbf;" horiz-adv-x="478" d="M238 -182Q183 -182 138 -164T67 -108T40 -6Q40 30 54 57T90 106T132 151T166 198T176 256H326Q332 217 322 186T292 130T253 84T218 44T204 6Q204 -12 212 -23T232 -39T260 -44Q286 -44 304 -32T342 -2L436 -88Q399
-130 349 -156T238 -182ZM252 304Q209 304 181 334T152 408Q152 452 180 482T252 512Q296 512 324 482T352 408Q352 365 324 335T252 304Z" />
<glyph unicode="&#xc0;" horiz-adv-x="584" d="M-10 0L188 650H396L594 0H412L338 316Q326 363 314 418T290 522H286Q276 473 264 418T240 316L166 0H-10ZM132 138V271H450V138H132ZM296 674L100 794L190 904L372 760L296 674Z" />
<glyph unicode="&#xc1;" horiz-adv-x="584" d="M-10 0L188 650H396L594 0H412L338 316Q326 363 314 418T290 522H286Q276 473 264 418T240 316L166 0H-10ZM132 138V271H450V138H132ZM280 674L204 760L386 904L476 794L280 674Z" />
<glyph unicode="&#xc2;" horiz-adv-x="584" d="M-10 0L188 650H396L594 0H412L338 316Q326 363 314 418T290 522H286Q276 473 264 418T240 316L166 0H-10ZM132 138V271H450V138H132ZM184 680L110 724L194 834H382L466 724L392 680L290 760H286L184 680Z" />
<glyph unicode="&#xc3;" horiz-adv-x="584" d="M-10 0L188 650H396L594 0H412L338 316Q326 363 314 418T290 522H286Q276 473 264 418T240 316L166 0H-10ZM132 138V271H450V138H132ZM358 686Q332 686 312 694T275 712T247 730T224 738Q212 738 204 730T192 696L82
704Q87 787 125 821T218 856Q244 856 264 848T301 830T329 812T352 804Q364 804 372 812T384 846L494 838Q490 756 452 721T358 686Z" />
<glyph unicode="&#xc4;" horiz-adv-x="584" d="M-10 0L188 650H396L594 0H412L338 316Q326 363 314 418T290 522H286Q276 473 264 418T240 316L166 0H-10ZM132 138V271H450V138H132ZM402 694Q368 694 346 716T324 772Q324 805 346 827T402 850Q437 850 458 828T480
772Q480 739 459 717T402 694ZM174 694Q140 694 118 716T96 772Q96 805 118 827T174 850Q209 850 230 828T252 772Q252 739 231 717T174 694Z" />
<glyph unicode="&#xc5;" horiz-adv-x="584" d="M-10 0L188 650H396L594 0H412L338 316Q326 363 314 418T290 522H286Q276 473 264 418T240 316L166 0H-10ZM132 138V271H450V138H132ZM288 696Q234 696 201 724T168 798Q168 845 201 872T288 900Q342 900 375 873T408
798Q408 752 375 724T288 696ZM288 758Q304 758 315 769T326 798Q326 816 315 827T288 838Q272 838 261 827T250 798Q250 780 261 769T288 758Z" />
<glyph unicode="&#xc6;" horiz-adv-x="854" d="M-22 0L274 650H790V506H552V404H754V260H552V144H800V0H380V522H376Q358 476 342 432T308 348L158 0H-22ZM130 132V265H468V132H130Z" />
<glyph unicode="&#xc8;" horiz-adv-x="556" d="M72 0V650H492V506H244V404H456V260H244V144H502V0H72ZM298 674L102 794L192 904L374 760L298 674Z" />
<glyph unicode="&#xc9;" horiz-adv-x="556" d="M72 0V650H492V506H244V404H456V260H244V144H502V0H72ZM282 674L206 760L388 904L478 794L282 674Z" />
<glyph unicode="&#xca;" horiz-adv-x="556" d="M72 0V650H492V506H244V404H456V260H244V144H502V0H72ZM186 680L112 724L196 834H384L468 724L394 680L292 760H288L186 680Z" />
<glyph unicode="&#xcb;" horiz-adv-x="556" d="M72 0V650H492V506H244V404H456V260H244V144H502V0H72ZM404 694Q370 694 348 716T326 772Q326 805 348 827T404 850Q439 850 460 828T482 772Q482 739 461 717T404 694ZM176 694Q142 694 120 716T98 772Q98 805 120
827T176 850Q211 850 232 828T254 772Q254 739 233 717T176 694Z" />
<glyph unicode="&#xcc;" horiz-adv-x="316" d="M72 0V650H244V0H72ZM166 674L-30 794L60 904L242 760L166 674Z" />
<glyph unicode="&#xcd;" horiz-adv-x="316" d="M72 0V650H244V0H72ZM150 674L74 760L256 904L346 794L150 674Z" />
<glyph unicode="&#xce;" horiz-adv-x="316" d="M72 0V650H244V0H72ZM54 680L-20 724L64 834H252L336 724L262 680L160 760H156L54 680Z" />
<glyph unicode="&#xcf;" horiz-adv-x="316" d="M72 0V650H244V0H72ZM272 694Q238 694 216 716T194 772Q194 805 216 827T272 850Q307 850 328 828T350 772Q350 739 329 717T272 694ZM44 694Q10 694 -12 716T-34 772Q-34 805 -12 827T44 850Q79 850 100 828T122
772Q122 739 101 717T44 694Z" />
<glyph unicode="&#xd0;" horiz-adv-x="668" d="M24 294V368L100 374H386V294H24ZM98 0V650H290Q389 650 464 618T582 514T624 328Q624 213 582 141T467 34T300 0H98ZM270 138H280Q327 138 365 154T425 211T448 328Q448 404 426 443T365 497T280 512H270V138Z" />
<glyph unicode="&#xd1;" horiz-adv-x="672" d="M72 0V650H248L392 360L454 214H458Q452 267 444 334T436 462V650H600V0H424L280 291L218 436H214Q220 381 228 315T236 188V0H72ZM406 686Q380 686 360 694T323 712T295 730T272 738Q260 738 252 730T240 696L130
704Q135 787 173 821T266 856Q292 856 312 848T349 830T377 812T400 804Q412 804 420 812T432 846L542 838Q538 756 500 721T406 686Z" />
<glyph unicode="&#xd2;" horiz-adv-x="692" d="M346 -12Q256 -12 188 28T82 145T44 328Q44 435 82 509T188 623T346 662Q436 662 504 623T610 510T648 328Q648 221 610 145T504 29T346 -12ZM346 136Q385 136 413 159T457 226T472 328Q472 387 457 428T414 492T346
514Q307 514 279 492T235 429T220 328Q220 269 235 226T278 160T346 136ZM354 674L158 794L248 904L430 760L354 674Z" />
<glyph unicode="&#xd3;" horiz-adv-x="692" d="M346 -12Q256 -12 188 28T82 145T44 328Q44 435 82 509T188 623T346 662Q436 662 504 623T610 510T648 328Q648 221 610 145T504 29T346 -12ZM346 136Q385 136 413 159T457 226T472 328Q472 387 457 428T414 492T346
514Q307 514 279 492T235 429T220 328Q220 269 235 226T278 160T346 136ZM338 674L262 760L444 904L534 794L338 674Z" />
<glyph unicode="&#xd4;" horiz-adv-x="692" d="M346 -12Q256 -12 188 28T82 145T44 328Q44 435 82 509T188 623T346 662Q436 662 504 623T610 510T648 328Q648 221 610 145T504 29T346 -12ZM346 136Q385 136 413 159T457 226T472 328Q472 387 457 428T414 492T346
514Q307 514 279 492T235 429T220 328Q220 269 235 226T278 160T346 136ZM242 680L168 724L252 834H440L524 724L450 680L348 760H344L242 680Z" />
<glyph unicode="&#xd5;" horiz-adv-x="692" d="M346 -12Q256 -12 188 28T82 145T44 328Q44 435 82 509T188 623T346 662Q436 662 504 623T610 510T648 328Q648 221 610 145T504 29T346 -12ZM346 136Q385 136 413 159T457 226T472 328Q472 387 457 428T414 492T346
514Q307 514 279 492T235 429T220 328Q220 269 235 226T278 160T346 136ZM416 686Q390 686 370 694T333 712T305 730T282 738Q270 738 262 730T250 696L140 704Q145 787 183 821T276 856Q302 856 322 848T359 830T387 812T410 804Q422 804 430 812T442 846L552
838Q548 756 510 721T416 686Z" />
<glyph unicode="&#xd6;" horiz-adv-x="692" d="M346 -12Q256 -12 188 28T82 145T44 328Q44 435 82 509T188 623T346 662Q436 662 504 623T610 510T648 328Q648 221 610 145T504 29T346 -12ZM346 136Q385 136 413 159T457 226T472 328Q472 387 457 428T414 492T346
514Q307 514 279 492T235 429T220 328Q220 269 235 226T278 160T346 136ZM460 694Q426 694 404 716T382 772Q382 805 404 827T460 850Q495 850 516 828T538 772Q538 739 517 717T460 694ZM232 694Q198 694 176 716T154 772Q154 805 176 827T232 850Q267 850 288
828T310 772Q310 739 289 717T232 694Z" />
<glyph unicode="&#xd7;" horiz-adv-x="540" d="M132 106L47 191L185 329L47 467L132 552L270 414L408 552L493 467L355 329L493 191L408 106L270 244L132 106Z" />
<glyph unicode="&#xd8;" horiz-adv-x="692" d="M124 -46L36 22L588 696L676 628L124 -46ZM346 -12Q256 -12 188 28T82 145T44 328Q44 435 82 509T188 623T346 662Q436 662 504 623T610 510T648 328Q648 221 610 145T504 29T346 -12ZM346 136Q385 136 413 159T457
226T472 328Q472 387 457 428T414 492T346 514Q307 514 279 492T235 429T220 328Q220 269 235 226T278 160T346 136Z" />
<glyph unicode="&#xd9;" horiz-adv-x="672" d="M338 -12Q270 -12 219 8T135 68T85 169T68 314V650H240V294Q240 236 250 202T282 152T338 136Q372 136 394 151T427 201T438 294V650H604V314Q604 231 588 170T540 68T457 8T338 -12ZM344 674L148 794L238 904L420
760L344 674Z" />
<glyph unicode="&#xda;" horiz-adv-x="672" d="M338 -12Q270 -12 219 8T135 68T85 169T68 314V650H240V294Q240 236 250 202T282 152T338 136Q372 136 394 151T427 201T438 294V650H604V314Q604 231 588 170T540 68T457 8T338 -12ZM328 674L252 760L434 904L524
794L328 674Z" />
<glyph unicode="&#xdb;" horiz-adv-x="672" d="M338 -12Q270 -12 219 8T135 68T85 169T68 314V650H240V294Q240 236 250 202T282 152T338 136Q372 136 394 151T427 201T438 294V650H604V314Q604 231 588 170T540 68T457 8T338 -12ZM232 680L158 724L242 834H430L514
724L440 680L338 760H334L232 680Z" />
<glyph unicode="&#xdc;" horiz-adv-x="672" d="M338 -12Q270 -12 219 8T135 68T85 169T68 314V650H240V294Q240 236 250 202T282 152T338 136Q372 136 394 151T427 201T438 294V650H604V314Q604 231 588 170T540 68T457 8T338 -12ZM450 694Q416 694 394 716T372
772Q372 805 394 827T450 850Q485 850 506 828T528 772Q528 739 507 717T450 694ZM222 694Q188 694 166 716T144 772Q144 805 166 827T222 850Q257 850 278 828T300 772Q300 739 279 717T222 694Z" />
<glyph unicode="&#xdd;" horiz-adv-x="544" d="M186 0V224L-10 650H174L222 514Q234 477 246 442T271 369H275Q288 407 300 442T326 514L374 650H554L358 224V0H186ZM264 674L188 760L370 904L460 794L264 674Z" />
<glyph unicode="&#xde;" horiz-adv-x="630" d="M72 0V650H244V556H324Q394 556 453 536T548 469T584 340Q584 261 548 211T452 136T324 112H244V0H72ZM244 248H316Q367 248 391 272T416 340Q416 384 390 402T316 420H244V248Z" />
<glyph unicode="&#xdf;" horiz-adv-x="654" d="M434 -12Q389 -12 354 -1T280 32L338 148Q362 130 384 122T428 114Q448 114 460 124T472 150Q472 165 460 176T429 198T388 221T348 250T316 289T304 344Q304 371 313 391T336 428T358 466T368 512Q368 538 354 555T312
572Q269 572 249 541T228 458V0H58V476Q58 541 85 593T168 675T312 706Q386 706 435 681T508 616T532 532Q532 497 521 473T496 430T471 398T460 366Q460 353 472 343T503 322T544 298T584 267T616 222T628 158Q628 111 607 73T542 11T434 -12Z" />
<glyph unicode="&#xe0;" horiz-adv-x="536" d="M188 -12Q141 -12 108 9T56 66T38 142Q38 220 102 264T310 324Q308 342 300 353T277 370T240 376Q213 376 183 366T114 334L54 446Q89 467 125 482T198 504T274 512Q339 512 385 488T457 412T482 278V0H342L330 48H326Q296
21 263 5T188 -12ZM248 120Q269 120 283 129T310 154V222Q269 216 246 206T212 183T202 156Q202 139 214 130T248 120ZM270 572L80 730L196 844L354 656L270 572Z" />
<glyph unicode="&#xe1;" horiz-adv-x="536" d="M188 -12Q141 -12 108 9T56 66T38 142Q38 220 102 264T310 324Q308 342 300 353T277 370T240 376Q213 376 183 366T114 334L54 446Q89 467 125 482T198 504T274 512Q339 512 385 488T457 412T482 278V0H342L330 48H326Q296
21 263 5T188 -12ZM248 120Q269 120 283 129T310 154V222Q269 216 246 206T212 183T202 156Q202 139 214 130T248 120ZM310 572L226 656L384 844L500 730L310 572Z" />
<glyph unicode="&#xe2;" horiz-adv-x="536" d="M188 -12Q141 -12 108 9T56 66T38 142Q38 220 102 264T310 324Q308 342 300 353T277 370T240 376Q213 376 183 366T114 334L54 446Q89 467 125 482T198 504T274 512Q339 512 385 488T457 412T482 278V0H342L330 48H326Q296
21 263 5T188 -12ZM248 120Q269 120 283 129T310 154V222Q269 216 246 206T212 183T202 156Q202 139 214 130T248 120ZM160 558L96 618L202 746H378L484 618L420 558L292 642H288L160 558Z" />
<glyph unicode="&#xe3;" horiz-adv-x="536" d="M188 -12Q141 -12 108 9T56 66T38 142Q38 220 102 264T310 324Q308 342 300 353T277 370T240 376Q213 376 183 366T114 334L54 446Q89 467 125 482T198 504T274 512Q339 512 385 488T457 412T482 278V0H342L330 48H326Q296
21 263 5T188 -12ZM248 120Q269 120 283 129T310 154V222Q269 216 246 206T212 183T202 156Q202 139 214 130T248 120ZM354 572Q332 572 313 580T279 600T252 619T230 628Q218 628 211 619T200 582L94 588Q95 645 111 679T157 730T226 746Q249 746 267 738T301
718T328 699T350 690Q362 690 369 699T380 736L486 730Q485 674 469 639T424 588T354 572Z" />
<glyph unicode="&#xe4;" horiz-adv-x="536" d="M188 -12Q141 -12 108 9T56 66T38 142Q38 220 102 264T310 324Q308 342 300 353T277 370T240 376Q213 376 183 366T114 334L54 446Q89 467 125 482T198 504T274 512Q339 512 385 488T457 412T482 278V0H342L330 48H326Q296
21 263 5T188 -12ZM248 120Q269 120 283 129T310 154V222Q269 216 246 206T212 183T202 156Q202 139 214 130T248 120ZM404 562Q369 562 347 585T324 642Q324 676 346 699T404 722Q439 722 461 699T484 642Q484 608 462 585T404 562ZM176 562Q141 562 119 585T96
642Q96 676 118 699T176 722Q211 722 233 699T256 642Q256 608 234 585T176 562Z" />
<glyph unicode="&#xe5;" horiz-adv-x="536" d="M188 -12Q141 -12 108 9T56 66T38 142Q38 220 102 264T310 324Q308 342 300 353T277 370T240 376Q213 376 183 366T114 334L54 446Q89 467 125 482T198 504T274 512Q339 512 385 488T457 412T482 278V0H342L330 48H326Q296
21 263 5T188 -12ZM248 120Q269 120 283 129T310 154V222Q269 216 246 206T212 183T202 156Q202 139 214 130T248 120ZM291 568Q220 568 185 599T150 675Q150 718 185 749T291 780Q361 780 395 749T430 675Q430 631 396 600T291 568ZM290 630Q306 630 317 642T328
675Q328 694 317 706T290 718Q274 718 263 706T252 674Q252 655 263 643T290 630Z" />
<glyph unicode="&#xe6;" horiz-adv-x="786" d="M192 -12Q145 -12 112 9T60 66T42 142Q42 220 105 265T312 325Q310 343 303 354T281 370T244 376Q217 376 187 366T118 334L58 446Q93 467 127 482T197 504T268 512Q312 512 347 495T406 448Q439 480 472 496T548
512Q616 512 661 479T728 389T750 266Q750 244 748 226T743 198H468Q475 170 490 154T527 130T574 122Q600 122 623 131T674 156L732 46Q692 18 642 3T550 -12Q515 -12 485 -4T428 21T380 60Q326 19 284 4T192 -12ZM252 120Q274 120 291 128T324 150Q320 164 317
177T312 203L310 222Q254 213 230 196T206 156Q206 139 218 130T252 120ZM468 302H604Q604 335 591 358T542 382Q523 382 508 374T483 349T468 302Z" />
<glyph unicode="&#xe7;" horiz-adv-x="472" d="M284 -12Q213 -12 156 19T66 108T32 250Q32 333 69 391T168 481T300 512Q345 512 381 498T446 460L366 350Q350 364 337 369T310 374Q278 374 255 359T220 316T208 250Q208 212 221 184T255 141T304 126Q325 126
345 135T384 158L450 46Q413 13 368 1T284 -12ZM172 -244L160 -178Q217 -175 238 -166T260 -136Q260 -122 246 -112T184 -96L234 4H332L304 -60Q343 -69 362 -86T382 -136Q382 -190 327 -215T172 -244Z" />
<glyph unicode="&#xe8;" horiz-adv-x="526" d="M290 -12Q217 -12 159 19T66 108T32 250Q32 331 66 389T156 480T272 512Q346 512 394 480T466 392T490 270Q490 248 488 228T483 198H168L166 310H344Q344 339 330 360T276 382Q254 382 234 370T201 329T188 250Q188
197 207 169T255 129T314 118Q340 118 364 125T416 148L472 46Q432 18 382 3T290 -12ZM260 572L70 730L186 844L344 656L260 572Z" />
<glyph unicode="&#xe9;" horiz-adv-x="526" d="M290 -12Q217 -12 159 19T66 108T32 250Q32 331 66 389T156 480T272 512Q346 512 394 480T466 392T490 270Q490 248 488 228T483 198H168L166 310H344Q344 339 330 360T276 382Q254 382 234 370T201 329T188 250Q188
197 207 169T255 129T314 118Q340 118 364 125T416 148L472 46Q432 18 382 3T290 -12ZM300 572L216 656L374 844L490 730L300 572Z" />
<glyph unicode="&#xea;" horiz-adv-x="526" d="M290 -12Q217 -12 159 19T66 108T32 250Q32 331 66 389T156 480T272 512Q346 512 394 480T466 392T490 270Q490 248 488 228T483 198H168L166 310H344Q344 339 330 360T276 382Q254 382 234 370T201 329T188 250Q188
197 207 169T255 129T314 118Q340 118 364 125T416 148L472 46Q432 18 382 3T290 -12ZM150 558L86 618L192 746H368L474 618L410 558L282 642H278L150 558Z" />
<glyph unicode="&#xeb;" horiz-adv-x="526" d="M290 -12Q217 -12 159 19T66 108T32 250Q32 331 66 389T156 480T272 512Q346 512 394 480T466 392T490 270Q490 248 488 228T483 198H168L166 310H344Q344 339 330 360T276 382Q254 382 234 370T201 329T188 250Q188
197 207 169T255 129T314 118Q340 118 364 125T416 148L472 46Q432 18 382 3T290 -12ZM394 562Q359 562 337 585T314 642Q314 676 336 699T394 722Q429 722 451 699T474 642Q474 608 452 585T394 562ZM166 562Q131 562 109 585T86 642Q86 676 108 699T166 722Q201
722 223 699T246 642Q246 608 224 585T166 562Z" />
<glyph unicode="&#xec;" horiz-adv-x="288" d="M58 0V500H230V0H58ZM124 572L-66 730L50 844L208 656L124 572Z" />
<glyph unicode="&#xed;" horiz-adv-x="288" d="M58 0V500H230V0H58ZM164 572L80 656L238 844L354 730L164 572Z" />
<glyph unicode="&#xee;" horiz-adv-x="288" d="M58 0V500H230V0H58ZM14 558L-50 618L56 746H232L338 618L274 558L146 642H142L14 558Z" />
<glyph unicode="&#xef;" horiz-adv-x="288" d="M58 0V500H230V0H58ZM258 562Q223 562 201 585T178 642Q178 676 200 699T258 722Q293 722 315 699T338 642Q338 608 316 585T258 562ZM30 562Q-5 562 -27 585T-50 642Q-50 676 -28 699T30 722Q65 722 87 699T110
642Q110 608 88 585T30 562Z" />
<glyph unicode="&#xf0;" horiz-adv-x="566" d="M274 -12Q210 -12 157 17T71 101T38 230Q38 303 67 354T143 431T240 458Q278 458 313 441T364 378L366 292Q347 314 325 323T277 332Q254 332 235 322T205 290T194 230Q194 195 206 172T237 138T280 126Q302 126
320 139T349 181T360 260Q360 332 345 388T299 488T219 569T103 640L177 744Q241 712 302 670T412 571T491 440T520 270Q520 189 491 126T406 25T274 -12ZM116 465L72 539L458 733L502 658L116 465Z" />
<glyph unicode="&#xf1;" horiz-adv-x="582" d="M58 0V500H198L210 440H214Q244 469 282 490T372 512Q455 512 491 457T528 308V0H356V286Q356 334 344 350T306 366Q282 366 266 356T230 328V0H58ZM384 572Q362 572 343 580T309 600T282 619T260 628Q248 628 241
619T230 582L124 588Q125 645 141 679T187 730T256 746Q279 746 297 738T331 718T358 699T380 690Q392 690 399 699T410 736L516 730Q515 674 499 639T454 588T384 572Z" />
<glyph unicode="&#xf2;" horiz-adv-x="560" d="M280 -12Q216 -12 160 19T68 108T32 250Q32 333 67 391T159 481T280 512Q344 512 400 481T492 392T528 250Q528 167 493 109T401 19T280 -12ZM280 126Q306 126 322 141T345 184T352 250Q352 288 345 316T322 359T280
374Q254 374 238 359T215 316T208 250Q208 212 215 184T238 141T280 126ZM260 572L70 730L186 844L344 656L260 572Z" />
<glyph unicode="&#xf3;" horiz-adv-x="560" d="M280 -12Q216 -12 160 19T68 108T32 250Q32 333 67 391T159 481T280 512Q344 512 400 481T492 392T528 250Q528 167 493 109T401 19T280 -12ZM280 126Q306 126 322 141T345 184T352 250Q352 288 345 316T322 359T280
374Q254 374 238 359T215 316T208 250Q208 212 215 184T238 141T280 126ZM300 572L216 656L374 844L490 730L300 572Z" />
<glyph unicode="&#xf4;" horiz-adv-x="560" d="M280 -12Q216 -12 160 19T68 108T32 250Q32 333 67 391T159 481T280 512Q344 512 400 481T492 392T528 250Q528 167 493 109T401 19T280 -12ZM280 126Q306 126 322 141T345 184T352 250Q352 288 345 316T322 359T280
374Q254 374 238 359T215 316T208 250Q208 212 215 184T238 141T280 126ZM150 558L86 618L192 746H368L474 618L410 558L282 642H278L150 558Z" />
<glyph unicode="&#xf5;" horiz-adv-x="560" d="M280 -12Q216 -12 160 19T68 108T32 250Q32 333 67 391T159 481T280 512Q344 512 400 481T492 392T528 250Q528 167 493 109T401 19T280 -12ZM280 126Q306 126 322 141T345 184T352 250Q352 288 345 316T322 359T280
374Q254 374 238 359T215 316T208 250Q208 212 215 184T238 141T280 126ZM344 572Q322 572 303 580T269 600T242 619T220 628Q208 628 201 619T190 582L84 588Q85 645 101 679T147 730T216 746Q239 746 257 738T291 718T318 699T340 690Q352 690 359 699T370 736L476
730Q475 674 459 639T414 588T344 572Z" />
<glyph unicode="&#xf6;" horiz-adv-x="560" d="M280 -12Q216 -12 160 19T68 108T32 250Q32 333 67 391T159 481T280 512Q344 512 400 481T492 392T528 250Q528 167 493 109T401 19T280 -12ZM280 126Q306 126 322 141T345 184T352 250Q352 288 345 316T322 359T280
374Q254 374 238 359T215 316T208 250Q208 212 215 184T238 141T280 126ZM394 562Q359 562 337 585T314 642Q314 676 336 699T394 722Q429 722 451 699T474 642Q474 608 452 585T394 562ZM166 562Q131 562 109 585T86 642Q86 676 108 699T166 722Q201 722 223 699T246
642Q246 608 224 585T166 562Z" />
<glyph unicode="&#xf7;" horiz-adv-x="540" d="M34 270V390H506V270H34ZM270 64Q231 64 205 88T178 150Q178 188 204 212T270 236Q309 236 335 212T362 150Q362 113 336 89T270 64ZM270 424Q231 424 205 448T178 510Q178 548 204 572T270 596Q309 596 335 572T362
510Q362 473 336 449T270 424Z" />
<glyph unicode="&#xf8;" horiz-adv-x="560" d="M108 -26L46 22L452 528L514 480L108 -26ZM280 -12Q216 -12 160 19T68 108T32 250Q32 333 67 391T159 481T280 512Q344 512 400 481T492 392T528 250Q528 167 493 109T401 19T280 -12ZM280 120Q306 120 324 135T352
177T362 240Q362 289 353 320T326 365T280 380Q254 380 236 365T208 323T198 260Q198 211 207 180T235 135T280 120Z" />
<glyph unicode="&#xf9;" horiz-adv-x="578" d="M210 -12Q128 -12 91 43T54 192V500H226V214Q226 166 238 150T276 134Q300 134 316 144T348 178V500H520V0H380L368 66H364Q334 30 298 9T210 -12ZM280 572L90 730L206 844L364 656L280 572Z" />
<glyph unicode="&#xfa;" horiz-adv-x="578" d="M210 -12Q128 -12 91 43T54 192V500H226V214Q226 166 238 150T276 134Q300 134 316 144T348 178V500H520V0H380L368 66H364Q334 30 298 9T210 -12ZM320 572L236 656L394 844L510 730L320 572Z" />
<glyph unicode="&#xfb;" horiz-adv-x="578" d="M210 -12Q128 -12 91 43T54 192V500H226V214Q226 166 238 150T276 134Q300 134 316 144T348 178V500H520V0H380L368 66H364Q334 30 298 9T210 -12ZM170 558L106 618L212 746H388L494 618L430 558L302 642H298L170 558Z" />
<glyph unicode="&#xfc;" horiz-adv-x="578" d="M210 -12Q128 -12 91 43T54 192V500H226V214Q226 166 238 150T276 134Q300 134 316 144T348 178V500H520V0H380L368 66H364Q334 30 298 9T210 -12ZM414 562Q379 562 357 585T334 642Q334 676 356 699T414 722Q449
722 471 699T494 642Q494 608 472 585T414 562ZM186 562Q151 562 129 585T106 642Q106 676 128 699T186 722Q221 722 243 699T266 642Q266 608 244 585T186 562Z" />
<glyph unicode="&#xfd;" horiz-adv-x="542" d="M132 -188Q107 -188 90 -185T56 -178L86 -48Q93 -49 102 -51T118 -54Q153 -54 171 -40T196 -4L202 18L12 500H184L244 308Q255 274 263 239T280 166H284Q292 202 299 237T316 308L366 500H530L362 8Q336 -59 307
-102T236 -167T132 -188ZM300 572L216 656L374 844L490 730L300 572Z" />
<glyph unicode="&#xfe;" horiz-adv-x="580" d="M58 -176V696H230V533L226 468Q249 489 279 500T340 512Q402 512 448 481T519 392T544 258Q544 172 514 112T437 20T336 -12Q300 -12 275 -1T226 32L230 -38V-176H58ZM294 128Q314 128 331 140T358 180T368 256Q368
297 360 322T337 360T298 372Q279 372 263 364T230 336V152Q245 139 261 134T294 128Z" />
<glyph unicode="&#xff;" horiz-adv-x="542" d="M132 -188Q107 -188 90 -185T56 -178L86 -48Q93 -49 102 -51T118 -54Q153 -54 171 -40T196 -4L202 18L12 500H184L244 308Q255 274 263 239T280 166H284Q292 202 299 237T316 308L366 500H530L362 8Q336 -59 307
-102T236 -167T132 -188ZM394 562Q359 562 337 585T314 642Q314 676 336 699T394 722Q429 722 451 699T474 642Q474 608 452 585T394 562ZM166 562Q131 562 109 585T86 642Q86 676 108 699T166 722Q201 722 223 699T246 642Q246 608 224 585T166 562Z" />
<glyph unicode="&#x2013;" horiz-adv-x="480" d="M44 200V308H436V200H44Z" />
<glyph unicode="&#x2014;" horiz-adv-x="800" d="M44 200V308H756V200H44Z" />
<glyph unicode="&#x2018;" horiz-adv-x="320" d="M160 304Q108 304 81 342T54 450Q54 525 92 583T210 678L246 604Q198 583 174 552T150 476L151 382L100 455Q112 464 128 471T160 478Q196 478 221 456T246 396Q246 354 222 329T160 304Z" />
<glyph unicode="&#x2019;" horiz-adv-x="320" d="M110 322L74 396Q122 417 146 448T170 524L169 618L220 545Q208 536 193 529T160 522Q124 522 99 544T74 604Q74 646 98 671T160 696Q213 696 239 658T266 550Q266 475 228 418T110 322Z" />
<glyph unicode="&#x201a;" horiz-adv-x="320" d="M110 -178L74 -104Q122 -83 146 -52T170 24L169 118L220 45Q208 36 193 29T160 22Q124 22 99 44T74 104Q74 146 98 171T160 196Q213 196 239 158T266 50Q266 -25 228 -82T110 -178Z" />
<glyph unicode="&#x201c;" horiz-adv-x="580" d="M160 304Q108 304 81 342T54 450Q54 525 92 583T210 678L246 604Q198 583 174 552T150 476L151 382L100 455Q112 464 128 471T160 478Q196 478 221 456T246 396Q246 354 222 329T160 304ZM420 304Q368 304 341
342T314 450Q314 525 352 583T470 678L506 604Q458 583 434 552T410 476L411 382L360 455Q372 464 388 471T420 478Q456 478 481 456T506 396Q506 354 482 329T420 304Z" />
<glyph unicode="&#x201d;" horiz-adv-x="580" d="M110 322L74 396Q122 417 146 448T170 524L169 618L220 545Q208 536 193 529T160 522Q124 522 99 544T74 604Q74 646 98 671T160 696Q213 696 239 658T266 550Q266 475 228 418T110 322ZM370 322L334 396Q382 417
406 448T430 524L429 618L480 545Q468 536 453 529T420 522Q384 522 359 544T334 604Q334 646 358 671T420 696Q473 696 499 658T526 550Q526 475 488 418T370 322Z" />
<glyph unicode="&#x201e;" horiz-adv-x="580" d="M110 -178L74 -104Q122 -83 146 -52T170 24L169 118L220 45Q208 36 193 29T160 22Q124 22 99 44T74 104Q74 146 98 171T160 196Q213 196 239 158T266 50Q266 -25 228 -82T110 -178ZM370 -178L334 -104Q382 -83
406 -52T430 24L429 118L480 45Q468 36 453 29T420 22Q384 22 359 44T334 104Q334 146 358 171T420 196Q473 196 499 158T526 50Q526 -25 488 -82T370 -178Z" />
<glyph unicode="&#x2022;" horiz-adv-x="360" d="M180 116Q140 116 109 135T59 188T40 262Q40 303 58 336T108 388T180 408Q220 408 251 389T301 336T320 262Q320 221 302 188T252 136T180 116Z" />
<glyph unicode="&#x2039;" horiz-adv-x="300" d="M184 52L50 192V312L184 452L246 402L138 252L246 102L184 52Z" />
<glyph unicode="&#x203a;" horiz-adv-x="300" d="M116 52L54 102L162 252L54 402L116 452L250 312V192L116 52Z" />
</font>
</defs>
</svg>
