<?xml version="1.0" standalone="no"?>
<!DOCTYPE svg PUBLIC "-//W3C//DTD SVG 1.1//EN" "http://www.w3.org/Graphics/SVG/1.1/DTD/svg11.dtd">
<svg xmlns="http://www.w3.org/2000/svg">
<defs >
<font id="Heebo" horiz-adv-x="1072" ><font-face
    font-family="Heebo ExtraBold"
    units-per-em="2048"
    panose-1="0 0 0 0 0 0 0 0 0 0"
    ascent="2146"
    descent="-862"
    alphabetic="0" />
<glyph unicode=" " horiz-adv-x="511" />
<glyph unicode="!" horiz-adv-x="565" d="M419 456H162L124 1456H457L419 456ZM116 147Q116 217 163 264T290 311Q369 311 416 264T464 147Q464 77 417 30T290 -18Q211 -18 164 29T116 147Z" />
<glyph unicode="&quot;" horiz-adv-x="659" d="M264 1399L223 974H48L49 1385V1537H264V1399ZM602 1399L560 974H387V1394V1537H602V1399Z" />
<glyph unicode="#" horiz-adv-x="1213" d="M457 1456H648L399 0H207L457 1456ZM826 1456H1019L768 0H576L826 1456ZM128 859V1040H1169V859H128ZM53 410V592H1093V410H53Z" />
<glyph unicode="$" horiz-adv-x="1181" d="M709 1391H546V1687H709V1391ZM688 -217H526V54H688V-217ZM775 386Q775 440 757 477T697 542T585 597Q454 650 354 707T199 849T143 1068Q143 1193 203 1285T369 1427T616 1477Q758 1477 865 1421T1031 1259T1091 1005H779Q779
1121 732 1174T611 1228Q557 1228 523 1207T472 1149T455 1066Q455 1020 472 986T532 922T648 863Q778 809 877 750T1032 606T1088 388Q1088 257 1028 166T859 27T605 -21Q512 -21 420 4T253 85T133 234T88 464H401Q401 396 418 351T464 278T530 240T605 228Q663
228 700 248T756 305T775 386Z" />
<glyph unicode="%" horiz-adv-x="1514" d="M93 1176Q93 1259 129 1327T237 1436T412 1477Q519 1477 590 1436T697 1327T733 1176V1099Q733 1018 698 950T591 841T414 800Q309 800 238 841T130 950T93 1099V1176ZM298 1099Q298 1067 310 1040T349 995T414 978Q454
978 479 995T516 1039T528 1099V1176Q528 1209 516 1237T478 1282T412 1299Q375 1299 349 1282T311 1237T298 1176V1099ZM786 357Q786 439 822 507T930 616T1106 657Q1213 657 1284 616T1391 507T1427 357V280Q1427 198 1392 130T1285 21T1108 -20Q1003 -20 931
21T823 130T786 280V357ZM991 280Q991 247 1006 220T1047 175T1108 158Q1155 158 1179 175T1213 219T1222 280V357Q1222 405 1194 442T1106 479Q1048 479 1020 442T991 357V280ZM475 108L325 187L1036 1325L1186 1246L475 108Z" />
<glyph unicode="&amp;" horiz-adv-x="1359" d="M619 959Q682 999 699 1034T717 1108Q717 1151 686 1188T595 1225Q531 1225 499 1186T467 1091Q467 1024 520 953T649 792L1333 0H981L426 636Q320 768 256 872T191 1087Q191 1203 241 1290T382 1427T596 1477Q711
1477 796 1429T927 1303T973 1130Q973 1063 949 1005T880 897T779 807L452 576Q422 549 406 522T385 468T379 413Q379 360 402 319T466 254T560 231Q640 231 715 266T850 368T945 524T981 723H1245Q1245 549 1193 402T1013 152Q1007 149 995 140T977 126Q879 51
775 15T542 -21Q395 -21 288 32T123 178T65 392Q65 479 99 543T193 662T332 772L619 959Z" />
<glyph unicode="&apos;" horiz-adv-x="326" d="M280 1382L249 969H54V1368V1536H280V1382Z" />
<glyph unicode="(" horiz-adv-x="724" d="M123 592Q123 802 167 973T286 1274T448 1489T624 1611L683 1447Q627 1405 574 1335T477 1161T407 917T381 594V565Q381 383 407 243T476 -2T573 -176T683 -289L624 -453Q537 -416 449 -331T286 -116T168 185T123 567V592Z" />
<glyph unicode=")" horiz-adv-x="725" d="M619 567Q619 365 573 195T450 -107T283 -327T100 -453L40 -289Q96 -248 149 -178T247 -3T317 242T343 565V594Q343 776 317 917T246 1162T149 1336T40 1448L100 1611Q191 1574 282 1486T450 1266T572 964T619 592V567Z" />
<glyph unicode="*" horiz-adv-x="939" d="M344 958L27 1047L89 1235L401 1107L379 1456H585L563 1100L867 1225L929 1034L607 946L819 682L652 564L471 856L291 574L124 688L344 958Z" />
<glyph unicode="+" horiz-adv-x="1109" d="M1051 543H53V824H1051V543ZM700 146H406V1206H700V146Z" />
<glyph unicode="," horiz-adv-x="522" d="M401 46Q401 -72 343 -189T197 -382L37 -301Q60 -256 84 -209T125 -105T142 28V252H401V46Z" />
<glyph unicode="-" horiz-adv-x="844" d="M705 498H126V751H705V498Z" />
<glyph unicode="." horiz-adv-x="608" d="M122 153Q122 224 170 271T296 318Q376 318 423 271T471 153Q471 83 424 36T296 -11Q218 -11 170 36T122 153Z" />
<glyph unicode="/" horiz-adv-x="750" d="M208 -125H-20L501 1456H729L208 -125Z" />
<glyph unicode="0" horiz-adv-x="1181" d="M1089 599Q1089 384 1027 247T852 45T592 -20Q445 -20 332 45T155 247T92 599V858Q92 1074 154 1210T329 1411T590 1476Q738 1476 850 1411T1026 1210T1089 858V599ZM776 901Q776 1022 754 1092T691 1193T590 1224Q532
1224 490 1194T426 1093T404 901V558Q404 436 426 364T491 262T592 231Q650 231 691 261T754 364T776 558V901Z" />
<glyph unicode="1" horiz-adv-x="1181" d="M818 0H505V1087L167 986V1237L786 1457H818V0Z" />
<glyph unicode="2" horiz-adv-x="1181" d="M1102 0H95V213L565 709Q632 783 672 840T729 943T746 1029Q746 1122 701 1173T572 1225Q510 1225 467 1195T401 1112T378 992H65Q65 1125 128 1235T307 1411T579 1477Q814 1477 937 1366T1060 1059Q1060 959 1019 869T904
686T728 490L500 251H1102V0Z" />
<glyph unicode="3" horiz-adv-x="1181" d="M553 865Q620 865 664 888T731 954T753 1055Q753 1103 733 1141T673 1202T569 1225Q522 1225 481 1208T415 1158T389 1080H77Q77 1202 142 1291T318 1428T560 1477Q710 1477 824 1430T1002 1290T1066 1061Q1066 989 1033
924T940 807T794 727T604 698H395V865H553ZM395 786H604Q721 786 810 760T962 685T1056 566T1088 410Q1088 273 1018 177T829 31T560 -20Q468 -20 378 5T216 81T101 212T57 402H371Q371 354 397 316T468 254T569 231Q666 231 720 283T775 415Q775 489 749 535T672
601T553 622H395V786Z" />
<glyph unicode="4" horiz-adv-x="1181" d="M1123 310H72L56 509L653 1456H900L636 1000L361 561H1123V310ZM967 0H654V1456H967V0Z" />
<glyph unicode="5" horiz-adv-x="1181" d="M129 713L214 1456H1046V1199H471L436 906Q464 921 521 940T649 959Q791 959 890 901T1042 734T1095 468Q1095 342 1041 230T877 49T597 -20Q501 -20 412 9T251 94T138 230T95 411H406Q413 328 463 280T595 231Q664 231
705 266T764 360T782 489Q782 562 759 616T687 699T562 729Q486 729 445 704T378 652L129 713Z" />
<glyph unicode="6" horiz-adv-x="1181" d="M892 1474V1217H874Q765 1217 679 1188T532 1101T439 961T407 771V520Q407 423 431 359T501 264T609 232Q667 232 711 264T779 352T803 480Q803 555 778 610T708 697T601 728Q536 728 489 699T415 626T388 534L300 606Q302
673 330 739T410 859T535 946T702 979Q838 979 929 912T1068 732T1115 481Q1115 339 1053 226T879 46T616 -20Q500 -20 404 21T239 139T132 324T94 565V680Q94 861 147 1007T301 1257T538 1418T845 1474H892Z" />
<glyph unicode="7" horiz-adv-x="1181" d="M1096 1282L543 0H213L767 1205H58V1456H1096V1282Z" />
<glyph unicode="8" horiz-adv-x="1181" d="M1088 401Q1088 262 1024 169T847 28T592 -20Q449 -20 336 27T157 168T91 401Q91 526 156 617T335 758T590 808Q733 808 846 759T1023 618T1088 401ZM775 426Q775 487 752 530T688 597T590 620Q534 620 493 597T428 531T405
426Q405 365 428 322T493 255T592 231Q648 231 689 255T753 322T775 426ZM1058 1068Q1058 955 999 870T834 736T592 688Q455 688 349 736T183 869T122 1068Q122 1200 182 1291T348 1430T590 1477Q728 1477 833 1430T998 1292T1058 1068ZM746 1051Q746 1104 728
1143T675 1203T590 1225Q541 1225 506 1204T454 1144T436 1051Q436 998 453 958T506 894T592 871Q642 871 676 894T728 957T746 1051Z" />
<glyph unicode="9" horiz-adv-x="1181" d="M323 245Q435 245 519 269T658 342T741 468T768 646V940Q768 1036 744 1099T677 1193T579 1225Q521 1225 480 1187T418 1088T396 961Q396 890 417 832T481 740T590 706Q637 706 673 723T735 767T775 829T789 898L889
829Q889 764 859 700T777 584T657 500T510 468Q375 468 280 531T134 705T84 959Q84 1101 146 1218T320 1406T580 1477Q690 1477 782 1436T940 1317T1043 1130T1080 881V775Q1080 625 1048 502T953 282T798 119T588 18T327 -17H304V245H323Z" />
<glyph unicode=":" horiz-adv-x="597" d="M377 153Q377 224 425 271T551 318Q631 318 678 271T726 153Q726 83 679 36T551 -11Q473 -11 425 36T377 153ZM121 957Q121 1028 169 1075T295 1122Q375 1122 422 1075T470 957Q470 887 423 840T295 793Q217 793 169 840T121
957Z" />
<glyph unicode=";" horiz-adv-x="560" d="M106 957Q106 1028 154 1075T280 1122Q360 1122 407 1075T455 957Q455 887 408 840T280 793Q202 793 154 840T106 957ZM425 46Q425 -72 367 -189T221 -382L61 -301Q84 -256 108 -209T149 -105T166 28V252H425V46Z" />
<glyph unicode="&lt;" horiz-adv-x="1043" d="M920 424V124L51 486V704L299 635L920 424ZM299 590L51 524V742L920 1105V806L299 590Z" />
<glyph unicode="=" horiz-adv-x="1183" d="M1040 731H134V984H1040V731ZM1040 295H134V548H1040V295Z" />
<glyph unicode="&gt;" horiz-adv-x="1056" d="M118 805V1103L993 742V523L742 595L118 805ZM742 638L993 704V486L118 123V422L742 638Z" />
<glyph unicode="?" horiz-adv-x="1032" d="M345 456Q345 545 358 612T404 733T493 836Q539 875 573 911T627 985T647 1067Q647 1146 611 1184T504 1223Q447 1223 401 1185T353 1060H40Q42 1205 103 1297T269 1432T504 1476Q718 1476 839 1375T960 1082Q960 994
926 929T837 808T716 691Q659 641 639 588T617 456H345ZM311 152Q311 222 358 269T485 316Q564 316 611 269T659 152Q659 82 612 35T485 -12Q406 -12 359 35T311 152Z" />
<glyph unicode="@" horiz-adv-x="1831" d="M1749 544Q1745 439 1719 339T1639 157T1504 28T1305 -21Q1175 -21 1098 65T1031 299L1082 881H1296L1245 299Q1240 254 1246 225T1268 180T1304 157T1345 150Q1407 150 1453 201T1527 339T1559 535Q1569 748 1508 907T1310
1154T959 1243Q756 1243 609 1140T379 861T286 461Q277 279 314 143T429 -84T625 -221T895 -267Q982 -267 1072 -248T1226 -201L1264 -364Q1194 -409 1089 -431T891 -453Q625 -453 439 -349T160 -42T77 461Q86 665 151 839T332 1141T606 1341T963 1413Q1224 1413
1403 1304T1671 999T1749 544ZM749 433Q742 347 754 289T797 201T877 171Q902 171 933 188T996 251T1049 385L1139 274Q1093 129 1006 56T802 -17Q705 -17 635 38T533 195T512 433Q532 603 598 728T764 921T984 990Q1102 990 1168 957T1296 881L1189 729Q1160 754
1114 778T1004 803Q927 803 875 761T792 636T749 433Z" />
<glyph unicode="A" horiz-adv-x="1389" d="M350 0H3L543 1456H762L729 1166L350 0ZM659 1166L623 1456H845L1387 0H1040L659 1166ZM1031 282H264V545H1031V282Z" />
<glyph unicode="B" horiz-adv-x="1314" d="M332 625L330 850H639Q758 850 813 893T868 1018Q868 1112 814 1152T640 1193H447V0H121V1456H640Q900 1456 1046 1358T1193 1055Q1193 966 1153 889T1025 763T791 711L702 625H332ZM245 0L368 262H689Q800 262 849 312T899
435Q899 494 879 536T816 602T702 625H409L411 850H771L846 760Q984 765 1067 718T1187 593T1224 431Q1224 217 1086 109T689 0H245Z" />
<glyph unicode="C" horiz-adv-x="1342" d="M1282 490Q1273 341 1201 226T998 45T688 -20Q498 -20 362 65T152 309T79 686V769Q79 988 154 1146T367 1390T689 1477Q875 1477 1002 1409T1199 1223T1283 956H959Q951 1080 892 1145T689 1210Q594 1210 532 1165T440
1022T409 771V686Q409 534 436 437T525 293T688 246Q776 246 834 272T922 353T957 490H1282Z" />
<glyph unicode="D" horiz-adv-x="1329" d="M261 0L263 262H577Q689 262 765 312T880 459T919 698V760Q919 903 880 999T765 1144T578 1193H255V1456H578Q776 1456 927 1368T1163 1123T1248 758V698Q1248 490 1163 333T927 88T577 0H261ZM447 0H121V1456H447V0Z" />
<glyph unicode="E" horiz-adv-x="1150" d="M1109 0H340V262H1109V0ZM447 0H121V1456H447V0ZM1009 621H340V875H1009V621ZM1109 1193H340V1456H1109V1193Z" />
<glyph unicode="F" horiz-adv-x="1120" d="M447 0H121V1456H447V0ZM1014 584H359V846H1014V584ZM1080 1193H359V1456H1080V1193Z" />
<glyph unicode="G" horiz-adv-x="1396" d="M1291 183Q1256 142 1184 95T998 14T725 -20Q534 -20 391 62T168 303T88 688V767Q88 994 165 1152T381 1394T704 1477Q899 1477 1022 1415T1211 1241T1291 985H976Q966 1058 937 1109T853 1187T714 1215Q619 1215 553
1166T453 1017T418 769V688Q418 540 454 441T563 292T745 242Q810 242 853 252T924 277T966 306V540H709V775H1291V183Z" />
<glyph unicode="H" horiz-adv-x="1445" d="M1093 613H348V875H1093V613ZM447 0H121V1456H447V0ZM1322 0H998V1456H1322V0Z" />
<glyph unicode="I" horiz-adv-x="607" d="M466 0H142V1456H466V0Z" />
<glyph unicode="J" horiz-adv-x="1147" d="M704 1456H1028V453Q1028 307 963 201T786 38T533 -20Q390 -20 278 29T102 179T38 436H364Q364 324 409 283T533 242Q586 242 624 267T683 339T704 453V1456Z" />
<glyph unicode="K" horiz-adv-x="1304" d="M447 0H121V1456H447V0ZM746 723L411 360L351 675L571 992L916 1456H1316L746 723ZM538 659L781 859L1325 0H940L538 659Z" />
<glyph unicode="L" horiz-adv-x="1111" d="M1071 0H340V262H1071V0ZM446 0H121V1456H446V0Z" />
<glyph unicode="M" horiz-adv-x="1796" d="M546 1456L897 431L1247 1456H1519L1006 0H787L274 1456H546ZM397 1456L447 360V0H121V1456H397ZM1673 1456V0H1346V360L1397 1456H1673Z" />
<glyph unicode="N" horiz-adv-x="1444" d="M1321 0H996L446 920V0H121V1456H446L997 535V1456H1321V0Z" />
<glyph unicode="O" horiz-adv-x="1416" d="M1335 699Q1335 475 1256 314T1035 67T709 -20Q525 -20 383 66T160 314T79 699V756Q79 980 159 1141T381 1389T707 1476Q891 1476 1033 1389T1255 1141T1335 756V699ZM1006 758Q1006 906 971 1006T869 1157T707 1209Q610
1209 544 1158T444 1006T409 758V699Q409 553 444 452T545 299T709 246Q804 246 870 298T971 452T1006 699V758Z" />
<glyph unicode="P" horiz-adv-x="1328" d="M333 501V763H698Q778 763 827 789T900 860T924 965Q924 1025 901 1077T828 1161T698 1193H447V0H121V1456H698Q871 1456 995 1393T1186 1219T1253 967Q1253 826 1187 721T996 559T698 501H333Z" />
<glyph unicode="Q" horiz-adv-x="1416" d="M1325 -83L1121 -263L725 55L923 236L1325 -83ZM1335 699Q1335 475 1256 314T1035 67T709 -20Q524 -20 382 66T159 314T79 699V756Q79 980 158 1141T380 1389T707 1476Q891 1476 1033 1389T1255 1141T1335 756V699ZM1006
758Q1006 906 971 1006T869 1157T707 1209Q610 1209 544 1158T443 1006T408 758V699Q408 553 443 452T545 299T709 246Q804 246 870 298T971 452T1006 699V758Z" />
<glyph unicode="R" horiz-adv-x="1316" d="M676 1456Q845 1456 967 1406T1155 1258T1221 1015Q1221 894 1182 810T1072 672T906 581L802 521H333L331 784H675Q748 784 797 808T871 878T895 987Q895 1083 841 1138T676 1193H447V0H122V1456H676ZM598 646L943 648L1273
15V0H925L598 646Z" />
<glyph unicode="S" horiz-adv-x="1269" d="M872 385Q872 433 852 468T774 535T602 603Q504 635 416 675T259 770T151 897T111 1067Q111 1191 181 1282T375 1425T658 1476Q820 1476 941 1420T1130 1261T1198 1025H873Q873 1082 850 1125T777 1193T652 1218Q580
1218 532 1198T460 1143T436 1064Q436 1019 468 985T563 923T712 866Q871 817 979 752T1142 598T1197 387Q1197 259 1132 168T946 28T664 -20Q554 -20 448 8T256 97T118 249T67 467H393Q393 403 411 359T465 288T551 248T664 236Q737 236 782 256T850 310T872 385Z"
/>
<glyph unicode="T" horiz-adv-x="1277" d="M797 0H473V1456H797V0ZM1237 1193H39V1456H1237V1193Z" />
<glyph unicode="U" horiz-adv-x="1352" d="M1241 1456V501Q1241 332 1169 216T970 40T677 -20Q511 -20 383 39T182 215T110 501V1456H436V501Q436 410 464 353T547 269T677 242Q754 242 807 268T887 352T915 501V1456H1241Z" />
<glyph unicode="V" horiz-adv-x="1348" d="M984 1456H1346L845 0H608L656 332L984 1456ZM689 332L740 0H501L3 1456H364L689 332Z" />
<glyph unicode="W" horiz-adv-x="1786" d="M756 1456H926L983 1305L677 0H492L469 171L756 1456ZM590 165L553 0H346L30 1456H353L590 165ZM1434 1456H1756L1441 0H1233L1199 171L1434 1456ZM1321 165L1295 0H1110L802 1306L862 1456H1031L1321 165Z" />
<glyph unicode="X" horiz-adv-x="1306" d="M654 969L908 1456H1281L865 734L1291 0H915L654 496L392 0H16L442 734L26 1456H399L654 969Z" />
<glyph unicode="Y" horiz-adv-x="1275" d="M637 818L922 1456H1275L802 525V0H473V525L-1 1456H353L637 818Z" />
<glyph unicode="Z" horiz-adv-x="1245" d="M1190 0H152V262H1190V0ZM301 0H71V184L955 1456H1178V1276L301 0ZM1068 1193H68V1456H1068V1193Z" />
<glyph unicode="[" horiz-adv-x="576" d="M559 1462H428V-106H559V-345H114V1701H559V1462Z" />
<glyph unicode="\" horiz-adv-x="871" d="M-8 1456H313L921 -125H599L-8 1456Z" />
<glyph unicode="]" horiz-adv-x="576" d="M14 1701H460V-345H14V-106H147V1462H14V1701Z" />
<glyph unicode="^" horiz-adv-x="905" d="M283 729H41L340 1456H515L461 1198L283 729ZM445 1198L392 1456H568L866 729H624L445 1198Z" />
<glyph unicode="_" horiz-adv-x="913" d="M911 -243H0V0H911V-243Z" />
<glyph unicode="`" horiz-adv-x="688" d="M586 1223H331L50 1536H387L586 1223Z" />
<glyph unicode="a" horiz-adv-x="1095" d="M679 720Q679 790 645 831T534 873Q491 873 461 859T414 819T397 752H85Q85 851 142 929T304 1055T551 1102Q678 1102 777 1060T935 932T993 718V269Q993 170 1004 115T1037 17V0H723Q701 47 690 117T679 262V720ZM721
485H569Q464 485 419 438T373 326Q373 278 407 247T499 215Q559 215 603 238T670 294T692 355L770 221Q754 181 728 139T661 61T564 3T429 -20Q327 -20 243 21T110 136T60 306Q60 475 185 569T563 663H719L721 485Z" />
<glyph unicode="b" horiz-adv-x="1154" d="M418 1536V260L386 0H105V1536H418ZM1093 532Q1093 370 1048 245T909 50T672 -20Q540 -20 456 53T325 252T258 533V551Q278 706 324 830T455 1028T670 1102Q814 1102 908 1031T1047 836T1093 553V532ZM781 553Q781 633
766 700T710 808T592 849Q536 849 498 832T435 780T399 697T386 588V496Q387 415 407 356T473 264T594 232Q671 232 711 270T766 376T781 532V553Z" />
<glyph unicode="c" horiz-adv-x="1069" d="M559 231Q609 231 646 249T703 302T725 382H1018Q1018 263 958 173T795 31T565 -20Q396 -20 284 52T117 249T61 528V553Q61 708 116 832T283 1029T563 1102Q698 1102 800 1051T960 903T1018 672H725Q724 721 706 761T650
826T557 851Q480 851 441 809T387 700T373 553V528Q373 448 386 381T440 272T559 231Z" />
<glyph unicode="d" horiz-adv-x="1155" d="M735 1536H1049V0H767L735 244V1536ZM60 549Q60 714 109 838T253 1032T484 1102Q610 1102 695 1029T829 829T897 543V525Q878 375 829 251T695 54T482 -20Q347 -20 253 51T110 247T60 528V549ZM373 528Q373 446 390 379T449
273T562 233Q631 233 676 265T744 354T769 488V580Q768 645 755 695T716 780T653 831T564 849Q494 849 452 810T392 703T373 549V528Z" />
<glyph unicode="e" horiz-adv-x="1112" d="M615 -20Q443 -20 321 51T133 242T68 504V542Q68 703 129 830T304 1029T580 1102Q737 1102 844 1036T1008 851T1064 569V437H197V646H758V671Q757 725 738 765T680 828T578 851Q504 851 461 810T400 699T381 542V504Q381
423 411 362T498 267T635 232Q710 232 776 259T891 348L1039 174Q989 101 881 41T615 -20Z" />
<glyph unicode="f" horiz-adv-x="740" d="M181 0V1172Q181 1359 290 1458T587 1557Q629 1557 666 1551T740 1537L738 1296Q720 1300 699 1302T652 1304Q577 1304 536 1270T495 1172V0H181ZM706 855H23V1082H706V855Z" />
<glyph unicode="g" horiz-adv-x="1174" d="M1070 1082V40Q1070 -109 1003 -213T815 -372T535 -426Q468 -426 392 -408T247 -353T131 -261L267 -69Q313 -120 378 -152T523 -184Q634 -184 695 -125T756 41V828L786 1082H1070ZM63 549Q63 714 116 838T269 1032T504
1102Q614 1102 687 1060T805 943T877 765T918 543V525Q897 375 851 251T720 54T502 -20Q367 -20 269 51T117 247T63 528V549ZM376 528Q376 446 398 379T465 273T582 233Q658 233 704 265T774 354T799 488V580Q798 645 785 695T746 780T680 831T584 849Q515 849
469 810T399 703T376 549V528Z" />
<glyph unicode="h" horiz-adv-x="1150" d="M410 0H97V1536H410V0ZM285 572Q285 726 335 845T477 1033T691 1102Q798 1102 879 1061T1005 926T1051 676V0H737V678Q737 745 718 782T663 834T574 849Q514 849 475 829T411 773T377 686T367 576L285 572Z" />
<glyph unicode="i" horiz-adv-x="554" d="M434 0H121V1082H434V0ZM102 1360Q102 1430 149 1474T276 1519Q355 1519 402 1475T450 1360Q450 1291 403 1246T276 1201Q197 1201 150 1246T102 1360Z" />
<glyph unicode="j" horiz-adv-x="542" d="M437 1082V-46Q437 -235 335 -336T50 -437Q11 -437 -25 -433T-101 -420L-102 -173Q-78 -177 -55 -179T-9 -182Q55 -182 89 -149T123 -46V1082H437ZM99 1360Q99 1430 146 1474T273 1519Q352 1519 399 1475T447 1360Q447
1291 400 1246T273 1201Q194 1201 147 1246T99 1360Z" />
<glyph unicode="k" horiz-adv-x="1107" d="M418 0H105V1537H418V0ZM635 536L379 281L260 500L464 766L726 1082H1101L635 536ZM471 492L692 672L1132 0H773L471 492Z" />
<glyph unicode="l" horiz-adv-x="554" d="M434 0H121V1536H434V0Z" />
<glyph unicode="m" horiz-adv-x="1768" d="M418 0H105V1082H399L418 855V0ZM293 572Q293 726 340 845T482 1033T716 1102Q860 1102 950 1014T1040 722V0H727V682Q727 751 710 787T659 836T579 849Q527 849 489 829T426 773T388 686T376 576L293 572ZM904 580Q903
729 949 847T1088 1033T1319 1102Q1422 1102 1499 1062T1620 931T1663 685V0H1349V685Q1349 753 1332 788T1281 836T1202 849Q1153 849 1117 830T1058 776T1022 693T1009 589L904 580Z" />
<glyph unicode="n" horiz-adv-x="1151" d="M410 0H98V1082H391L410 851V0ZM286 572Q286 738 339 856T487 1038T709 1102Q811 1102 887 1062T1007 931T1051 684V0H737V686Q737 751 719 786T664 835T575 849Q521 849 482 829T418 773T380 686T368 576L286 572Z" />
<glyph unicode="o" horiz-adv-x="1157" d="M61 551Q61 709 121 833T296 1030T576 1102Q744 1102 859 1030T1034 834T1094 551V530Q1094 373 1035 248T860 52T578 -20Q412 -20 297 51T121 248T61 530V551ZM374 530Q374 447 393 379T457 271T578 231Q654 231 699
271T763 379T782 530V551Q782 632 763 700T699 810T576 851Q501 851 457 810T393 701T374 551V530Z" />
<glyph unicode="p" horiz-adv-x="1154" d="M418 -416H105V1082H395L418 874V-416ZM1093 533Q1093 375 1045 250T903 53T672 -20Q540 -20 456 54T324 251T256 524V547Q276 707 323 832T454 1029T671 1102Q808 1102 902 1034T1044 842T1093 554V533ZM780 554Q780
639 762 705T701 810T589 849Q534 849 496 832T433 782T397 699T384 584V487Q386 413 406 355T471 264T591 231Q662 231 703 272T762 381T780 533V554Z" />
<glyph unicode="q" horiz-adv-x="1156" d="M735 857L776 1082H1049V-416H735V857ZM60 551Q60 716 109 840T253 1033T484 1102Q617 1102 700 1029T831 831T898 546V527Q878 377 831 253T700 54T482 -20Q346 -20 252 52T109 248T60 530V551ZM373 530Q373 449 390
381T450 272T562 231Q638 231 683 264T748 355T771 491V583Q770 648 758 697T722 781T659 833T564 851Q494 851 452 812T392 705T373 551V530Z" />
<glyph unicode="r" horiz-adv-x="759" d="M418 0H105V1082H399L418 826V0ZM732 787Q710 790 679 792T624 795Q546 795 496 772T421 702T395 584L335 615Q335 758 371 868T477 1040T645 1102Q668 1102 694 1099T736 1089L732 787Z" />
<glyph unicode="s" horiz-adv-x="1053" d="M681 303Q681 332 664 353T600 392T466 429Q357 453 270 494T133 601T82 761Q82 852 134 930T284 1055T520 1102Q663 1102 766 1057T926 933T982 751H670Q670 812 635 848T519 884Q478 884 447 870T398 833T381 777Q381
748 399 726T459 687T571 657Q685 636 778 599T928 494T984 314Q984 218 927 143T766 24T521 -20Q367 -20 262 35T102 175T47 348H342Q345 296 370 263T436 215T528 199Q579 199 612 212T663 248T681 303Z" />
<glyph unicode="t" horiz-adv-x="698" d="M654 855H10V1082H654V855ZM473 1349V344Q473 301 484 278T519 245T582 236Q609 236 629 238T665 243V8Q626 -6 582 -13T484 -20Q384 -20 312 13T200 118T160 307V1349H473Z" />
<glyph unicode="u" horiz-adv-x="1151" d="M738 1082H1051V0H757L738 262V1082ZM859 487Q859 341 815 227T681 46T458 -20Q297 -20 198 73T98 382V1082H410V380Q410 328 427 296T477 248T553 233Q637 233 684 266T752 356T772 485L859 487Z" />
<glyph unicode="v" horiz-adv-x="1045" d="M706 1082H1033L674 0H477L481 228L706 1082ZM562 228L565 0H369L8 1082H337L562 228Z" />
<glyph unicode="w" horiz-adv-x="1498" d="M636 1082H832L771 728L554 0H391L418 303L636 1082ZM474 306L484 0H293L24 1082H325L474 306ZM1169 1082H1469L1202 0H1010L1022 321L1169 1082ZM1077 306L1104 0H940L724 726L665 1082H858L1077 306Z" />
<glyph unicode="x" horiz-adv-x="1049" d="M528 777L696 1082H1027L729 554L1040 0H708L528 325L350 0H17L329 554L32 1082H364L528 777Z" />
<glyph unicode="y" horiz-adv-x="1041" d="M708 1082H1042L611 -161Q596 -202 572 -249T509 -340T408 -410T259 -437Q230 -437 210 -435T170 -429T125 -417V-182Q136 -182 147 -182T169 -183Q253 -183 291 -158T347 -81L427 126L708 1082ZM556 324L596 -21L385
-30L0 1082H335L556 324Z" />
<glyph unicode="z" horiz-adv-x="1049" d="M978 0H153V251H978V0ZM282 0H72V186L753 1082H965V902L282 0ZM858 830H88V1082H858V830Z" />
<glyph unicode="{" horiz-adv-x="673" d="M636 1425Q552 1395 523 1315T493 1132V930Q493 829 447 746T303 615T45 566V730Q136 730 175 784T215 930V1132Q215 1237 248 1328T360 1489T576 1597L636 1425ZM576 -358Q439 -319 360 -250T248 -89T215 108V310Q215
401 176 455T45 509V674Q204 674 302 626T447 495T493 310V108Q493 5 522 -74T636 -185L576 -358Z" />
<glyph unicode="|" horiz-adv-x="524" d="M355 -270H173V1456H355V-270Z" />
<glyph unicode="}" horiz-adv-x="673" d="M97 1597Q236 1559 314 1490T425 1329T458 1132V930Q458 838 498 784T628 730V568Q470 568 372 616T227 747T181 930V1132Q181 1235 152 1315T37 1425L97 1597ZM37 -185Q122 -153 151 -74T181 108V310Q181 413 227 494T371
624T628 672V509Q538 509 498 455T458 310V108Q458 3 426 -88T315 -249T97 -358L37 -185Z" />
<glyph unicode="~" horiz-adv-x="1315" d="M1212 797Q1212 666 1169 570T1051 422T877 370Q797 370 735 401T602 500Q562 539 527 559T452 580Q396 580 362 531T328 408L101 411Q101 545 143 639T261 783T434 833Q513 833 579 801T712 704Q752 665 787 644T859
623Q915 623 950 674T985 799L1212 797Z" />
<glyph unicode="&#xa0;" horiz-adv-x="511" />
<glyph unicode="&#xa1;" horiz-adv-x="597" d="M171 630H428L465 -371H133L171 630ZM473 938Q473 869 426 822T300 774Q221 774 174 821T127 938Q127 1008 174 1055T300 1102Q379 1102 426 1055T473 938Z" />
<glyph unicode="&#xa2;" horiz-adv-x="1191" d="M705 1025H501V1318H705V1025ZM705 -245H501V47H705V-245ZM596 231Q646 231 683 249T741 302T762 382H1055Q1055 263 995 173T832 31T602 -20Q433 -20 322 52T154 249T98 528V553Q98 708 153 832T321 1029T600 1102Q735
1102 837 1051T997 903T1055 672H762Q761 721 743 761T687 826T594 851Q517 851 478 809T425 700T411 553V528Q411 448 424 381T477 272T596 231Z" />
<glyph unicode="&#xa3;" horiz-adv-x="1224" d="M104 0V262H1170L1169 0H104ZM100 566V820H887V566H100ZM596 447Q596 347 552 280T397 167L200 262Q230 269 244 294T262 354T266 426L247 1039Q247 1177 304 1274T464 1423T703 1475Q927 1475 1047 1359T1167 1052H858Q858
1113 838 1148T782 1198T706 1214Q648 1214 610 1171T571 1039L596 447Z" />
<glyph unicode="&#xa4;" horiz-adv-x="1409" d="M301 608Q301 517 332 438T419 300T548 208T707 175Q791 175 864 208T994 300T1081 438T1113 608Q1113 699 1082 777T994 915T865 1006T707 1039Q622 1039 549 1007T420 915T333 778T301 608ZM111 608Q111 741 157
855T286 1054T476 1186T707 1234Q830 1234 937 1187T1127 1054T1255 855T1301 608Q1301 475 1255 361T1127 162T938 28T707 -20Q584 -20 476 28T286 161T158 361T111 608ZM1140 911L996 1059L1197 1265L1342 1117L1140 911ZM220 -26L76 121L278 326L422 180L220
-26ZM996 179L1140 326L1342 121L1197 -27L996 179ZM76 1117L220 1264L422 1058L278 911L76 1117Z" />
<glyph unicode="&#xa5;" horiz-adv-x="1104" d="M990 558H84V744H990V558ZM990 269H84V454H990V269ZM758 1456H1094L695 546H518L477 719L758 1456ZM633 710L587 546H411L10 1456H346L633 710ZM710 0H386V758H710V0Z" />
<glyph unicode="&#xa6;" horiz-adv-x="523" d="M124 -270V526H401V-270H124ZM401 698H124V1456H401V698Z" />
<glyph unicode="&#xa7;" horiz-adv-x="1294" d="M675 294Q772 294 826 340T880 458Q880 502 855 533T769 593T599 654Q449 696 341 748T174 881T116 1091Q116 1208 181 1294T364 1428T643 1476Q887 1476 1027 1366T1168 1050H855Q855 1099 831 1138T760 1201T643
1224Q530 1224 480 1186T429 1093Q429 1050 451 1021T533 968T705 915Q859 876 967 824T1131 692T1188 493Q1188 319 1049 232T675 144V294ZM590 726Q494 726 450 681T405 566Q405 518 427 487T508 429T680 369Q836 328 944 277T1108 144T1165 -68Q1165 -250 1022
-347T642 -444Q539 -444 441 -424T265 -356T139 -229T92 -29H405Q405 -80 425 -111T480 -160T556 -184T642 -191Q745 -191 799 -159T853 -69Q853 -29 829 -1T743 54T573 110Q424 149 316 201T151 332T93 531Q93 699 228 789T590 880V726Z" />
<glyph unicode="&#xa8;" horiz-adv-x="977" d="M92 1364Q92 1420 134 1458T238 1496Q299 1496 341 1458T383 1364Q383 1308 341 1270T238 1232Q176 1232 134 1270T92 1364ZM592 1363Q592 1419 633 1457T737 1496Q799 1496 840 1458T882 1363Q882 1307 841 1269T737
1231Q675 1231 634 1269T592 1363Z" />
<glyph unicode="&#xa9;" horiz-adv-x="1605" d="M1117 596Q1117 439 1027 361T781 282Q619 282 525 389T431 669V789Q431 961 525 1068T781 1176Q936 1176 1027 1097T1118 861H959Q959 957 914 997T781 1038Q718 1038 675 1007T611 919T589 790V669Q589 557 637
488T781 419Q868 419 913 459T958 596H1117ZM209 729Q209 597 254 484T380 286T567 154T795 107Q916 107 1022 154T1208 285T1334 484T1380 729Q1380 861 1335 974T1209 1171T1022 1302T795 1349Q674 1349 568 1302T381 1171T255 974T209 729ZM85 729Q85 888 140
1024T293 1261T519 1419T795 1476Q942 1476 1070 1420T1296 1262T1449 1024T1505 729Q1505 570 1450 434T1297 196T1071 37T795 -20Q648 -20 520 37T293 196T140 434T85 729Z" />
<glyph unicode="&#xaa;" horiz-adv-x="908" d="M577 1201Q577 1262 549 1293T464 1325Q401 1325 365 1301T328 1229L152 1243Q152 1344 237 1410T464 1476Q595 1476 675 1407T756 1200V886Q756 837 761 793T782 705H601Q589 740 583 780T577 861V1201ZM622 1031H478Q392
1031 353 999T314 923Q314 883 342 861T428 838Q469 838 510 856T580 900T608 951L626 832Q611 801 580 768T501 713T384 691Q264 691 200 753T135 919Q135 1029 219 1089T477 1150H621L622 1031Z" />
<glyph unicode="&#xab;" horiz-adv-x="1037" d="M562 515L326 516V529L604 920H800L562 515ZM800 120H604L326 510V523L562 524L800 120ZM704 515L468 516V529L746 920H942L704 515ZM942 120H746L468 510V523L704 524L942 120Z" />
<glyph unicode="&#xac;" horiz-adv-x="1128" d="M963 632H126V807H963V632ZM963 373H758V729H963V373Z" />
<glyph unicode="&#xad;" horiz-adv-x="600" d="M705 498H126V751H705V498Z" />
<glyph unicode="&#xae;" horiz-adv-x="1605" d="M606 652L604 789H783Q851 789 903 818T955 903Q955 975 917 1003T781 1031H652V316H499V1166H781Q930 1166 1018 1099T1107 903Q1107 822 1050 770T887 688Q884 688 881 681T874 673Q857 663 853 659T844 653T819
652H606ZM830 767Q987 767 1045 696T1104 515V459Q1104 422 1108 389T1121 332V316H964Q954 342 953 390T951 460V514Q951 584 919 618T809 652L830 767ZM210 729Q210 597 255 484T380 286T567 154T795 107Q917 107 1023 154T1209 285T1335 484T1381 729Q1381 861
1335 974T1209 1171T1023 1302T795 1349Q674 1349 568 1302T381 1171T255 974T210 729ZM86 729Q86 888 141 1024T294 1261T520 1419T795 1476Q942 1476 1070 1420T1297 1262T1450 1024T1506 729Q1506 570 1451 434T1297 196T1071 37T795 -20Q648 -20 520 37T294
196T141 434T86 729Z" />
<glyph unicode="&#xaf;" horiz-adv-x="1046" d="M869 1284H173V1457H869V1284Z" />
<glyph unicode="&#xb0;" horiz-adv-x="803" d="M125 1197Q125 1273 163 1336T263 1438T402 1476Q477 1476 538 1438T636 1337T673 1197Q673 1121 636 1058T538 958T402 921Q326 921 264 958T163 1058T125 1197ZM278 1197Q278 1144 315 1109T402 1074Q452 1074
486 1109T521 1196Q521 1251 487 1287T402 1323Q352 1323 315 1287T278 1197Z" />
<glyph unicode="&#xb1;" horiz-adv-x="1102" d="M1004 701H88V963H1004V701ZM685 348H411V1290H685V348ZM978 1H109V257H978V1Z" />
<glyph unicode="&#xb2;" horiz-adv-x="766" d="M696 667H72V813L358 1066Q410 1112 435 1154T460 1217Q460 1253 438 1273T371 1294Q320 1294 296 1263T271 1190H54Q54 1266 91 1329T197 1430T360 1468Q511 1468 593 1403T675 1217Q675 1157 651 1111T578 1018T453
913L356 840H696V667Z" />
<glyph unicode="&#xb3;" horiz-adv-x="766" d="M364 1140Q418 1140 443 1163T469 1224Q469 1248 447 1271T370 1294Q332 1294 304 1281T275 1242H59Q59 1317 102 1367T214 1442T363 1468Q506 1468 595 1410T685 1241Q685 1178 647 1136T544 1071T399 1048H274V1140H364ZM274
1088H399Q486 1088 554 1071T661 1010T700 889Q700 778 603 717T362 656Q289 656 216 680T94 759T46 906H263Q263 877 293 854T377 830Q434 830 458 855T483 912Q483 959 452 979T364 999H274V1088Z" />
<glyph unicode="&#xb4;" horiz-adv-x="689" d="M294 1536H630L350 1223H97L294 1536Z" />
<glyph unicode="&#xb5;" horiz-adv-x="1151" d="M98 585H355L393 -416H60L98 585ZM738 1082H1051V0H757L738 262V1082ZM859 487Q859 341 815 227T681 46T458 -20Q297 -20 198 73T98 382V1082H410V380Q410 328 427 296T477 248T553 233Q637 233 684 266T752 356T772
485L859 487Z" />
<glyph unicode="&#xb6;" horiz-adv-x="1004" d="M651 0V520H569Q410 520 301 580T134 747T77 988Q77 1122 134 1228T300 1395T569 1456H878V0H651Z" />
<glyph unicode="&#xb7;" horiz-adv-x="635" d="M138 691Q138 762 186 809T313 856Q392 856 439 809T487 691Q487 621 440 574T313 527Q234 527 186 574T138 691Z" />
<glyph unicode="&#xb8;" horiz-adv-x="557" d="M360 9L349 -50Q404 -60 451 -98T498 -223Q498 -334 407 -401T137 -468L130 -288Q161 -288 183 -281T219 -256T232 -210Q232 -171 200 -156T93 -136L124 9H360Z" />
<glyph unicode="&#xb9;" horiz-adv-x="766" d="M536 667H321V1203L139 1165V1331L517 1453H536V667Z" />
<glyph unicode="&#xba;" horiz-adv-x="938" d="M117 1120Q117 1276 211 1376T465 1476Q626 1476 719 1376T813 1120V1044Q813 889 720 790T467 690Q306 690 212 789T117 1044V1120ZM296 1044Q296 956 338 898T467 839Q552 839 593 897T635 1044V1120Q635 1207
593 1266T465 1325Q380 1325 338 1266T296 1120V1044Z" />
<glyph unicode="&#xbb;" horiz-adv-x="1038" d="M320 523L555 522V509L278 118H81L320 523ZM278 919L555 528V515L320 514L81 919H278ZM723 523L958 522V509L681 118H484L723 523ZM681 919L958 528V515L723 514L484 919H681Z" />
<glyph unicode="&#xbc;" horiz-adv-x="1545" d="M548 108L399 187L1110 1325L1259 1246L548 108ZM536 546H321V1082L139 1044V1210L517 1332H536V546ZM1485 157H846L832 300L1185 789H1355L1171 505L1037 333H1485V157ZM1402 0H1185V789H1402V0Z" />
<glyph unicode="&#xbd;" horiz-adv-x="1648" d="M538 108L389 187L1100 1325L1249 1246L538 108ZM536 546H321V1082L139 1044V1210L517 1332H536V546ZM1579 0H955V146L1241 399Q1293 445 1318 487T1343 550Q1343 586 1321 606T1254 627Q1203 627 1179 596T1154
523H937Q937 599 974 662T1080 763T1243 801Q1394 801 1476 736T1558 550Q1558 490 1534 444T1461 351T1336 246L1239 173H1579V0Z" />
<glyph unicode="&#xbe;" horiz-adv-x="1633" d="M364 1012Q418 1012 443 1035T469 1096Q469 1120 447 1143T370 1166Q332 1166 304 1153T275 1114H59Q59 1189 102 1239T214 1314T363 1340Q506 1340 595 1282T685 1113Q685 1050 647 1008T544 943T399 920H274V1012H364ZM274
960H399Q486 960 554 943T661 882T700 761Q700 650 603 589T362 528Q289 528 216 552T94 631T46 778H263Q263 749 293 726T377 702Q434 702 458 727T483 784Q483 831 452 851T364 871H274V960ZM636 108L487 187L1198 1325L1347 1246L636 108ZM1573 157H934L920
300L1273 789H1443L1259 505L1125 333H1573V157ZM1490 0H1273V789H1490V0Z" />
<glyph unicode="&#xbf;" horiz-adv-x="1031" d="M684 635Q684 546 672 480T628 360T540 258Q495 216 460 179T404 102T383 11Q383 -64 421 -98T521 -132Q585 -132 630 -94T678 31H991Q990 -113 928 -205T762 -341T527 -385Q313 -385 192 -284T70 9Q70 96 106 163T199
288T321 407Q358 441 377 473T403 544T411 635H684ZM725 939Q725 870 678 823T552 775Q474 775 426 822T378 939Q378 1009 426 1056T552 1103Q631 1103 678 1056T725 939Z" />
<glyph unicode="&#xc0;" horiz-adv-x="1389" d="M350 0H3L543 1456H762L729 1166L350 0ZM659 1166L623 1456H845L1387 0H1040L659 1166ZM1031 282H264V545H1031V282ZM870 1533H615L334 1846H671L870 1533Z" />
<glyph unicode="&#xc1;" horiz-adv-x="1389" d="M350 0H3L543 1456H762L729 1166L350 0ZM659 1166L623 1456H845L1387 0H1040L659 1166ZM1031 282H264V545H1031V282ZM739 1846H1076L796 1533H542L739 1846Z" />
<glyph unicode="&#xc2;" horiz-adv-x="1389" d="M350 0H3L543 1456H762L729 1166L350 0ZM659 1166L623 1456H845L1387 0H1040L659 1166ZM1031 282H264V545H1031V282ZM1100 1566V1553H853L697 1692L543 1553H301V1569L608 1847H788L1100 1566Z" />
<glyph unicode="&#xc3;" horiz-adv-x="1389" d="M350 0H3L543 1456H762L729 1166L350 0ZM659 1166L623 1456H845L1387 0H1040L659 1166ZM1031 282H264V545H1031V282ZM1078 1836Q1078 1762 1048 1700T967 1601T848 1564Q801 1564 767 1576T703 1605T643 1635T573
1648Q539 1648 516 1625T493 1556L315 1566Q315 1638 344 1700T425 1800T544 1839Q583 1839 617 1826T684 1797T749 1769T819 1756Q853 1756 877 1779T901 1847L1078 1836Z" />
<glyph unicode="&#xc4;" horiz-adv-x="1389" d="M350 0H3L543 1456H762L729 1166L350 0ZM659 1166L623 1456H845L1387 0H1040L659 1166ZM1031 282H264V545H1031V282ZM301 1674Q301 1730 343 1768T447 1806Q508 1806 550 1768T592 1674Q592 1618 550 1580T447 1542Q385
1542 343 1580T301 1674ZM801 1673Q801 1729 842 1767T946 1806Q1008 1806 1049 1768T1091 1673Q1091 1617 1050 1579T946 1541Q884 1541 843 1579T801 1673Z" />
<glyph unicode="&#xc5;" horiz-adv-x="1389" d="M350 0H3L543 1456H762L729 1166L350 0ZM659 1166L623 1456H845L1387 0H1040L659 1166ZM1031 282H264V545H1031V282ZM474 1731Q474 1815 537 1875T699 1936Q796 1936 859 1876T923 1731Q923 1648 860 1589T699 1530Q601
1530 538 1589T474 1731ZM592 1731Q592 1688 620 1657T699 1625Q748 1625 776 1656T805 1731Q805 1774 777 1806T699 1838Q649 1838 621 1806T592 1731Z" />
<glyph unicode="&#xc6;" horiz-adv-x="1929" d="M371 0H6L772 1456H968L1000 1295L371 0ZM1099 329H344V593H1099V329ZM1864 0H1131V255H1864V0ZM1275 0H962L901 1456H1214L1275 0ZM1721 618H1091V873H1721V618ZM1802 1201H1070V1456H1802V1201Z" />
<glyph unicode="&#xc7;" horiz-adv-x="1342" d="M1282 490Q1273 341 1201 226T998 45T688 -20Q498 -20 362 65T152 309T79 686V769Q79 988 154 1146T367 1390T689 1477Q875 1477 1002 1409T1199 1223T1283 956H959Q951 1080 892 1145T689 1210Q594 1210 532 1165T440
1022T409 771V686Q409 534 436 437T525 293T688 246Q776 246 834 272T922 353T957 490H1282ZM808 8L797 -51Q852 -61 899 -99T946 -224Q946 -335 855 -402T585 -469L578 -289Q609 -289 631 -282T667 -257T680 -211Q680 -172 648 -157T541 -137L572 8H808Z" />
<glyph unicode="&#xc8;" horiz-adv-x="1150" d="M1109 0H340V262H1109V0ZM447 0H121V1456H447V0ZM1009 621H340V875H1009V621ZM1109 1193H340V1456H1109V1193ZM812 1535H557L276 1848H613L812 1535Z" />
<glyph unicode="&#xc9;" horiz-adv-x="1150" d="M1109 0H340V262H1109V0ZM447 0H121V1456H447V0ZM1009 621H340V875H1009V621ZM1109 1193H340V1456H1109V1193ZM681 1848H1018L738 1535H484L681 1848Z" />
<glyph unicode="&#xca;" horiz-adv-x="1150" d="M1109 0H340V262H1109V0ZM447 0H121V1456H447V0ZM1009 621H340V875H1009V621ZM1109 1193H340V1456H1109V1193ZM1041 1568V1555H794L638 1694L484 1555H242V1571L549 1849H729L1041 1568Z" />
<glyph unicode="&#xcb;" horiz-adv-x="1150" d="M1109 0H340V262H1109V0ZM447 0H121V1456H447V0ZM1009 621H340V875H1009V621ZM1109 1193H340V1456H1109V1193ZM242 1676Q242 1732 284 1770T388 1808Q449 1808 491 1770T533 1676Q533 1620 491 1582T388 1544Q326
1544 284 1582T242 1676ZM742 1675Q742 1731 783 1769T887 1808Q949 1808 990 1770T1032 1675Q1032 1619 991 1581T887 1543Q825 1543 784 1581T742 1675Z" />
<glyph unicode="&#xcc;" horiz-adv-x="607" d="M466 0H142V1456H466V0ZM476 1535H221L-60 1848H277L476 1535Z" />
<glyph unicode="&#xcd;" horiz-adv-x="607" d="M466 0H142V1456H466V0ZM344 1848H681L401 1535H147L344 1848Z" />
<glyph unicode="&#xce;" horiz-adv-x="607" d="M466 0H142V1456H466V0ZM705 1568V1555H458L302 1694L148 1555H-94V1571L213 1849H393L705 1568Z" />
<glyph unicode="&#xcf;" horiz-adv-x="607" d="M466 0H142V1456H466V0ZM-94 1676Q-94 1732 -52 1770T52 1808Q113 1808 155 1770T197 1676Q197 1620 155 1582T52 1544Q-10 1544 -52 1582T-94 1676ZM406 1675Q406 1731 447 1769T551 1808Q613 1808 654 1770T696
1675Q696 1619 655 1581T551 1543Q489 1543 448 1581T406 1675Z" />
<glyph unicode="&#xd0;" horiz-adv-x="1329" d="M261 0L263 262H577Q689 262 765 312T880 459T919 698V760Q919 903 880 999T765 1144T578 1193H255V1456H578Q776 1456 927 1368T1163 1123T1248 758V698Q1248 490 1163 333T927 88T577 0H261ZM447 0H121V1456H447V0ZM688
637H-26V828H688V637Z" />
<glyph unicode="&#xd1;" horiz-adv-x="1444" d="M1321 0H996L446 920V0H121V1456H446L997 535V1456H1321V0ZM1107 1836Q1107 1762 1077 1700T996 1601T877 1564Q830 1564 796 1576T732 1605T672 1635T602 1648Q568 1648 545 1625T522 1556L344 1566Q344 1638 373
1700T454 1800T573 1839Q612 1839 646 1826T713 1797T778 1769T848 1756Q882 1756 906 1779T930 1847L1107 1836Z" />
<glyph unicode="&#xd2;" horiz-adv-x="1416" d="M1335 699Q1335 475 1256 314T1035 67T709 -20Q525 -20 383 66T160 314T79 699V756Q79 980 159 1141T381 1389T707 1476Q891 1476 1033 1389T1255 1141T1335 756V699ZM1006 758Q1006 906 971 1006T869 1157T707
1209Q610 1209 544 1158T444 1006T409 758V699Q409 553 444 452T545 299T709 246Q804 246 870 298T971 452T1006 699V758ZM880 1532H625L344 1845H681L880 1532Z" />
<glyph unicode="&#xd3;" horiz-adv-x="1416" d="M1335 699Q1335 475 1256 314T1035 67T709 -20Q525 -20 383 66T160 314T79 699V756Q79 980 159 1141T381 1389T707 1476Q891 1476 1033 1389T1255 1141T1335 756V699ZM1006 758Q1006 906 971 1006T869 1157T707
1209Q610 1209 544 1158T444 1006T409 758V699Q409 553 444 452T545 299T709 246Q804 246 870 298T971 452T1006 699V758ZM748 1845H1085L805 1532H551L748 1845Z" />
<glyph unicode="&#xd4;" horiz-adv-x="1416" d="M1335 699Q1335 475 1256 314T1035 67T709 -20Q525 -20 383 66T160 314T79 699V756Q79 980 159 1141T381 1389T707 1476Q891 1476 1033 1389T1255 1141T1335 756V699ZM1006 758Q1006 906 971 1006T869 1157T707
1209Q610 1209 544 1158T444 1006T409 758V699Q409 553 444 452T545 299T709 246Q804 246 870 298T971 452T1006 699V758ZM1109 1565V1552H862L706 1691L552 1552H310V1568L617 1846H797L1109 1565Z" />
<glyph unicode="&#xd5;" horiz-adv-x="1416" d="M1335 699Q1335 475 1256 314T1035 67T709 -20Q525 -20 383 66T160 314T79 699V756Q79 980 159 1141T381 1389T707 1476Q891 1476 1033 1389T1255 1141T1335 756V699ZM1006 758Q1006 906 971 1006T869 1157T707
1209Q610 1209 544 1158T444 1006T409 758V699Q409 553 444 452T545 299T709 246Q804 246 870 298T971 452T1006 699V758ZM1088 1835Q1088 1761 1058 1699T977 1600T858 1563Q811 1563 777 1575T713 1604T653 1634T583 1647Q549 1647 526 1624T503 1555L325 1565Q325
1637 354 1699T435 1799T554 1838Q593 1838 627 1825T694 1796T759 1768T829 1755Q863 1755 887 1778T911 1846L1088 1835Z" />
<glyph unicode="&#xd6;" horiz-adv-x="1416" d="M1335 699Q1335 475 1256 314T1035 67T709 -20Q525 -20 383 66T160 314T79 699V756Q79 980 159 1141T381 1389T707 1476Q891 1476 1033 1389T1255 1141T1335 756V699ZM1006 758Q1006 906 971 1006T869 1157T707
1209Q610 1209 544 1158T444 1006T409 758V699Q409 553 444 452T545 299T709 246Q804 246 870 298T971 452T1006 699V758ZM310 1673Q310 1729 352 1767T456 1805Q517 1805 559 1767T601 1673Q601 1617 559 1579T456 1541Q394 1541 352 1579T310 1673ZM810 1672Q810
1728 851 1766T955 1805Q1017 1805 1058 1767T1100 1672Q1100 1616 1059 1578T955 1540Q893 1540 852 1578T810 1672Z" />
<glyph unicode="&#xd7;" horiz-adv-x="1088" d="M60 388L839 1182L1021 1002L242 208L60 388ZM59 1002L241 1182L1020 388L838 208L59 1002Z" />
<glyph unicode="&#xd8;" horiz-adv-x="1412" d="M342 -96H144L1087 1519H1285L342 -96ZM1344 699Q1344 475 1264 314T1043 67T718 -20Q533 -20 391 66T168 314T88 699V756Q88 980 167 1141T389 1389T716 1476Q900 1476 1041 1389T1263 1141T1344 756V699ZM1015
758Q1015 906 980 1006T878 1157T716 1209Q619 1209 553 1158T452 1006T417 758V699Q417 553 452 452T554 299T718 246Q813 246 879 298T980 452T1015 699V758Z" />
<glyph unicode="&#xd9;" horiz-adv-x="1352" d="M1241 1456V501Q1241 332 1169 216T970 40T677 -20Q511 -20 383 39T182 215T110 501V1456H436V501Q436 410 464 353T547 269T677 242Q754 242 807 268T887 352T915 501V1456H1241ZM844 1533H589L308 1846H645L844 1533Z" />
<glyph unicode="&#xda;" horiz-adv-x="1352" d="M1241 1456V501Q1241 332 1169 216T970 40T677 -20Q511 -20 383 39T182 215T110 501V1456H436V501Q436 410 464 353T547 269T677 242Q754 242 807 268T887 352T915 501V1456H1241ZM713 1846H1050L770 1533H516L713 1846Z" />
<glyph unicode="&#xdb;" horiz-adv-x="1352" d="M1241 1456V501Q1241 332 1169 216T970 40T677 -20Q511 -20 383 39T182 215T110 501V1456H436V501Q436 410 464 353T547 269T677 242Q754 242 807 268T887 352T915 501V1456H1241ZM1073 1566V1553H826L670 1692L516
1553H274V1569L581 1847H761L1073 1566Z" />
<glyph unicode="&#xdc;" horiz-adv-x="1352" d="M1241 1456V501Q1241 332 1169 216T970 40T677 -20Q511 -20 383 39T182 215T110 501V1456H436V501Q436 410 464 353T547 269T677 242Q754 242 807 268T887 352T915 501V1456H1241ZM274 1674Q274 1730 316 1768T420
1806Q481 1806 523 1768T565 1674Q565 1618 523 1580T420 1542Q358 1542 316 1580T274 1674ZM774 1673Q774 1729 815 1767T919 1806Q981 1806 1022 1768T1064 1673Q1064 1617 1023 1579T919 1541Q857 1541 816 1579T774 1673Z" />
<glyph unicode="&#xdd;" horiz-adv-x="1275" d="M637 818L922 1456H1275L802 525V0H473V525L-1 1456H353L637 818ZM680 1846H1017L737 1533H483L680 1846Z" />
<glyph unicode="&#xde;" horiz-adv-x="1254" d="M439 1456V0H125V1456H439ZM649 1195Q826 1195 948 1137T1133 975T1196 738Q1196 605 1133 502T948 340T649 281H398V533H649Q733 533 784 561T859 636T882 736Q882 790 859 837T785 914T649 943H439L230 1195H649Z" />
<glyph unicode="&#xdf;" horiz-adv-x="1309" d="M447 0H135V1099Q135 1328 267 1444T626 1561Q745 1561 843 1519T999 1392T1058 1184Q1058 1111 1043 1069T1007 995T972 929T956 833Q956 795 985 760T1057 686T1144 601T1216 496T1245 363Q1245 244 1193 158T1039
26T787 -20Q737 -20 684 -14T586 5T513 33L569 279Q601 264 656 248T784 232Q831 232 864 247T916 290T934 359Q934 406 905 443T832 515T745 590T672 685T643 817Q643 885 659 927T695 1002T732 1073T748 1169Q748 1211 729 1243T676 1292T599 1310Q529 1310 488
1264T447 1094V0Z" />
<glyph unicode="&#xe0;" horiz-adv-x="1095" d="M679 720Q679 790 645 831T534 873Q491 873 461 859T414 819T397 752H85Q85 851 142 929T304 1055T551 1102Q678 1102 777 1060T935 932T993 718V269Q993 170 1004 115T1037 17V0H723Q701 47 690 117T679 262V720ZM721
485H569Q464 485 419 438T373 326Q373 278 407 247T499 215Q559 215 603 238T670 294T692 355L770 221Q754 181 728 139T661 61T564 3T429 -20Q327 -20 243 21T110 136T60 306Q60 475 185 569T563 663H719L721 485ZM719 1223H464L183 1536H520L719 1223Z" />
<glyph unicode="&#xe1;" horiz-adv-x="1095" d="M679 720Q679 790 645 831T534 873Q491 873 461 859T414 819T397 752H85Q85 851 142 929T304 1055T551 1102Q678 1102 777 1060T935 932T993 718V269Q993 170 1004 115T1037 17V0H723Q701 47 690 117T679 262V720ZM721
485H569Q464 485 419 438T373 326Q373 278 407 247T499 215Q559 215 603 238T670 294T692 355L770 221Q754 181 728 139T661 61T564 3T429 -20Q327 -20 243 21T110 136T60 306Q60 475 185 569T563 663H719L721 485ZM587 1536H924L644 1223H390L587 1536Z" />
<glyph unicode="&#xe2;" horiz-adv-x="1095" d="M679 720Q679 790 645 831T534 873Q491 873 461 859T414 819T397 752H85Q85 851 142 929T304 1055T551 1102Q678 1102 777 1060T935 932T993 718V269Q993 170 1004 115T1037 17V0H723Q701 47 690 117T679 262V720ZM721
485H569Q464 485 419 438T373 326Q373 278 407 247T499 215Q559 215 603 238T670 294T692 355L770 221Q754 181 728 139T661 61T564 3T429 -20Q327 -20 243 21T110 136T60 306Q60 475 185 569T563 663H719L721 485ZM947 1256V1243H700L544 1382L390 1243H148V1259L455
1537H635L947 1256Z" />
<glyph unicode="&#xe3;" horiz-adv-x="1095" d="M679 720Q679 790 645 831T534 873Q491 873 461 859T414 819T397 752H85Q85 851 142 929T304 1055T551 1102Q678 1102 777 1060T935 932T993 718V269Q993 170 1004 115T1037 17V0H723Q701 47 690 117T679 262V720ZM721
485H569Q464 485 419 438T373 326Q373 278 407 247T499 215Q559 215 603 238T670 294T692 355L770 221Q754 181 728 139T661 61T564 3T429 -20Q327 -20 243 21T110 136T60 306Q60 475 185 569T563 663H719L721 485ZM926 1525Q926 1451 896 1389T815 1290T696 1253Q649
1253 615 1265T551 1294T491 1324T421 1337Q387 1337 364 1314T341 1245L163 1255Q163 1327 192 1389T273 1489T392 1528Q431 1528 465 1515T532 1486T597 1458T667 1445Q701 1445 725 1468T749 1536L926 1525Z" />
<glyph unicode="&#xe4;" horiz-adv-x="1095" d="M679 720Q679 790 645 831T534 873Q491 873 461 859T414 819T397 752H85Q85 851 142 929T304 1055T551 1102Q678 1102 777 1060T935 932T993 718V269Q993 170 1004 115T1037 17V0H723Q701 47 690 117T679 262V720ZM721
485H569Q464 485 419 438T373 326Q373 278 407 247T499 215Q559 215 603 238T670 294T692 355L770 221Q754 181 728 139T661 61T564 3T429 -20Q327 -20 243 21T110 136T60 306Q60 475 185 569T563 663H719L721 485ZM149 1364Q149 1420 191 1458T295 1496Q356 1496
398 1458T440 1364Q440 1308 398 1270T295 1232Q233 1232 191 1270T149 1364ZM649 1363Q649 1419 690 1457T794 1496Q856 1496 897 1458T939 1363Q939 1307 898 1269T794 1231Q732 1231 691 1269T649 1363Z" />
<glyph unicode="&#xe5;" horiz-adv-x="1095" d="M679 720Q679 790 645 831T534 873Q491 873 461 859T414 819T397 752H85Q85 851 142 929T304 1055T551 1102Q678 1102 777 1060T935 932T993 718V269Q993 170 1004 115T1037 17V0H723Q701 47 690 117T679 262V720ZM721
485H569Q464 485 419 438T373 326Q373 278 407 247T499 215Q559 215 603 238T670 294T692 355L770 221Q754 181 728 139T661 61T564 3T429 -20Q327 -20 243 21T110 136T60 306Q60 475 185 569T563 663H719L721 485ZM322 1420Q322 1504 385 1564T547 1625Q644 1625
707 1565T771 1420Q771 1337 708 1278T547 1219Q449 1219 386 1278T322 1420ZM440 1420Q440 1377 468 1346T547 1314Q596 1314 624 1345T653 1420Q653 1463 625 1495T547 1527Q497 1527 469 1495T440 1420Z" />
<glyph unicode="&#xe6;" horiz-adv-x="1730" d="M720 703Q720 771 683 811T575 851Q498 851 455 819T412 742L100 761Q100 860 159 937T325 1058T579 1102Q781 1102 902 1002T1023 701V218L720 183V703ZM767 453H572Q508 453 465 434T399 384T377 319Q377 268
415 237T533 206Q573 206 614 220T691 256T748 303T769 352L913 192Q887 144 831 95T685 13T473 -20Q275 -20 170 73T64 323Q64 481 192 567T570 653H765L767 453ZM1243 -20Q1075 -20 959 45T782 226T722 490V564Q722 722 779 844T948 1034T1224 1102Q1438 1102
1559 969T1681 610V439H848V646H1374V672Q1374 727 1358 767T1308 829T1224 851Q1149 851 1106 814T1043 711T1024 564V490Q1024 417 1049 358T1132 266T1280 232Q1382 232 1446 253T1570 302L1650 101Q1613 72 1552 44T1413 -2T1243 -20Z" />
<glyph unicode="&#xe7;" horiz-adv-x="1069" d="M559 231Q609 231 646 249T703 302T725 382H1018Q1018 263 958 173T795 31T565 -20Q396 -20 284 52T117 249T61 528V553Q61 708 116 832T283 1029T563 1102Q698 1102 800 1051T960 903T1018 672H725Q724 721 706
761T650 826T557 851Q480 851 441 809T387 700T373 553V528Q373 448 386 381T440 272T559 231ZM680 8L669 -51Q724 -61 771 -99T818 -224Q818 -335 727 -402T457 -469L450 -289Q481 -289 503 -282T539 -257T552 -211Q552 -172 520 -157T413 -137L444 8H680Z" />
<glyph unicode="&#xe8;" horiz-adv-x="1112" d="M615 -20Q443 -20 321 51T133 242T68 504V542Q68 703 129 830T304 1029T580 1102Q737 1102 844 1036T1008 851T1064 569V437H197V646H758V671Q757 725 738 765T680 828T578 851Q504 851 461 810T400 699T381 542V504Q381
423 411 362T498 267T635 232Q710 232 776 259T891 348L1039 174Q989 101 881 41T615 -20ZM713 1224H458L177 1537H514L713 1224Z" />
<glyph unicode="&#xe9;" horiz-adv-x="1112" d="M615 -20Q443 -20 321 51T133 242T68 504V542Q68 703 129 830T304 1029T580 1102Q737 1102 844 1036T1008 851T1064 569V437H197V646H758V671Q757 725 738 765T680 828T578 851Q504 851 461 810T400 699T381 542V504Q381
423 411 362T498 267T635 232Q710 232 776 259T891 348L1039 174Q989 101 881 41T615 -20ZM582 1537H919L639 1224H385L582 1537Z" />
<glyph unicode="&#xea;" horiz-adv-x="1112" d="M615 -20Q443 -20 321 51T133 242T68 504V542Q68 703 129 830T304 1029T580 1102Q737 1102 844 1036T1008 851T1064 569V437H197V646H758V671Q757 725 738 765T680 828T578 851Q504 851 461 810T400 699T381 542V504Q381
423 411 362T498 267T635 232Q710 232 776 259T891 348L1039 174Q989 101 881 41T615 -20ZM942 1257V1244H695L539 1383L385 1244H143V1260L450 1538H630L942 1257Z" />
<glyph unicode="&#xeb;" horiz-adv-x="1112" d="M615 -20Q443 -20 321 51T133 242T68 504V542Q68 703 129 830T304 1029T580 1102Q737 1102 844 1036T1008 851T1064 569V437H197V646H758V671Q757 725 738 765T680 828T578 851Q504 851 461 810T400 699T381 542V504Q381
423 411 362T498 267T635 232Q710 232 776 259T891 348L1039 174Q989 101 881 41T615 -20ZM143 1365Q143 1421 185 1459T289 1497Q350 1497 392 1459T434 1365Q434 1309 392 1271T289 1233Q227 1233 185 1271T143 1365ZM643 1364Q643 1420 684 1458T788 1497Q850
1497 891 1459T933 1364Q933 1308 892 1270T788 1232Q726 1232 685 1270T643 1364Z" />
<glyph unicode="&#xec;" horiz-adv-x="574" d="M443 0H129V1082H443V0ZM461 1205H206L-75 1518H262L461 1205Z" />
<glyph unicode="&#xed;" horiz-adv-x="574" d="M443 0H129V1082H443V0ZM329 1518H666L386 1205H132L329 1518Z" />
<glyph unicode="&#xee;" horiz-adv-x="574" d="M443 0H129V1082H443V0ZM690 1238V1225H443L287 1364L133 1225H-109V1241L198 1519H378L690 1238Z" />
<glyph unicode="&#xef;" horiz-adv-x="574" d="M443 0H129V1082H443V0ZM-110 1346Q-110 1402 -68 1440T36 1478Q97 1478 139 1440T181 1346Q181 1290 139 1252T36 1214Q-26 1214 -68 1252T-110 1346ZM390 1345Q390 1401 431 1439T535 1478Q597 1478 638 1440T680
1345Q680 1289 639 1251T535 1213Q473 1213 432 1251T390 1345Z" />
<glyph unicode="&#xf0;" horiz-adv-x="1174" d="M327 1580Q557 1534 734 1409T1013 1092T1114 654V586Q1114 406 1045 270T857 57T584 -20Q432 -20 318 45T139 221T75 468Q75 617 128 728T282 902T528 964Q641 964 731 915T878 780T943 583L832 586Q832 609 818
634T775 680T702 715T598 729Q528 729 482 698T412 609T388 468Q388 402 411 349T480 264T588 232Q659 232 706 273T776 387T800 551V656Q800 809 753 925T625 1123T441 1259T228 1340L327 1580ZM417 1028L337 1146L911 1508L989 1389L417 1028Z" />
<glyph unicode="&#xf1;" horiz-adv-x="1151" d="M410 0H98V1082H391L410 851V0ZM286 572Q286 738 339 856T487 1038T709 1102Q811 1102 887 1062T1007 931T1051 684V0H737V686Q737 751 719 786T664 835T575 849Q521 849 482 829T418 773T380 686T368 576L286 572ZM958
1526Q958 1452 928 1390T847 1291T728 1254Q681 1254 647 1266T583 1295T523 1325T453 1338Q419 1338 396 1315T373 1246L195 1256Q195 1328 224 1390T305 1490T424 1529Q463 1529 497 1516T564 1487T629 1459T699 1446Q733 1446 757 1469T781 1537L958 1526Z"
/>
<glyph unicode="&#xf2;" horiz-adv-x="1157" d="M61 551Q61 709 121 833T296 1030T576 1102Q744 1102 859 1030T1034 834T1094 551V530Q1094 373 1035 248T860 52T578 -20Q412 -20 297 51T121 248T61 530V551ZM374 530Q374 447 393 379T457 271T578 231Q654 231
699 271T763 379T782 530V551Q782 632 763 700T699 810T576 851Q501 851 457 810T393 701T374 551V530ZM750 1223H495L214 1536H551L750 1223Z" />
<glyph unicode="&#xf3;" horiz-adv-x="1157" d="M61 551Q61 709 121 833T296 1030T576 1102Q744 1102 859 1030T1034 834T1094 551V530Q1094 373 1035 248T860 52T578 -20Q412 -20 297 51T121 248T61 530V551ZM374 530Q374 447 393 379T457 271T578 231Q654 231
699 271T763 379T782 530V551Q782 632 763 700T699 810T576 851Q501 851 457 810T393 701T374 551V530ZM618 1536H955L675 1223H421L618 1536Z" />
<glyph unicode="&#xf4;" horiz-adv-x="1157" d="M61 551Q61 709 121 833T296 1030T576 1102Q744 1102 859 1030T1034 834T1094 551V530Q1094 373 1035 248T860 52T578 -20Q412 -20 297 51T121 248T61 530V551ZM374 530Q374 447 393 379T457 271T578 231Q654 231
699 271T763 379T782 530V551Q782 632 763 700T699 810T576 851Q501 851 457 810T393 701T374 551V530ZM978 1256V1243H731L575 1382L421 1243H179V1259L486 1537H666L978 1256Z" />
<glyph unicode="&#xf5;" horiz-adv-x="1157" d="M61 551Q61 709 121 833T296 1030T576 1102Q744 1102 859 1030T1034 834T1094 551V530Q1094 373 1035 248T860 52T578 -20Q412 -20 297 51T121 248T61 530V551ZM374 530Q374 447 393 379T457 271T578 231Q654 231
699 271T763 379T782 530V551Q782 632 763 700T699 810T576 851Q501 851 457 810T393 701T374 551V530ZM958 1526Q958 1452 928 1390T847 1291T728 1254Q681 1254 647 1266T583 1295T523 1325T453 1338Q419 1338 396 1315T373 1246L195 1256Q195 1328 224 1390T305
1490T424 1529Q463 1529 497 1516T564 1487T629 1459T699 1446Q733 1446 757 1469T781 1537L958 1526Z" />
<glyph unicode="&#xf6;" horiz-adv-x="1157" d="M61 551Q61 709 121 833T296 1030T576 1102Q744 1102 859 1030T1034 834T1094 551V530Q1094 373 1035 248T860 52T578 -20Q412 -20 297 51T121 248T61 530V551ZM374 530Q374 447 393 379T457 271T578 231Q654 231
699 271T763 379T782 530V551Q782 632 763 700T699 810T576 851Q501 851 457 810T393 701T374 551V530ZM180 1364Q180 1420 222 1458T326 1496Q387 1496 429 1458T471 1364Q471 1308 429 1270T326 1232Q264 1232 222 1270T180 1364ZM680 1363Q680 1419 721 1457T825
1496Q887 1496 928 1458T970 1363Q970 1307 929 1269T825 1231Q763 1231 722 1269T680 1363Z" />
<glyph unicode="&#xf7;" horiz-adv-x="1168" d="M1097 563H62V806H1097V563ZM405 1088Q405 1159 452 1204T579 1249Q658 1249 706 1204T754 1088Q754 1018 706 973T579 928Q500 928 453 973T405 1088ZM405 277Q405 347 452 392T579 437Q658 437 706 392T754 277Q754
207 706 162T579 117Q500 117 453 162T405 277Z" />
<glyph unicode="&#xf8;" horiz-adv-x="1156" d="M334 -144H164L827 1218H997L334 -144ZM61 551Q61 709 121 833T296 1030T576 1102Q744 1102 859 1030T1034 834T1094 551V530Q1094 373 1035 248T860 52T578 -20Q412 -20 297 51T121 248T61 530V551ZM374 530Q374
447 393 379T457 271T578 231Q654 231 699 271T763 379T782 530V551Q782 632 763 700T699 810T576 851Q501 851 457 810T393 701T374 551V530Z" />
<glyph unicode="&#xf9;" horiz-adv-x="1151" d="M738 1082H1051V0H757L738 262V1082ZM859 487Q859 341 815 227T681 46T458 -20Q297 -20 198 73T98 382V1082H410V380Q410 328 427 296T477 248T553 233Q637 233 684 266T752 356T772 485L859 487ZM747 1223H492L211
1536H548L747 1223Z" />
<glyph unicode="&#xfa;" horiz-adv-x="1151" d="M738 1082H1051V0H757L738 262V1082ZM859 487Q859 341 815 227T681 46T458 -20Q297 -20 198 73T98 382V1082H410V380Q410 328 427 296T477 248T553 233Q637 233 684 266T752 356T772 485L859 487ZM616 1536H953L673
1223H419L616 1536Z" />
<glyph unicode="&#xfb;" horiz-adv-x="1151" d="M738 1082H1051V0H757L738 262V1082ZM859 487Q859 341 815 227T681 46T458 -20Q297 -20 198 73T98 382V1082H410V380Q410 328 427 296T477 248T553 233Q637 233 684 266T752 356T772 485L859 487ZM976 1256V1243H729L573
1382L419 1243H177V1259L484 1537H664L976 1256Z" />
<glyph unicode="&#xfc;" horiz-adv-x="1151" d="M738 1082H1051V0H757L738 262V1082ZM859 487Q859 341 815 227T681 46T458 -20Q297 -20 198 73T98 382V1082H410V380Q410 328 427 296T477 248T553 233Q637 233 684 266T752 356T772 485L859 487ZM178 1364Q178
1420 220 1458T324 1496Q385 1496 427 1458T469 1364Q469 1308 427 1270T324 1232Q262 1232 220 1270T178 1364ZM678 1363Q678 1419 719 1457T823 1496Q885 1496 926 1458T968 1363Q968 1307 927 1269T823 1231Q761 1231 720 1269T678 1363Z" />
<glyph unicode="&#xfd;" horiz-adv-x="1041" d="M708 1082H1042L611 -161Q596 -202 572 -249T509 -340T408 -410T259 -437Q230 -437 210 -435T170 -429T125 -417V-182Q136 -182 147 -182T169 -183Q253 -183 291 -158T347 -81L427 126L708 1082ZM556 324L596 -21L385
-30L0 1082H335L556 324ZM565 1536H902L622 1223H368L565 1536Z" />
<glyph unicode="&#xfe;" horiz-adv-x="1159" d="M419 -416H106V1536H419V-416ZM1094 533Q1094 375 1046 250T904 53T673 -20Q540 -20 456 54T324 251T257 524V547Q277 707 323 832T454 1029T671 1102Q808 1102 902 1034T1045 842T1094 554V533ZM781 554Q781 639
763 705T702 810T591 849Q535 849 497 832T434 782T398 699T385 584V487Q387 413 407 355T472 264T593 231Q663 231 704 272T763 381T781 533V554Z" />
<glyph unicode="&#xff;" horiz-adv-x="1041" d="M708 1082H1042L611 -161Q596 -202 572 -249T509 -340T408 -410T259 -437Q230 -437 210 -435T170 -429T125 -417V-182Q136 -182 147 -182T169 -183Q253 -183 291 -158T347 -81L427 126L708 1082ZM556 324L596 -21L385
-30L0 1082H335L556 324ZM127 1364Q127 1420 169 1458T273 1496Q334 1496 376 1458T418 1364Q418 1308 376 1270T273 1232Q211 1232 169 1270T127 1364ZM627 1363Q627 1419 668 1457T772 1496Q834 1496 875 1458T917 1363Q917 1307 876 1269T772 1231Q710 1231
669 1269T627 1363Z" />
<glyph unicode="&#x2013;" horiz-adv-x="1284" d="M1449 583H407V839H1449V583Z" />
<glyph unicode="&#x2014;" horiz-adv-x="1556" d="M1748 583H358V839H1748V583Z" />
<glyph unicode="&#x2018;" horiz-adv-x="495" d="M105 1199Q105 1266 131 1336T199 1468T291 1574L434 1493Q399 1435 373 1365T346 1199V1041H105V1199Z" />
<glyph unicode="&#x2019;" horiz-adv-x="484" d="M388 1375Q388 1309 363 1239T295 1107T204 1001L61 1081Q96 1140 122 1210T148 1376V1536H388V1375Z" />
<glyph unicode="&#x201a;" horiz-adv-x="531" d="M400 63Q400 -3 375 -73T307 -206T215 -311L73 -230Q108 -172 129 -102T151 64V239H402L400 63Z" />
<glyph unicode="&#x201c;" horiz-adv-x="856" d="M113 1199Q113 1266 139 1336T207 1468T299 1574L442 1493Q407 1435 381 1365T354 1199V1041H113V1199ZM464 1199Q464 1266 490 1336T558 1468T650 1574L793 1493Q758 1435 732 1365T705 1199V1041H464V1199Z" />
<glyph unicode="&#x201d;" horiz-adv-x="862" d="M402 1375Q402 1309 377 1239T309 1107T218 1001L75 1081Q110 1140 136 1210T162 1376V1536H402V1375ZM759 1375Q759 1309 734 1239T666 1107T575 1001L432 1081Q467 1140 493 1210T519 1376V1536H759V1375Z" />
<glyph unicode="&#x201e;" horiz-adv-x="853" d="M400 63Q400 -6 377 -80T314 -221T225 -332L73 -251Q108 -188 129 -114T151 64V267H402L400 63ZM756 63Q756 -6 730 -80T662 -221T570 -332L419 -251Q453 -188 479 -114T506 64V267H756V63Z" />
<glyph unicode="&#x2022;" horiz-adv-x="747" d="M135 765Q135 870 201 936T378 1003Q494 1003 559 937T625 765V728Q625 624 560 559T381 493Q268 493 202 558T135 728V765Z" />
<glyph unicode="&#x2039;" horiz-adv-x="644" d="M344 514L108 515V528L386 919H582L344 514ZM582 119H386L108 509V522L344 523L582 119Z" />
<glyph unicode="&#x203a;" horiz-adv-x="620" d="M317 523L552 522V509L275 118H78L317 523ZM275 919L552 528V515L317 514L78 919H275Z" />
</font>
</defs>
</svg>
