<?xml version="1.0" standalone="no"?>
<!DOCTYPE svg PUBLIC "-//W3C//DTD SVG 1.1//EN" "http://www.w3.org/Graphics/SVG/1.1/DTD/svg11.dtd">
<svg xmlns="http://www.w3.org/2000/svg">
<defs >
<font id="Assistant" horiz-adv-x="458" ><font-face
    font-family="Assistant ExtraLight Light"
    units-per-em="1000"
    panose-1="0 0 0 0 0 0 0 0 0 0"
    ascent="1021"
    descent="-287"
    alphabetic="0" />
<glyph unicode=" " horiz-adv-x="200" />
<glyph unicode="!" horiz-adv-x="265" d="M114 183L107 595L106 670H159L158 595L151 183H114ZM132 -12Q115 -12 101 1T87 36Q87 60 101 73T132 86Q151 86 164 73T178 36Q178 14 165 1T132 -12Z" />
<glyph unicode="&quot;" horiz-adv-x="373" d="M94 468L83 619L82 692H141L140 619L130 468H94ZM242 468L231 619L230 692H289L288 619L278 468H242Z" />
<glyph unicode="#" horiz-adv-x="482" d="M92 0L118 212H36V252H123L144 418H56V458H147L172 650H211L186 458H332L357 650H396L371 458H452V418H367L347 252H432V212H341L316 0H277L303 212H156L131 0H92ZM162 252H308L328 418H182L162 252Z" />
<glyph unicode="$" horiz-adv-x="482" d="M244 -12Q207 -12 172 -1T108 28T58 66L84 102Q113 76 153 55T244 33Q306 33 338 66T370 151Q370 199 350 229T296 279T227 317T158 356T104 410T83 492Q83 539 104 575T163 631T249 651Q306 651 342 630T406 578L376
547Q349 575 322 591T249 607Q198 607 167 575T135 495Q135 453 156 427T209 382T278 346T348 307T401 248T422 155Q422 104 399 66T335 8T244 -12ZM226 -110V2H268V-110H226ZM226 628V749H268V628H226Z" />
<glyph unicode="%" horiz-adv-x="807" d="M198 -12L564 670H606L239 -12H198ZM182 260Q138 260 106 284T57 354T39 468Q39 566 77 620T182 674Q248 674 286 620T324 468Q324 401 307 355T257 284T182 260ZM182 296Q227 296 254 340T281 468Q281 550 254 593T182
637Q137 637 110 594T82 468Q82 385 109 341T182 296ZM626 -12Q582 -12 550 12T501 82T483 196Q483 295 522 348T626 402Q692 402 730 349T768 196Q768 129 751 83T702 12T626 -12ZM626 24Q671 24 698 69T725 196Q725 279 698 322T626 366Q581 366 554 323T527
196Q527 114 554 69T626 24Z" />
<glyph unicode="&amp;" horiz-adv-x="581" d="M227 -12Q174 -12 130 10T61 73T36 168Q36 214 57 250T112 316T184 371T256 424T311 480T333 547Q333 578 317 604T263 630Q221 630 197 599T172 523Q172 474 194 419T253 309T335 205T426 118Q465 86 501 65T568
33L552 -12Q518 0 478 22T395 81Q345 123 297 177T210 290T148 408T125 522Q125 564 142 598T191 651T264 670Q319 670 348 636T378 549Q378 507 357 474T303 412T233 356T162 301T108 242T87 171Q87 129 107 98T160 49T232 31Q277 31 317 54T390 114Q431 160 460
219T509 347H558Q536 274 504 208T426 87Q387 44 339 16T227 -12Z" />
<glyph unicode="&apos;" horiz-adv-x="225" d="M94 468L83 619L82 692H141L140 619L130 468H94Z" />
<glyph unicode="(" horiz-adv-x="284" d="M219 -175Q157 -75 122 35T87 278Q87 410 122 520T219 731L250 714Q191 620 161 508T131 278Q131 161 161 49T250 -158L219 -175Z" />
<glyph unicode=")" horiz-adv-x="284" d="M65 -175L33 -158Q92 -63 122 49T152 278Q152 396 122 508T33 714L65 731Q127 631 162 521T197 278Q197 146 162 36T65 -175Z" />
<glyph unicode="*" horiz-adv-x="399" d="M133 454L104 476L159 565L67 602L78 634L175 609L182 712H217L224 610L321 634L332 602L240 565L295 476L266 454L200 538L133 454Z" />
<glyph unicode="+" horiz-adv-x="482" d="M218 109V309H34V351H218V551H264V351H448V309H264V109H218Z" />
<glyph unicode="," horiz-adv-x="225" d="M63 -158L48 -124Q84 -106 105 -74T127 0L115 62L152 13Q145 3 136 0T116 -4Q97 -4 84 7T70 41Q70 62 84 74T116 86Q142 86 156 66T171 9Q171 -47 141 -90T63 -158Z" />
<glyph unicode="-" horiz-adv-x="301" d="M41 228V272H262V228H41Z" />
<glyph unicode="." horiz-adv-x="225" d="M112 -12Q95 -12 81 1T67 36Q67 60 81 73T112 86Q131 86 144 73T158 36Q158 14 145 1T112 -12Z" />
<glyph unicode="/" horiz-adv-x="356" d="M9 -160L307 710H349L51 -160H9Z" />
<glyph unicode="0" horiz-adv-x="482" d="M241 -12Q149 -12 99 75T48 322Q48 481 98 566T241 651Q333 651 384 566T435 322Q435 162 384 75T241 -12ZM241 32Q284 32 316 64T365 160T383 322Q383 418 366 482T316 576T241 607Q198 607 166 577T117 482T99 322Q99
225 116 161T166 64T241 32Z" />
<glyph unicode="1" horiz-adv-x="443" d="M52 0V45H202V563H87V597Q127 604 158 615T212 639H253V45H391V0H52Z" />
<glyph unicode="2" horiz-adv-x="482" d="M41 0V32Q144 136 213 214T318 353T353 469Q353 528 321 567T217 607Q174 607 137 584T71 525L38 556Q75 597 119 624T223 651Q280 651 321 629T383 566T405 470Q405 407 369 343T269 206T117 41Q144 43 171 44T225 45H437V0H41Z" />
<glyph unicode="3" horiz-adv-x="482" d="M232 -12Q181 -12 143 1T77 35T28 78L57 113Q86 83 127 58T231 33Q295 33 336 70T378 169Q378 212 356 244T286 294T159 313V357Q231 357 274 375T335 423T354 491Q354 544 320 575T229 607Q186 607 149 588T85 538L55
572Q89 606 132 628T230 651Q281 651 321 633T384 580T407 495Q407 434 373 395T287 338V334Q326 326 358 304T411 248T431 169Q431 113 405 73T333 10T232 -12Z" />
<glyph unicode="4" horiz-adv-x="482" d="M309 0V456Q309 479 310 512T313 569H309Q297 548 284 529T257 487L77 231H452V188H17V220L309 639H358V0H309Z" />
<glyph unicode="5" horiz-adv-x="482" d="M228 -12Q177 -12 139 1T74 34T25 75L54 110Q83 80 122 57T226 33Q268 33 303 53T360 111T381 200Q381 274 340 317T229 360Q194 360 168 349T112 318L79 339L102 639H401V594H148L128 371Q152 385 178 394T239 403Q293
403 337 382T408 316T434 202Q434 133 405 86T328 13T228 -12Z" />
<glyph unicode="6" horiz-adv-x="482" d="M262 -12Q215 -12 176 7T110 65T67 160T52 291Q52 390 71 459T123 570T199 631T288 651Q334 651 368 634T427 588L396 554Q375 580 347 593T288 607Q238 607 196 577T128 477T102 291Q102 213 119 155T173 64T263 31Q299
31 327 52T372 108T389 189Q389 234 375 269T331 324T255 345Q221 345 179 322T99 244L98 294Q131 337 173 361T261 386Q317 386 357 364T418 297T440 189Q440 130 416 85T351 14T262 -12Z" />
<glyph unicode="7" horiz-adv-x="482" d="M186 0Q191 127 211 227T272 416T377 594H44V639H440V608Q383 533 346 463T287 322T256 173T241 0H186Z" />
<glyph unicode="8" horiz-adv-x="482" d="M244 -12Q185 -12 139 11T67 73T40 164Q40 207 59 241T107 301T166 343V347Q132 370 104 406T76 493Q76 540 98 575T159 631T245 651Q327 651 373 604T419 484Q419 449 405 418T369 363T329 323V319Q357 302 382 281T424
229T441 156Q441 109 417 71T348 11T244 -12ZM245 30Q288 30 320 46T371 92T389 157Q389 204 362 234T291 284T198 324Q152 296 121 257T90 167Q90 128 110 97T165 48T245 30ZM291 337Q330 370 350 406T371 482Q371 517 357 546T314 592T245 610Q193 610 159 577T125
493Q125 449 149 421T212 373T291 337Z" />
<glyph unicode="9" horiz-adv-x="482" d="M194 -12Q148 -12 114 5T55 51L86 85Q107 60 135 47T194 33Q244 33 286 63T354 162T380 348Q380 427 363 485T309 575T219 608Q183 608 155 588T110 531T93 450Q93 405 107 370T151 315T227 295Q261 295 303 318T383 395L384
345Q352 303 309 278T221 253Q165 253 125 275T64 342T42 450Q42 509 66 554T131 625T220 651Q267 651 306 632T372 574T415 479T430 348Q430 249 411 180T359 69T283 8T194 -12Z" />
<glyph unicode=":" horiz-adv-x="225" d="M112 366Q95 366 81 379T67 414Q67 438 81 451T112 464Q131 464 144 451T158 414Q158 392 145 379T112 366ZM112 -12Q95 -12 81 1T67 36Q67 60 81 73T112 86Q131 86 144 73T158 36Q158 14 145 1T112 -12Z" />
<glyph unicode=";" horiz-adv-x="225" d="M112 366Q95 366 81 379T67 414Q67 438 81 451T112 464Q131 464 144 451T158 414Q158 392 145 379T112 366ZM63 -158L48 -124Q84 -106 105 -74T127 0L115 62L152 13Q145 3 136 0T116 -4Q97 -4 84 7T70 41Q70 62 84 74T116
86Q142 86 156 66T171 9Q171 -47 141 -90T63 -158Z" />
<glyph unicode="&lt;" horiz-adv-x="482" d="M448 143L34 308V356L448 521V472L220 385L87 334V330L220 279L448 192V143Z" />
<glyph unicode="=" horiz-adv-x="482" d="M34 412V454H448V412H34ZM34 462V504H448V462H34Z" />
<glyph unicode="&gt;" horiz-adv-x="482" d="M34 143V192L262 279L395 330V334L262 385L34 472V521L448 356V308L34 143Z" />
<glyph unicode="?" horiz-adv-x="407" d="M162 183Q155 232 168 270T203 339T248 400T288 459T305 525Q305 554 293 580T257 621T194 637Q159 637 126 621T68 575L37 603Q67 637 107 659T199 682Q248 682 283 662T337 607T356 528Q356 488 340 455T299 391T253
330T217 264T209 183H162ZM189 -12Q171 -12 157 1T143 36Q143 60 157 73T189 86Q207 86 220 73T234 36Q234 14 221 1T189 -12Z" />
<glyph unicode="@" horiz-adv-x="820" d="M390 -147Q318 -147 256 -124T149 -57T77 53T51 203Q51 301 83 381T172 517T300 605T453 636Q550 636 621 596T730 483T769 315Q769 251 752 203T707 121T647 71T582 54Q542 54 515 73T484 130H482Q456 102 426 82T360
61Q313 61 279 96T245 198Q245 235 257 275T294 348T353 403T432 424Q459 424 479 412T515 376H517L526 416H563L527 226Q495 94 586 94Q618 94 651 119T706 194T728 313Q728 377 709 429T654 518T567 576T449 596Q381 596 318 569T204 490T124 366T94 205Q94 132
116 74T178 -24T273 -86T394 -108Q443 -108 484 -95T561 -60L578 -95Q536 -121 489 -134T390 -147ZM368 101Q392 101 418 116T473 166L504 336Q487 364 471 374T431 384Q387 384 356 356T307 286T289 201Q289 146 312 124T368 101Z" />
<glyph unicode="A" horiz-adv-x="530" d="M7 0L237 658H292L523 0H466L338 384Q318 442 301 496T266 610H262Q245 551 228 497T191 384L61 0H7ZM115 221V265H412V221H115Z" />
<glyph unicode="B" horiz-adv-x="580" d="M96 0V658H277Q343 658 392 642T469 590T496 498Q496 448 470 409T395 355V351Q458 340 497 300T536 192Q536 128 506 86T420 22T290 0H96ZM149 44H278Q374 44 429 79T484 192Q484 261 431 294T278 328H149V44ZM149 371H260Q358
371 400 403T443 493Q443 560 398 587T265 615H149V371Z" />
<glyph unicode="C" horiz-adv-x="566" d="M332 -12Q251 -12 188 29T90 148T54 330Q54 409 74 471T133 579T223 647T338 670Q396 670 440 646T511 591L480 556Q454 586 419 604T338 623Q268 623 217 587T138 486T110 331Q110 241 137 175T214 73T335 36Q385 36
424 56T498 116L529 82Q491 39 444 14T332 -12Z" />
<glyph unicode="D" horiz-adv-x="606" d="M96 0V658H250Q352 658 419 619T519 506T552 331Q552 231 519 157T420 41T252 0H96ZM149 45H246Q332 45 387 81T470 181T497 331Q497 417 470 480T388 579T246 614H149V45Z" />
<glyph unicode="E" horiz-adv-x="517" d="M96 0V658H460V613H149V372H410V326H149V45H470V0H96Z" />
<glyph unicode="F" horiz-adv-x="480" d="M96 0V658H459V613H149V358H411V313H149V0H96Z" />
<glyph unicode="G" horiz-adv-x="607" d="M340 -12Q255 -12 191 29T90 148T54 330Q54 409 75 471T136 579T229 647T348 670Q415 670 459 645T529 591L498 556Q474 584 438 603T349 623Q275 623 221 587T139 486T110 331Q110 241 137 175T217 73T344 36Q387 36
425 48T486 83V282H332V327H536V63Q505 30 455 9T340 -12Z" />
<glyph unicode="H" horiz-adv-x="641" d="M96 0V658H149V372H492V658H545V0H492V326H149V0H96Z" />
<glyph unicode="I" horiz-adv-x="245" d="M96 0V658H149V0H96Z" />
<glyph unicode="J" horiz-adv-x="466" d="M205 -12Q149 -12 107 13T39 86L78 113Q103 72 133 54T203 36Q262 36 290 72T319 187V658H372V182Q372 128 356 84T302 14T205 -12Z" />
<glyph unicode="K" horiz-adv-x="562" d="M96 0V658H149V299H151L461 658H524L314 413L553 0H492L279 372L149 223V0H96Z" />
<glyph unicode="L" horiz-adv-x="471" d="M96 0V658H149V45H449V0H96Z" />
<glyph unicode="M" horiz-adv-x="710" d="M96 0V658H168L303 279Q316 243 329 207T354 134H358Q371 171 383 207T407 279L542 658H614V0H563V420Q563 447 564 478T567 541T570 601H566L515 453L376 71H333L194 453L142 601H138Q139 573 140 541T143 478T144 420V0H96Z" />
<glyph unicode="N" horiz-adv-x="638" d="M96 0V658H151L421 204L495 71H499Q497 120 495 169T492 267V658H542V0H487L217 455L143 587H139Q142 540 144 493T146 397V0H96Z" />
<glyph unicode="O" horiz-adv-x="655" d="M327 -12Q248 -12 186 30T89 149T54 331Q54 436 89 512T186 629T327 670Q407 670 468 629T565 512T600 331Q600 227 565 150T469 30T327 -12ZM327 36Q393 36 441 72T517 175T545 331Q545 421 518 486T442 587T327 623Q262
623 213 588T137 487T110 331Q110 242 137 176T213 73T327 36Z" />
<glyph unicode="P" horiz-adv-x="552" d="M96 0V658H266Q340 658 393 641T476 582T506 473Q506 408 478 365T396 301T270 279H149V0H96ZM149 323H258Q357 323 404 358T452 473Q452 554 403 584T254 614H149V323Z" />
<glyph unicode="Q" horiz-adv-x="655" d="M327 -12Q248 -12 186 30T89 149T54 331Q54 436 89 512T186 629T327 670Q407 670 468 629T565 512T600 331Q600 227 565 150T469 30T327 -12ZM522 -157Q434 -157 376 -112T295 1L351 4Q365 -33 390 -58T449 -97T527 -110Q549
-110 565 -107T594 -101L605 -145Q592 -149 570 -153T522 -157ZM327 33Q393 33 441 70T517 174T545 331Q545 421 518 486T442 587T327 623Q262 623 213 588T137 487T110 331Q110 241 137 174T213 70T327 33Z" />
<glyph unicode="R" horiz-adv-x="548" d="M96 0V658H287Q353 658 402 641T479 585T507 482Q507 421 480 381T403 319T287 298H149V0H96ZM459 0L276 313L324 332L521 0H459ZM149 342H275Q361 342 406 377T452 482Q452 555 407 584T275 614H149V342Z" />
<glyph unicode="S" horiz-adv-x="523" d="M270 -12Q198 -12 142 15T46 87L79 123Q115 83 164 60T270 36Q344 36 386 71T429 163Q429 203 413 227T371 266T312 297L213 341Q184 354 154 374T102 425T80 506Q80 554 105 591T175 649T274 670Q334 670 381 647T460
591L430 556Q401 587 362 605T274 623Q211 623 172 592T133 509Q133 472 151 449T195 412T246 385L345 342Q382 326 413 305T463 250T483 167Q483 116 457 76T383 12T270 -12Z" />
<glyph unicode="T" horiz-adv-x="527" d="M237 0V613H29V658H498V613H290V0H237Z" />
<glyph unicode="U" horiz-adv-x="636" d="M318 -12Q273 -12 233 1T162 44T112 127T93 256V658H147V260Q147 174 170 125T233 56T318 36Q364 36 404 56T468 125T492 260V658H543V256Q543 179 525 127T474 45T402 1T318 -12Z" />
<glyph unicode="V" horiz-adv-x="496" d="M219 0L4 658H60L179 279Q198 220 212 170T247 59H251Q271 119 286 169T320 279L438 658H492L278 0H219Z" />
<glyph unicode="W" horiz-adv-x="773" d="M175 0L27 658H82L163 276Q173 222 184 169T207 62H211Q222 115 235 169T260 276L361 658H414L515 276Q528 223 541 169T566 62H570Q581 115 591 169T612 276L692 658H744L599 0H539L423 442Q414 480 406 516T389 590H385Q376
552 367 516T349 442L234 0H175Z" />
<glyph unicode="X" horiz-adv-x="488" d="M17 0L213 341L30 658H88L193 469Q207 447 218 427T246 378H250Q264 406 275 426T298 469L403 658H458L275 338L471 0H413L302 198Q289 222 274 247T242 302H238Q223 272 210 247T183 198L72 0H17Z" />
<glyph unicode="Y" horiz-adv-x="452" d="M200 0V265L2 658H58L156 456Q173 420 189 385T224 314H228Q247 350 265 385T299 456L396 658H450L253 265V0H200Z" />
<glyph unicode="Z" horiz-adv-x="539" d="M49 0V31L422 613H82V658H488V628L115 45H492V0H49Z" />
<glyph unicode="[" horiz-adv-x="284" d="M98 -152V708H260V676H137V-120H260V-152H98Z" />
<glyph unicode="\" horiz-adv-x="356" d="M305 -160L7 710H49L347 -160H305Z" />
<glyph unicode="]" horiz-adv-x="284" d="M23 -152V-120H146V676H23V708H186V-152H23Z" />
<glyph unicode="^" horiz-adv-x="482" d="M65 289L216 670H267L418 289H369L294 487L243 620H239L188 487L113 289H65Z" />
<glyph unicode="_" horiz-adv-x="500" d="M12 -119V-77H488V-119H12Z" />
<glyph unicode="`" horiz-adv-x="536" d="M294 574L148 725L186 759L322 600L294 574Z" />
<glyph unicode="a" horiz-adv-x="494" d="M196 -12Q158 -12 126 2T76 46T57 121Q57 200 131 242T364 302Q365 338 357 372T324 427T254 449Q206 449 167 431T102 393L79 431Q97 443 125 457T187 482T260 493Q318 493 352 468T401 401T416 305V0H373L367 62H365Q329
32 286 10T196 -12ZM207 32Q248 32 285 51T364 106V264Q269 253 213 235T133 189T109 124Q109 74 138 53T207 32Z" />
<glyph unicode="b" horiz-adv-x="544" d="M283 -12Q249 -12 212 4T140 49H138L133 0H90V718H142V512L139 420Q176 450 217 471T302 493Q366 493 409 463T473 378T495 248Q495 166 466 108T388 19T283 -12ZM279 33Q326 33 362 60T420 135T441 248Q441 305 426 350T379
422T293 448Q259 448 221 429T142 372V93Q180 60 216 47T279 33Z" />
<glyph unicode="c" horiz-adv-x="450" d="M270 -12Q208 -12 158 17T80 103T51 240Q51 320 82 377T163 463T273 493Q322 493 355 476T414 435L385 399Q362 421 336 435T274 449Q226 449 188 423T127 349T104 240Q104 178 125 132T184 59T273 33Q311 33 343 48T399
87L425 51Q393 23 355 6T270 -12Z" />
<glyph unicode="d" horiz-adv-x="546" d="M250 -12Q160 -12 106 53T51 240Q51 318 80 374T158 462T264 493Q307 493 339 478T407 435L404 522V718H456V0H413L407 61H405Q376 32 337 10T250 -12ZM259 33Q298 33 333 52T404 110V389Q368 421 336 434T268 448Q222
448 186 421T127 347T105 240Q105 146 145 90T259 33Z" />
<glyph unicode="e" horiz-adv-x="485" d="M275 -12Q213 -12 162 18T81 104T51 240Q51 318 81 375T159 462T262 493Q320 493 361 467T425 390T448 270Q448 261 448 251T445 232H90V273H400Q400 361 363 405T262 450Q223 450 186 428T125 359T101 240Q101 173 125
127T190 56T280 31Q319 31 350 43T408 73L428 36Q399 18 363 3T275 -12Z" />
<glyph unicode="f" horiz-adv-x="268" d="M98 0V582Q98 631 112 663T154 713T221 730Q239 730 258 726T293 714L280 673Q266 680 252 683T224 686Q186 686 168 659T150 580V0H98ZM32 437V477L100 481H259V437H32Z" />
<glyph unicode="g" horiz-adv-x="490" d="M248 -230Q188 -230 144 -214T75 -168T50 -97Q50 -65 69 -36T122 17V21Q104 33 92 52T79 99Q79 131 97 154T132 188V192Q109 212 90 246T71 323Q71 373 94 411T156 471T242 493Q263 493 279 490T307 481H471V439H362Q384
420 398 390T412 322Q412 273 390 235T329 175T242 153Q223 153 202 158T164 173Q150 161 139 145T127 105Q127 80 146 63T217 45H319Q401 45 440 18T479 -66Q479 -109 451 -146T371 -206T248 -230ZM254 -190Q307 -190 345 -173T405 -129T427 -73Q427 -34 400 -18T319
-2H219Q211 -2 195 0T159 6Q127 -16 113 -41T99 -91Q99 -136 140 -163T254 -190ZM242 192Q275 192 302 208T346 254T363 323Q363 363 347 391T303 436T242 452Q193 452 158 418T122 323Q122 284 139 255T183 209T242 192Z" />
<glyph unicode="h" horiz-adv-x="531" d="M90 0V718H142V512L140 407Q177 444 216 468T306 493Q381 493 416 447T452 308V0H400V301Q400 376 376 412T294 448Q252 448 219 426T142 360V0H90Z" />
<glyph unicode="i" horiz-adv-x="232" d="M90 0V481H142V0H90ZM117 594Q100 594 88 606T76 638Q76 656 88 668T117 680Q135 680 146 668T158 638Q158 619 147 607T117 594Z" />
<glyph unicode="j" horiz-adv-x="232" d="M30 -227Q13 -227 -4 -223T-33 -215L-22 -174Q-12 -177 1 -180T28 -183Q68 -183 79 -154T91 -80L92 481H143V-83Q143 -130 131 -162T95 -210T30 -227ZM30 -227Q13 -227 -4 -223T-33 -215L-22 -174Q-12 -177 1 -180T28
-183Q68 -183 79 -154T91 -80L92 481H143V-83Q143 -130 131 -162T95 -210T30 -227ZM117 594Q100 594 88 606T76 638Q76 656 88 668T117 680Q135 680 146 668T158 638Q158 619 147 607T117 594Z" />
<glyph unicode="k" horiz-adv-x="469" d="M90 0V718H141V197H143L375 481H433L276 290L459 0H402L246 253L141 130V0H90Z" />
<glyph unicode="l" horiz-adv-x="240" d="M154 -12Q133 -12 119 -3T97 24T90 71V718H142V65Q142 48 148 41T163 33Q166 33 170 33T181 35L189 -6Q182 -8 174 -10T154 -12Z" />
<glyph unicode="m" horiz-adv-x="815" d="M90 0V481H133L139 408H141Q173 444 212 468T293 493Q350 493 381 467T426 396Q466 441 506 467T588 493Q661 493 696 447T732 308V0H681V301Q681 376 656 412T577 448Q544 448 510 426T437 360V0H386V301Q386 376 361
412T281 448Q219 448 142 360V0H90Z" />
<glyph unicode="n" horiz-adv-x="534" d="M90 0V481H133L139 408H141Q178 444 217 468T306 493Q381 493 416 447T452 308V0H400V301Q400 376 376 412T294 448Q252 448 219 426T142 360V0H90Z" />
<glyph unicode="o" horiz-adv-x="536" d="M268 -12Q210 -12 161 17T81 103T51 240Q51 320 81 377T160 463T268 493Q326 493 375 464T455 377T486 240Q486 160 456 104T376 18T268 -12ZM268 33Q315 33 352 59T411 131T432 240Q432 302 411 349T353 422T268 449Q221
449 184 423T126 349T104 240Q104 178 125 132T184 59T268 33Z" />
<glyph unicode="p" horiz-adv-x="546" d="M90 -215V481H133L139 422H141Q176 450 217 471T302 493Q367 493 409 463T473 378T495 248Q495 166 466 108T388 19T283 -12Q250 -12 214 3T141 46L142 -41V-215H90ZM279 33Q326 33 362 60T420 135T441 248Q441 305 426
350T379 422T293 448Q259 448 222 429T142 372V93Q181 60 217 47T279 33Z" />
<glyph unicode="q" horiz-adv-x="546" d="M404 -215V-32L407 62Q376 32 337 10T250 -12Q160 -12 106 53T51 240Q51 318 80 374T158 462T264 493Q307 493 340 478T406 436H408L413 481H456V-215H404ZM259 33Q298 33 333 52T404 110V389Q368 421 336 434T268 448Q222
448 186 421T127 347T105 240Q105 146 145 90T259 33Z" />
<glyph unicode="r" horiz-adv-x="323" d="M90 0V481H133L139 392H141Q166 437 201 465T278 493Q291 493 303 491T326 483L315 437Q303 442 295 443T271 445Q239 445 204 418T142 324V0H90Z" />
<glyph unicode="s" horiz-adv-x="408" d="M209 -12Q156 -12 111 7T32 55L60 91Q91 66 126 49T211 31Q266 31 294 58T322 122Q322 151 305 170T260 203T206 226Q170 239 135 255T77 297T54 364Q54 417 95 455T211 493Q251 493 288 479T351 443L325 407Q300 425
273 438T211 451Q156 451 131 425T105 366Q105 340 121 323T164 294T218 272Q255 257 291 242T350 199T373 125Q373 88 354 57T299 7T209 -12Z" />
<glyph unicode="t" horiz-adv-x="317" d="M225 -12Q154 -12 128 29T102 136V437H28V477L104 481L110 620H153V481H291V437H153V133Q153 88 169 60T234 32Q248 32 264 36T293 47L306 6Q285 -1 263 -6T225 -12Z" />
<glyph unicode="u" horiz-adv-x="532" d="M229 -12Q154 -12 119 34T83 173V481H134V180Q134 106 159 70T240 34Q282 34 316 56T390 129V481H442V0H399L393 80H391Q356 38 318 13T229 -12Z" />
<glyph unicode="v" horiz-adv-x="440" d="M191 0L12 481H67L172 185Q183 151 195 115T220 46H224Q235 79 247 115T272 185L376 481H428L252 0H191Z" />
<glyph unicode="w" horiz-adv-x="691" d="M164 0L24 481H78L162 176Q171 143 179 111T194 46H198Q207 79 215 111T233 176L318 481H376L461 176Q470 143 479 111T496 46H500Q509 79 517 111T534 176L616 481H667L531 0H465L383 291Q374 326 366 360T347 429H343Q335
394 326 360T306 290L226 0H164Z" />
<glyph unicode="x" horiz-adv-x="414" d="M14 0L176 252L27 481H84L159 362Q170 343 183 323T209 283H213Q226 303 238 323T262 362L333 481H387L238 247L400 0H344L261 128Q249 150 235 172T205 215H201Q187 194 174 173T147 128L68 0H14Z" />
<glyph unicode="y" horiz-adv-x="442" d="M76 -217Q62 -217 49 -214T25 -207L37 -164Q45 -166 55 -168T76 -171Q119 -171 149 -136T196 -48L209 -7L12 481H67L179 186Q191 155 204 119T231 50H235Q246 83 257 119T279 186L378 481H430L241 -57Q227 -98 206 -134T152
-194T76 -217Z" />
<glyph unicode="z" horiz-adv-x="408" d="M28 0V27L306 437H59V481H373V454L94 44H382V0H28Z" />
<glyph unicode="{" horiz-adv-x="284" d="M224 -152Q168 -152 141 -126T113 -23Q113 14 115 47T119 113T121 180Q121 211 104 235T35 260V296Q70 296 88 307T114 337T121 375Q121 410 119 442T115 508T113 579Q113 655 140 681T224 708H260V676H231Q186 676 171
651T156 575Q156 527 158 483T161 385Q161 340 150 315T109 280V276Q139 267 150 241T161 171Q161 118 159 74T156 -19Q156 -70 171 -95T231 -120H260V-152H224Z" />
<glyph unicode="|" horiz-adv-x="229" d="M94 -250V750H135V-250H94Z" />
<glyph unicode="}" horiz-adv-x="284" d="M23 -152V-120H53Q98 -120 113 -95T128 -19Q128 30 125 74T122 171Q122 215 133 241T175 276V280Q145 289 134 314T122 385Q122 439 125 483T128 575Q128 626 113 651T53 676H23V708H59Q115 708 143 682T171 579Q171 542
169 509T165 443T162 375Q162 355 169 337T195 308T248 296V260Q197 260 180 236T162 180Q162 145 164 113T169 48T171 -23Q171 -99 143 -125T59 -152H23Z" />
<glyph unicode="~" horiz-adv-x="482" d="M330 265Q302 265 278 278T233 309T192 340T150 354Q128 354 109 340T72 291L40 311Q63 355 92 375T152 395Q181 395 204 382T249 351T290 320T332 306Q355 306 374 320T411 369L443 347Q420 305 391 285T330 265Z" />
<glyph unicode="&#xa0;" horiz-adv-x="200" />
<glyph unicode="&#xa1;" horiz-adv-x="265" d="M106 -189L107 -114L114 298H151L158 -114L159 -189H106ZM132 396Q115 396 101 409T87 445Q87 467 101 480T132 493Q151 493 164 480T178 445Q178 423 165 410T132 396Z" />
<glyph unicode="&#xa2;" horiz-adv-x="482" d="M284 78Q220 78 170 105T91 184T62 311Q62 386 93 438T175 517T287 544Q336 544 370 526T428 485L401 452Q378 474 351 487T288 500Q238 500 199 477T137 411T114 311Q114 226 161 175T287 123Q326 123 358 138T413
175L439 142Q408 114 369 96T284 78ZM256 -29V653H294V-29H256Z" />
<glyph unicode="&#xa3;" horiz-adv-x="482" d="M56 0V31Q111 62 136 114T162 223Q162 267 150 309T125 393T112 478Q112 531 133 570T193 630T285 651Q337 651 372 630T431 579L398 548Q378 573 351 590T286 607Q226 607 195 570T164 478Q164 436 175 397T198
315T210 223Q210 162 192 123T140 49V45H432V0H56ZM54 291V328L120 331H358V291H54Z" />
<glyph unicode="&#xa4;" horiz-adv-x="482" d="M60 112L30 143L95 210Q77 234 68 264T58 328Q58 365 67 395T95 449L30 517L60 548L126 479Q175 522 241 522Q306 522 356 479L423 548L452 517L387 449Q404 425 414 395T425 328Q425 294 415 264T387 210L452 143L423
112L356 180Q333 159 303 148T241 136Q175 136 125 180L60 112ZM241 178Q277 178 308 197T357 250T375 328Q375 373 357 407T308 461T241 480Q205 480 175 461T127 408T108 328Q108 284 126 250T175 197T241 178Z" />
<glyph unicode="&#xa5;" horiz-adv-x="482" d="M215 0V164H49V200H215V270H49V306H199L28 639H84L175 450Q191 417 206 384T239 313H243Q262 350 277 383T310 450L401 639H454L282 306H433V270H266V200H433V164H266V0H215Z" />
<glyph unicode="&#xa6;" horiz-adv-x="229" d="M94 281V750H135V281H94ZM94 -250V219H135V-250H94Z" />
<glyph unicode="&#xa7;" horiz-adv-x="482" d="M322 143L295 175Q338 194 362 215T386 280Q386 319 366 343T313 385T245 417T177 450T125 495T104 562Q104 592 119 619T165 664T243 682Q286 682 322 667T386 627L359 593Q335 613 308 626T245 639Q195 639 174
616T153 565Q153 533 173 513T225 477T293 447T360 412T412 361T433 284Q433 246 419 221T379 177T322 143ZM234 -55Q182 -55 141 -37T71 10L104 42Q130 17 159 3T234 -12Q278 -12 304 12T331 69Q331 102 311 123T259 160T191 191T122 225T70 275T49 351Q49 403
80 436T155 490L179 459Q142 440 119 417T96 354Q96 317 116 293T169 253T238 221T307 188T359 142T380 72Q380 35 360 7T307 -38T234 -55Z" />
<glyph unicode="&#xa8;" horiz-adv-x="536" d="M358 596Q342 596 331 607T319 635Q319 652 330 663T358 674Q375 674 386 663T397 635Q397 619 386 608T358 596ZM178 596Q161 596 150 607T139 635Q139 652 150 663T178 674Q195 674 206 663T217 635Q217 619 206
608T178 596Z" />
<glyph unicode="&#xa9;" horiz-adv-x="742" d="M371 -11Q306 -11 249 12T146 79T76 184T51 323Q51 398 76 459T146 563T248 629T371 653Q436 653 493 630T596 563T666 459T691 323Q691 246 666 185T596 79T494 12T371 -11ZM376 125Q329 125 289 148T225 215T200
322Q200 380 225 422T292 487T381 510Q422 510 450 495T502 455L477 425Q455 447 433 458T381 469Q323 469 286 429T248 322Q248 249 284 207T379 165Q414 165 441 179T491 214L513 183Q486 159 455 142T376 125ZM371 21Q428 21 479 42T570 104T631 199T654 323Q654
389 632 444T570 538T480 599T371 620Q313 620 262 599T172 539T111 444T88 323Q88 255 110 200T172 104T262 43T371 21Z" />
<glyph unicode="&#xaa;" horiz-adv-x="339" d="M138 396Q95 396 68 420T41 487Q41 540 90 568T245 606Q245 643 232 668T178 694Q149 694 120 682T71 657L55 688Q75 701 109 715T183 730Q241 730 264 696T287 603V404H254L247 442H243Q223 424 197 410T138 396ZM149
431Q172 431 196 442T245 478V577Q155 568 120 546T84 491Q84 460 101 446T149 431Z" />
<glyph unicode="&#xab;" horiz-adv-x="405" d="M181 71L43 231V273L181 433L207 410L85 252L207 92L181 71ZM325 71L187 231V273L325 433L351 410L229 252L351 92L325 71Z" />
<glyph unicode="&#xac;" horiz-adv-x="482" d="M402 109V309H34V351H448V109H402Z" />
<glyph unicode="&#xad;" horiz-adv-x="301" d="M41 228V272H262V228H41Z" />
<glyph unicode="&#xae;" horiz-adv-x="405" d="M202 323Q152 323 111 347T44 415T19 517Q19 575 44 619T110 688T202 713Q252 713 294 688T361 619T386 517Q386 459 361 416T294 348T202 323ZM202 354Q244 354 278 375T333 432T353 517Q353 565 333 602T279 660T202
682Q160 682 126 661T72 602T52 517Q52 469 72 433T126 375T202 354ZM134 418V624H204Q234 624 257 611T281 559Q281 541 270 525T242 504L290 418H251L213 492H167V418H134ZM167 521H195Q218 521 231 529T245 557Q245 574 235 584T199 594H167V521Z" />
<glyph unicode="&#xaf;" horiz-adv-x="536" d="M143 605V645H393V605H143Z" />
<glyph unicode="&#xb0;" horiz-adv-x="315" d="M158 444Q127 444 101 458T58 499T41 563Q41 601 58 628T101 669T158 684Q188 684 214 670T257 628T274 563Q274 526 258 500T215 459T158 444ZM158 478Q193 478 215 502T237 563Q237 601 215 625T158 650Q123 650
101 626T78 563Q78 527 100 503T158 478Z" />
<glyph unicode="&#xb1;" horiz-adv-x="482" d="M218 112V309H34V351H218V551H264V351H448V309H264V112H218ZM34 0V42H448V0H34Z" />
<glyph unicode="&#xb2;" horiz-adv-x="366" d="M58 408V435Q124 496 166 539T229 615T250 682Q250 724 227 748T166 773Q139 773 116 755T76 712L49 737Q68 768 100 789T171 810Q226 810 259 780T293 687Q293 647 272 610T214 534T129 446H316V408H58Z" />
<glyph unicode="&#xb3;" horiz-adv-x="363" d="M178 396Q132 396 96 419T39 471L71 495Q89 468 117 451T177 433Q214 433 240 454T266 513Q266 551 230 571T132 591V622Q189 622 219 646T250 703Q250 735 229 754T170 774Q147 774 125 760T83 723L55 748Q78 775
107 792T175 810Q207 810 234 798T278 763T294 707Q294 671 273 647T220 609Q255 602 282 577T310 512Q310 476 293 450T245 410T178 396Z" />
<glyph unicode="&#xb4;" horiz-adv-x="536" d="M242 574L214 600L350 759L388 725L242 574Z" />
<glyph unicode="&#xb5;" horiz-adv-x="532" d="M76 -189L77 -114L84 298H121L128 -114L129 -189H76ZM229 -12Q154 -12 119 34T83 173V481H134V180Q134 106 159 70T240 34Q282 34 316 56T390 129V481H442V0H399L393 80H391Q356 38 318 13T229 -12Z" />
<glyph unicode="&#xb6;" horiz-adv-x="523" d="M291 240Q218 240 162 261T73 328T41 449Q41 525 71 571T155 637T276 658H320V240H291ZM374 -80V658H427V-80H374Z" />
<glyph unicode="&#xb7;" horiz-adv-x="225" d="M112 274Q95 274 81 287T67 322Q67 346 81 359T112 372Q131 372 144 359T158 322Q158 300 145 287T112 274Z" />
<glyph unicode="&#xb8;" horiz-adv-x="536" d="M189 -220L182 -188Q247 -183 270 -171T294 -136Q294 -114 276 -103T216 -86L258 2H296L267 -65Q300 -72 319 -88T338 -134Q338 -174 300 -195T189 -220Z" />
<glyph unicode="&#xb9;" horiz-adv-x="354" d="M173 408V729H89V760Q119 766 140 775T178 798H215V408H173Z" />
<glyph unicode="&#xba;" horiz-adv-x="361" d="M180 396Q139 396 106 416T52 473T32 563Q32 616 52 653T105 710T180 730Q220 730 253 711T307 654T327 563Q327 510 307 473T254 416T180 396ZM180 432Q227 432 255 468T283 563Q283 622 255 658T180 694Q132 694
104 658T76 563Q76 505 104 469T180 432Z" />
<glyph unicode="&#xbb;" horiz-adv-x="405" d="M80 71L54 92L176 252L54 410L80 433L218 273V231L80 71ZM224 71L198 92L320 252L198 410L224 433L362 273V231L224 71Z" />
<glyph unicode="&#xbc;" horiz-adv-x="773" d="M181 -12L548 670H589L222 -12H181ZM159 275V595H75V626Q105 632 126 641T165 665H201V275H159ZM633 0V231L637 335H633L578 253L507 146H731V112H456V135L630 390H673V0H633Z" />
<glyph unicode="&#xbd;" horiz-adv-x="790" d="M160 -12L527 670H569L202 -12H160ZM159 275V595H75V626Q105 632 126 641T165 665H201V275H159ZM483 0V27Q548 88 591 131T654 207T674 273Q674 315 652 340T590 365Q564 365 541 347T501 304L473 328Q493 359 525
380T595 402Q650 402 684 371T718 278Q718 238 697 201T639 125T553 38H740V0H483Z" />
<glyph unicode="&#xbe;" horiz-adv-x="790" d="M223 -12L590 670H632L265 -12H223ZM178 263Q132 263 96 285T39 337L71 361Q89 334 117 317T177 299Q214 299 240 320T266 379Q266 418 230 437T132 457V488Q189 488 219 512T250 569Q250 601 229 620T170 640Q147
640 125 626T83 589L55 614Q78 641 107 659T175 677Q207 677 234 665T278 629T294 573Q294 537 273 513T220 475Q255 468 282 443T310 378Q310 342 293 316T245 277T178 263ZM650 0V231L654 335H650L595 253L524 146H748V112H473V135L647 390H690V0H650Z" />
<glyph unicode="&#xbf;" horiz-adv-x="407" d="M207 -201Q158 -201 123 -181T69 -126T50 -47Q50 -7 66 26T107 90T154 151T190 218T198 298H244Q251 249 239 211T204 142T159 82T119 23T102 -43Q102 -73 114 -99T150 -140T212 -156Q249 -156 282 -140T339 -94L370
-122Q340 -155 300 -178T207 -201ZM218 396Q201 396 187 409T172 445Q172 467 186 480T218 493Q237 493 250 480T264 445Q264 423 251 410T218 396Z" />
<glyph unicode="&#xc0;" horiz-adv-x="530" d="M7 0L237 658H292L523 0H466L338 384Q318 442 301 496T266 610H262Q245 551 228 497T191 384L61 0H7ZM115 221V265H412V221H115ZM284 705L147 818L180 855L307 731L284 705Z" />
<glyph unicode="&#xc1;" horiz-adv-x="530" d="M7 0L237 658H292L523 0H466L338 384Q318 442 301 496T266 610H262Q245 551 228 497T191 384L61 0H7ZM115 221V265H412V221H115ZM244 705L221 731L348 855L381 818L244 705Z" />
<glyph unicode="&#xc2;" horiz-adv-x="530" d="M7 0L237 658H292L523 0H466L338 384Q318 442 301 496T266 610H262Q245 551 228 497T191 384L61 0H7ZM115 221V265H412V221H115ZM150 705L127 726L238 839H290L401 726L378 705L266 802H262L150 705Z" />
<glyph unicode="&#xc3;" horiz-adv-x="530" d="M7 0L237 658H292L523 0H466L338 384Q318 442 301 496T266 610H262Q245 551 228 497T191 384L61 0H7ZM115 221V265H412V221H115ZM341 717Q312 717 292 728T256 755T224 782T188 794Q167 794 152 774T134 720L97 723Q100
772 123 804T187 836Q216 836 236 824T273 797T304 770T340 758Q361 758 375 778T394 832L431 830Q429 781 406 749T341 717Z" />
<glyph unicode="&#xc4;" horiz-adv-x="530" d="M7 0L237 658H292L523 0H466L338 384Q318 442 301 496T266 610H262Q245 551 228 497T191 384L61 0H7ZM115 221V265H412V221H115ZM363 723Q347 723 336 733T324 762Q324 780 335 790T363 801Q380 801 391 791T402
762Q402 744 391 734T363 723ZM165 723Q149 723 138 733T126 762Q126 780 137 790T165 801Q182 801 193 791T204 762Q204 744 193 734T165 723Z" />
<glyph unicode="&#xc5;" horiz-adv-x="530" d="M7 0L237 658H292L523 0H466L338 384Q318 442 301 496T266 610H262Q245 551 228 497T191 384L61 0H7ZM115 221V265H412V221H115ZM264 699Q226 699 201 723T175 786Q175 825 200 849T264 873Q301 873 327 849T353
786Q353 748 327 724T264 699ZM264 727Q286 727 302 742T319 786Q319 813 303 829T264 845Q240 845 224 829T207 786Q207 757 223 742T264 727Z" />
<glyph unicode="&#xc6;" horiz-adv-x="812" d="M19 0L379 658H754V613H462V372H705V326H462V45H764V0H409V614H405Q376 558 346 501T284 385L75 0H19ZM167 212V256H446V212H167Z" />
<glyph unicode="&#xc8;" horiz-adv-x="517" d="M96 0V658H460V613H149V372H410V326H149V45H470V0H96ZM303 705L166 818L199 855L326 731L303 705Z" />
<glyph unicode="&#xc9;" horiz-adv-x="517" d="M96 0V658H460V613H149V372H410V326H149V45H470V0H96ZM263 705L240 731L367 855L400 818L263 705Z" />
<glyph unicode="&#xca;" horiz-adv-x="517" d="M96 0V658H460V613H149V372H410V326H149V45H470V0H96ZM169 705L146 726L257 839H309L420 726L397 705L285 802H281L169 705Z" />
<glyph unicode="&#xcb;" horiz-adv-x="517" d="M96 0V658H460V613H149V372H410V326H149V45H470V0H96ZM382 723Q366 723 355 733T343 762Q343 780 354 790T382 801Q399 801 410 791T421 762Q421 744 410 734T382 723ZM184 723Q168 723 157 733T145 762Q145 780
156 790T184 801Q201 801 212 791T223 762Q223 744 212 734T184 723Z" />
<glyph unicode="&#xcc;" horiz-adv-x="245" d="M96 0V658H149V0H96ZM142 705L5 818L38 855L165 731L142 705Z" />
<glyph unicode="&#xcd;" horiz-adv-x="245" d="M96 0V658H149V0H96ZM102 705L79 731L206 855L239 818L102 705Z" />
<glyph unicode="&#xce;" horiz-adv-x="245" d="M96 0V658H149V0H96ZM8 705L-15 726L96 839H148L259 726L236 705L124 802H120L8 705Z" />
<glyph unicode="&#xcf;" horiz-adv-x="245" d="M96 0V658H149V0H96ZM221 723Q205 723 194 733T182 762Q182 780 193 790T221 801Q238 801 249 791T260 762Q260 744 249 734T221 723ZM23 723Q7 723 -4 733T-16 762Q-16 780 -5 790T23 801Q40 801 51 791T62 762Q62
744 51 734T23 723Z" />
<glyph unicode="&#xd0;" horiz-adv-x="627" d="M36 330V363L119 366H330V330H36ZM117 0V658H271Q373 658 440 619T540 506T573 331Q573 231 540 157T441 41T273 0H117ZM170 45H266Q353 45 408 81T491 181T518 331Q518 417 491 480T409 579T266 614H170V45Z" />
<glyph unicode="&#xd1;" horiz-adv-x="638" d="M96 0V658H151L421 204L495 71H499Q497 120 495 169T492 267V658H542V0H487L217 455L143 587H139Q142 540 144 493T146 397V0H96ZM401 717Q372 717 352 728T316 755T284 782T248 794Q227 794 212 774T194 720L157
723Q160 772 183 804T247 836Q276 836 296 824T333 797T364 770T400 758Q421 758 435 778T454 832L491 830Q489 781 466 749T401 717Z" />
<glyph unicode="&#xd2;" horiz-adv-x="655" d="M327 -12Q248 -12 186 30T89 149T54 331Q54 436 89 512T186 629T327 670Q407 670 468 629T565 512T600 331Q600 227 565 150T469 30T327 -12ZM327 36Q393 36 441 72T517 175T545 331Q545 421 518 486T442 587T327
623Q262 623 213 588T137 487T110 331Q110 242 137 176T213 73T327 36ZM347 705L210 818L243 855L370 731L347 705Z" />
<glyph unicode="&#xd3;" horiz-adv-x="655" d="M327 -12Q248 -12 186 30T89 149T54 331Q54 436 89 512T186 629T327 670Q407 670 468 629T565 512T600 331Q600 227 565 150T469 30T327 -12ZM327 36Q393 36 441 72T517 175T545 331Q545 421 518 486T442 587T327
623Q262 623 213 588T137 487T110 331Q110 242 137 176T213 73T327 36ZM307 705L284 731L411 855L444 818L307 705Z" />
<glyph unicode="&#xd4;" horiz-adv-x="655" d="M327 -12Q248 -12 186 30T89 149T54 331Q54 436 89 512T186 629T327 670Q407 670 468 629T565 512T600 331Q600 227 565 150T469 30T327 -12ZM327 36Q393 36 441 72T517 175T545 331Q545 421 518 486T442 587T327
623Q262 623 213 588T137 487T110 331Q110 242 137 176T213 73T327 36ZM213 705L190 726L301 839H353L464 726L441 705L329 802H325L213 705Z" />
<glyph unicode="&#xd5;" horiz-adv-x="655" d="M327 -12Q248 -12 186 30T89 149T54 331Q54 436 89 512T186 629T327 670Q407 670 468 629T565 512T600 331Q600 227 565 150T469 30T327 -12ZM327 36Q393 36 441 72T517 175T545 331Q545 421 518 486T442 587T327
623Q262 623 213 588T137 487T110 331Q110 242 137 176T213 73T327 36ZM404 717Q375 717 355 728T319 755T287 782T251 794Q230 794 215 774T197 720L160 723Q163 772 186 804T250 836Q279 836 299 824T336 797T367 770T403 758Q424 758 438 778T457 832L494 830Q492
781 469 749T404 717Z" />
<glyph unicode="&#xd6;" horiz-adv-x="655" d="M327 -12Q248 -12 186 30T89 149T54 331Q54 436 89 512T186 629T327 670Q407 670 468 629T565 512T600 331Q600 227 565 150T469 30T327 -12ZM327 36Q393 36 441 72T517 175T545 331Q545 421 518 486T442 587T327
623Q262 623 213 588T137 487T110 331Q110 242 137 176T213 73T327 36ZM426 723Q410 723 399 733T387 762Q387 780 398 790T426 801Q443 801 454 791T465 762Q465 744 454 734T426 723ZM228 723Q212 723 201 733T189 762Q189 780 200 790T228 801Q245 801 256 791T267
762Q267 744 256 734T228 723Z" />
<glyph unicode="&#xd7;" horiz-adv-x="482" d="M81 133L51 165L211 330L51 495L81 527L241 360L401 527L431 495L271 330L431 165L401 133L241 300L81 133Z" />
<glyph unicode="&#xd8;" horiz-adv-x="655" d="M87 -24L55 0L568 682L600 659L87 -24ZM331 -12Q251 -12 190 30T93 149T58 331Q58 436 93 512T189 629T331 670Q411 670 472 629T569 512T604 331Q604 227 569 150T473 30T331 -12ZM331 36Q396 36 445 72T521 175T548
331Q548 421 521 486T445 587T331 623Q265 623 217 588T141 487T113 331Q113 242 140 176T216 73T331 36Z" />
<glyph unicode="&#xd9;" horiz-adv-x="636" d="M318 -12Q273 -12 233 1T162 44T112 127T93 256V658H147V260Q147 174 170 125T233 56T318 36Q364 36 404 56T468 125T492 260V658H543V256Q543 179 525 127T474 45T402 1T318 -12ZM337 705L200 818L233 855L360 731L337
705Z" />
<glyph unicode="&#xda;" horiz-adv-x="636" d="M318 -12Q273 -12 233 1T162 44T112 127T93 256V658H147V260Q147 174 170 125T233 56T318 36Q364 36 404 56T468 125T492 260V658H543V256Q543 179 525 127T474 45T402 1T318 -12ZM297 705L274 731L401 855L434 818L297
705Z" />
<glyph unicode="&#xdb;" horiz-adv-x="636" d="M318 -12Q273 -12 233 1T162 44T112 127T93 256V658H147V260Q147 174 170 125T233 56T318 36Q364 36 404 56T468 125T492 260V658H543V256Q543 179 525 127T474 45T402 1T318 -12ZM203 705L180 726L291 839H343L454
726L431 705L319 802H315L203 705Z" />
<glyph unicode="&#xdc;" horiz-adv-x="636" d="M318 -12Q273 -12 233 1T162 44T112 127T93 256V658H147V260Q147 174 170 125T233 56T318 36Q364 36 404 56T468 125T492 260V658H543V256Q543 179 525 127T474 45T402 1T318 -12ZM416 723Q400 723 389 733T377 762Q377
780 388 790T416 801Q433 801 444 791T455 762Q455 744 444 734T416 723ZM218 723Q202 723 191 733T179 762Q179 780 190 790T218 801Q235 801 246 791T257 762Q257 744 246 734T218 723Z" />
<glyph unicode="&#xdd;" horiz-adv-x="452" d="M200 0V265L2 658H58L156 456Q173 420 189 385T224 314H228Q247 350 265 385T299 456L396 658H450L253 265V0H200ZM206 705L183 731L310 855L343 818L206 705Z" />
<glyph unicode="&#xde;" horiz-adv-x="567" d="M96 0V658H149V542H280Q353 542 406 525T487 466T516 357Q516 292 488 249T406 185T280 163H149V0H96ZM149 207H268Q367 207 414 242T462 357Q462 438 415 468T268 498H149V207Z" />
<glyph unicode="&#xdf;" horiz-adv-x="549" d="M371 -12Q331 -12 297 1T234 39L258 77Q286 54 312 43T370 31Q419 31 444 60T469 126Q469 160 454 181T415 218T365 246T315 274T277 312T262 371Q262 408 276 433T310 481T343 529T358 587Q358 629 335 656T264
684Q209 684 175 643T141 514V0H90V529Q90 590 111 635T172 704T266 728Q311 728 343 710T392 661T410 591Q410 553 395 525T361 475T327 429T312 376Q312 349 327 331T366 299T416 273T465 243T504 198T519 129Q519 89 500 58T448 7T371 -12Z" />
<glyph unicode="&#xe0;" horiz-adv-x="494" d="M196 -12Q158 -12 126 2T76 46T57 121Q57 200 131 242T364 302Q365 338 357 372T324 427T254 449Q206 449 167 431T102 393L79 431Q97 443 125 457T187 482T260 493Q318 493 352 468T401 401T416 305V0H373L367 62H365Q329
32 286 10T196 -12ZM207 32Q248 32 285 51T364 106V264Q269 253 213 235T133 189T109 124Q109 74 138 53T207 32ZM291 574L145 725L183 759L319 600L291 574Z" />
<glyph unicode="&#xe1;" horiz-adv-x="494" d="M196 -12Q158 -12 126 2T76 46T57 121Q57 200 131 242T364 302Q365 338 357 372T324 427T254 449Q206 449 167 431T102 393L79 431Q97 443 125 457T187 482T260 493Q318 493 352 468T401 401T416 305V0H373L367 62H365Q329
32 286 10T196 -12ZM207 32Q248 32 285 51T364 106V264Q269 253 213 235T133 189T109 124Q109 74 138 53T207 32ZM239 574L211 600L347 759L385 725L239 574Z" />
<glyph unicode="&#xe2;" horiz-adv-x="494" d="M196 -12Q158 -12 126 2T76 46T57 121Q57 200 131 242T364 302Q365 338 357 372T324 427T254 449Q206 449 167 431T102 393L79 431Q97 443 125 457T187 482T260 493Q318 493 352 468T401 401T416 305V0H373L367 62H365Q329
32 286 10T196 -12ZM207 32Q248 32 285 51T364 106V264Q269 253 213 235T133 189T109 124Q109 74 138 53T207 32ZM149 572L124 594L240 738H290L406 594L381 572L267 695H263L149 572Z" />
<glyph unicode="&#xe3;" horiz-adv-x="494" d="M196 -12Q158 -12 126 2T76 46T57 121Q57 200 131 242T364 302Q365 338 357 372T324 427T254 449Q206 449 167 431T102 393L79 431Q97 443 125 457T187 482T260 493Q318 493 352 468T401 401T416 305V0H373L367 62H365Q329
32 286 10T196 -12ZM207 32Q248 32 285 51T364 106V264Q269 253 213 235T133 189T109 124Q109 74 138 53T207 32ZM340 579Q312 579 292 593T257 625T226 658T190 672Q164 672 152 647T138 582L100 585Q101 618 110 647T138 694T191 712Q219 712 238 698T273 666T305
633T341 619Q367 619 379 645T392 709L430 706Q429 674 420 645T392 598T340 579Z" />
<glyph unicode="&#xe4;" horiz-adv-x="494" d="M196 -12Q158 -12 126 2T76 46T57 121Q57 200 131 242T364 302Q365 338 357 372T324 427T254 449Q206 449 167 431T102 393L79 431Q97 443 125 457T187 482T260 493Q318 493 352 468T401 401T416 305V0H373L367 62H365Q329
32 286 10T196 -12ZM207 32Q248 32 285 51T364 106V264Q269 253 213 235T133 189T109 124Q109 74 138 53T207 32ZM355 596Q339 596 328 607T316 635Q316 652 327 663T355 674Q372 674 383 663T394 635Q394 619 383 608T355 596ZM175 596Q158 596 147 607T136 635Q136
652 147 663T175 674Q192 674 203 663T214 635Q214 619 203 608T175 596Z" />
<glyph unicode="&#xe5;" horiz-adv-x="494" d="M196 -12Q158 -12 126 2T76 46T57 121Q57 200 131 242T364 302Q365 338 357 372T324 427T254 449Q206 449 167 431T102 393L79 431Q97 443 125 457T187 482T260 493Q318 493 352 468T401 401T416 305V0H373L367 62H365Q329
32 286 10T196 -12ZM207 32Q248 32 285 51T364 106V264Q269 253 213 235T133 189T109 124Q109 74 138 53T207 32ZM265 549Q221 549 194 576T166 645Q166 687 193 714T265 741Q309 741 336 714T364 645Q364 603 337 576T265 549ZM265 577Q292 577 310 595T328 645Q328
676 310 694T265 713Q239 713 221 695T202 645Q202 614 220 596T265 577Z" />
<glyph unicode="&#xe6;" horiz-adv-x="784" d="M204 -12Q165 -12 134 2T83 46T64 120Q64 200 138 242T366 302Q367 338 359 372T326 427T256 449Q213 449 174 431T110 393L87 431Q105 443 132 457T192 482T261 493Q319 493 354 462T401 377Q428 430 471 461T567
493Q624 493 664 467T725 390T747 269Q747 260 747 251T744 232H415Q416 173 438 128T497 58T582 32Q621 32 650 44T706 74L727 36Q698 18 664 3T577 -12Q535 -12 503 2T447 38T405 85Q358 40 304 14T204 -12ZM215 32Q253 32 300 55T387 121Q378 143 373 174T366
238V264Q230 248 173 214T116 124Q116 74 145 53T215 32ZM415 270H699Q699 359 664 404T566 450Q527 450 495 427T441 364T415 270Z" />
<glyph unicode="&#xe7;" horiz-adv-x="450" d="M270 -12Q208 -12 158 17T80 103T51 240Q51 320 82 377T163 463T273 493Q322 493 355 476T414 435L385 399Q362 421 336 435T274 449Q226 449 188 423T127 349T104 240Q104 178 125 132T184 59T273 33Q311 33 343
48T399 87L425 51Q393 23 355 6T270 -12ZM189 -220L182 -188Q247 -183 270 -171T294 -136Q294 -114 276 -103T216 -86L258 2H296L267 -65Q300 -72 319 -88T338 -134Q338 -174 300 -195T189 -220Z" />
<glyph unicode="&#xe8;" horiz-adv-x="485" d="M275 -12Q213 -12 162 18T81 104T51 240Q51 318 81 375T159 462T262 493Q320 493 361 467T425 390T448 270Q448 261 448 251T445 232H90V273H400Q400 361 363 405T262 450Q223 450 186 428T125 359T101 240Q101 173
125 127T190 56T280 31Q319 31 350 43T408 73L428 36Q399 18 363 3T275 -12ZM289 574L143 725L181 759L317 600L289 574Z" />
<glyph unicode="&#xe9;" horiz-adv-x="485" d="M275 -12Q213 -12 162 18T81 104T51 240Q51 318 81 375T159 462T262 493Q320 493 361 467T425 390T448 270Q448 261 448 251T445 232H90V273H400Q400 361 363 405T262 450Q223 450 186 428T125 359T101 240Q101 173
125 127T190 56T280 31Q319 31 350 43T408 73L428 36Q399 18 363 3T275 -12ZM237 574L209 600L345 759L383 725L237 574Z" />
<glyph unicode="&#xea;" horiz-adv-x="485" d="M275 -12Q213 -12 162 18T81 104T51 240Q51 318 81 375T159 462T262 493Q320 493 361 467T425 390T448 270Q448 261 448 251T445 232H90V273H400Q400 361 363 405T262 450Q223 450 186 428T125 359T101 240Q101 173
125 127T190 56T280 31Q319 31 350 43T408 73L428 36Q399 18 363 3T275 -12ZM147 572L122 594L238 738H288L404 594L379 572L265 695H261L147 572Z" />
<glyph unicode="&#xeb;" horiz-adv-x="485" d="M275 -12Q213 -12 162 18T81 104T51 240Q51 318 81 375T159 462T262 493Q320 493 361 467T425 390T448 270Q448 261 448 251T445 232H90V273H400Q400 361 363 405T262 450Q223 450 186 428T125 359T101 240Q101 173
125 127T190 56T280 31Q319 31 350 43T408 73L428 36Q399 18 363 3T275 -12ZM353 596Q337 596 326 607T314 635Q314 652 325 663T353 674Q370 674 381 663T392 635Q392 619 381 608T353 596ZM173 596Q156 596 145 607T134 635Q134 652 145 663T173 674Q190 674
201 663T212 635Q212 619 201 608T173 596Z" />
<glyph unicode="&#xec;" horiz-adv-x="232" d="M90 0V481H142V0H90ZM143 574L-3 725L35 759L171 600L143 574Z" />
<glyph unicode="&#xed;" horiz-adv-x="232" d="M90 0V481H142V0H90ZM91 574L63 600L199 759L237 725L91 574Z" />
<glyph unicode="&#xee;" horiz-adv-x="232" d="M90 0V481H142V0H90ZM1 572L-24 594L92 738H142L258 594L233 572L119 695H115L1 572Z" />
<glyph unicode="&#xef;" horiz-adv-x="232" d="M90 0V481H142V0H90ZM207 596Q191 596 180 607T168 635Q168 652 179 663T207 674Q224 674 235 663T246 635Q246 619 235 608T207 596ZM27 596Q10 596 -1 607T-12 635Q-12 652 -1 663T27 674Q44 674 55 663T66 635Q66
619 55 608T27 596Z" />
<glyph unicode="&#xf0;" horiz-adv-x="537" d="M267 -12Q213 -12 166 16T88 96T58 220Q58 286 84 336T157 414T265 443Q312 443 353 421T423 351L424 306Q385 364 347 382T269 400Q217 400 181 376T127 310T109 220Q109 164 131 122T189 57T268 33Q321 33 354
62T404 140T421 252Q421 346 400 414T342 532T255 620T148 691L173 725Q232 694 285 653T381 555T448 425T472 253Q472 173 446 114T374 21T267 -12ZM155 512L138 542L453 705L470 675L155 512Z" />
<glyph unicode="&#xf1;" horiz-adv-x="534" d="M90 0V481H133L139 408H141Q178 444 217 468T306 493Q381 493 416 447T452 308V0H400V301Q400 376 376 412T294 448Q252 448 219 426T142 360V0H90ZM359 579Q331 579 311 593T276 625T245 658T209 672Q183 672 171
647T157 582L119 585Q120 618 129 647T157 694T210 712Q238 712 257 698T292 666T324 633T360 619Q386 619 398 645T411 709L449 706Q448 674 439 645T411 598T359 579Z" />
<glyph unicode="&#xf2;" horiz-adv-x="536" d="M268 -12Q210 -12 161 17T81 103T51 240Q51 320 81 377T160 463T268 493Q326 493 375 464T455 377T486 240Q486 160 456 104T376 18T268 -12ZM268 33Q315 33 352 59T411 131T432 240Q432 302 411 349T353 422T268
449Q221 449 184 423T126 349T104 240Q104 178 125 132T184 59T268 33ZM294 574L148 725L186 759L322 600L294 574Z" />
<glyph unicode="&#xf3;" horiz-adv-x="536" d="M268 -12Q210 -12 161 17T81 103T51 240Q51 320 81 377T160 463T268 493Q326 493 375 464T455 377T486 240Q486 160 456 104T376 18T268 -12ZM268 33Q315 33 352 59T411 131T432 240Q432 302 411 349T353 422T268
449Q221 449 184 423T126 349T104 240Q104 178 125 132T184 59T268 33ZM242 574L214 600L350 759L388 725L242 574Z" />
<glyph unicode="&#xf4;" horiz-adv-x="536" d="M268 -12Q210 -12 161 17T81 103T51 240Q51 320 81 377T160 463T268 493Q326 493 375 464T455 377T486 240Q486 160 456 104T376 18T268 -12ZM268 33Q315 33 352 59T411 131T432 240Q432 302 411 349T353 422T268
449Q221 449 184 423T126 349T104 240Q104 178 125 132T184 59T268 33ZM152 572L127 594L243 738H293L409 594L384 572L270 695H266L152 572Z" />
<glyph unicode="&#xf5;" horiz-adv-x="536" d="M268 -12Q210 -12 161 17T81 103T51 240Q51 320 81 377T160 463T268 493Q326 493 375 464T455 377T486 240Q486 160 456 104T376 18T268 -12ZM268 33Q315 33 352 59T411 131T432 240Q432 302 411 349T353 422T268
449Q221 449 184 423T126 349T104 240Q104 178 125 132T184 59T268 33ZM343 579Q315 579 295 593T260 625T229 658T193 672Q167 672 155 647T141 582L103 585Q104 618 113 647T141 694T194 712Q222 712 241 698T276 666T308 633T344 619Q370 619 382 645T395 709L433
706Q432 674 423 645T395 598T343 579Z" />
<glyph unicode="&#xf6;" horiz-adv-x="536" d="M268 -12Q210 -12 161 17T81 103T51 240Q51 320 81 377T160 463T268 493Q326 493 375 464T455 377T486 240Q486 160 456 104T376 18T268 -12ZM268 33Q315 33 352 59T411 131T432 240Q432 302 411 349T353 422T268
449Q221 449 184 423T126 349T104 240Q104 178 125 132T184 59T268 33ZM358 596Q342 596 331 607T319 635Q319 652 330 663T358 674Q375 674 386 663T397 635Q397 619 386 608T358 596ZM178 596Q161 596 150 607T139 635Q139 652 150 663T178 674Q195 674 206 663T217
635Q217 619 206 608T178 596Z" />
<glyph unicode="&#xf7;" horiz-adv-x="482" d="M34 309V351H448V309H34ZM241 106Q224 106 212 118T200 150Q200 168 212 180T241 192Q259 192 270 180T282 150Q282 131 271 119T241 106ZM241 466Q224 466 212 478T200 510Q200 528 212 540T241 552Q259 552 270
540T282 510Q282 491 271 479T241 466Z" />
<glyph unicode="&#xf8;" horiz-adv-x="536" d="M74 -23L46 0L462 503L490 480L74 -23ZM268 -12Q210 -12 161 17T81 103T51 240Q51 320 81 377T160 463T268 493Q326 493 375 464T455 377T486 240Q486 160 456 104T376 18T268 -12ZM268 32Q315 32 353 58T412 130T433
238Q433 302 412 349T353 423T268 450Q221 450 184 424T125 350T103 241Q103 178 124 131T183 58T268 32Z" />
<glyph unicode="&#xf9;" horiz-adv-x="532" d="M229 -12Q154 -12 119 34T83 173V481H134V180Q134 106 159 70T240 34Q282 34 316 56T390 129V481H442V0H399L393 80H391Q356 38 318 13T229 -12ZM294 574L148 725L186 759L322 600L294 574Z" />
<glyph unicode="&#xfa;" horiz-adv-x="532" d="M229 -12Q154 -12 119 34T83 173V481H134V180Q134 106 159 70T240 34Q282 34 316 56T390 129V481H442V0H399L393 80H391Q356 38 318 13T229 -12ZM242 574L214 600L350 759L388 725L242 574Z" />
<glyph unicode="&#xfb;" horiz-adv-x="532" d="M229 -12Q154 -12 119 34T83 173V481H134V180Q134 106 159 70T240 34Q282 34 316 56T390 129V481H442V0H399L393 80H391Q356 38 318 13T229 -12ZM152 572L127 594L243 738H293L409 594L384 572L270 695H266L152 572Z" />
<glyph unicode="&#xfc;" horiz-adv-x="532" d="M229 -12Q154 -12 119 34T83 173V481H134V180Q134 106 159 70T240 34Q282 34 316 56T390 129V481H442V0H399L393 80H391Q356 38 318 13T229 -12ZM358 596Q342 596 331 607T319 635Q319 652 330 663T358 674Q375 674
386 663T397 635Q397 619 386 608T358 596ZM178 596Q161 596 150 607T139 635Q139 652 150 663T178 674Q195 674 206 663T217 635Q217 619 206 608T178 596Z" />
<glyph unicode="&#xfd;" horiz-adv-x="442" d="M76 -217Q62 -217 49 -214T25 -207L37 -164Q45 -166 55 -168T76 -171Q119 -171 149 -136T196 -48L209 -7L12 481H67L179 186Q191 155 204 119T231 50H235Q246 83 257 119T279 186L378 481H430L241 -57Q227 -98 206
-134T152 -194T76 -217ZM206 574L178 600L314 759L352 725L206 574Z" />
<glyph unicode="&#xfe;" horiz-adv-x="546" d="M90 -215V718H142V513L141 424Q177 452 217 472T301 493Q365 493 408 463T473 378T495 248Q495 166 466 108T388 19T283 -12Q249 -12 214 3T141 46L142 -41V-215H90ZM279 33Q326 33 362 60T420 135T441 248Q441 305
426 350T379 422T293 448Q259 448 222 429T142 372V93Q181 60 217 47T279 33Z" />
<glyph unicode="&#xff;" horiz-adv-x="442" d="M76 -217Q62 -217 49 -214T25 -207L37 -164Q45 -166 55 -168T76 -171Q119 -171 149 -136T196 -48L209 -7L12 481H67L179 186Q191 155 204 119T231 50H235Q246 83 257 119T279 186L378 481H430L241 -57Q227 -98 206
-134T152 -194T76 -217ZM322 596Q306 596 295 607T283 635Q283 652 294 663T322 674Q339 674 350 663T361 635Q361 619 350 608T322 596ZM142 596Q125 596 114 607T103 635Q103 652 114 663T142 674Q159 674 170 663T181 635Q181 619 170 608T142 596Z" />
<glyph unicode="&#x2013;" horiz-adv-x="480" d="M41 231V271H439V231H41Z" />
<glyph unicode="&#x2014;" horiz-adv-x="800" d="M41 231V271H759V231H41Z" />
<glyph unicode="&#x2018;" horiz-adv-x="225" d="M106 471Q84 471 71 489T57 542Q57 596 81 635T147 702L166 675Q133 649 115 621T97 551L113 494L75 537Q83 546 89 549T106 553Q121 553 134 543T147 513Q147 493 136 482T106 471Z" />
<glyph unicode="&#x2019;" horiz-adv-x="225" d="M78 468L59 495Q93 521 110 549T128 619L112 676L150 633Q143 624 136 621T119 617Q104 617 91 627T77 657Q77 677 89 688T119 699Q142 699 154 681T167 628Q167 574 144 535T78 468Z" />
<glyph unicode="&#x201a;" horiz-adv-x="225" d="M78 -134L59 -107Q93 -81 110 -53T128 17L112 74L150 31Q143 22 136 19T119 15Q104 15 91 25T77 55Q77 75 89 86T119 97Q142 97 154 79T167 26Q167 -28 144 -67T78 -134Z" />
<glyph unicode="&#x201c;" horiz-adv-x="373" d="M106 471Q84 471 71 489T57 542Q57 596 81 635T147 702L166 675Q133 649 115 621T97 551L113 494L75 537Q83 546 89 549T106 553Q121 553 134 543T147 513Q147 493 136 482T106 471ZM254 471Q232 471 219 489T205
542Q205 596 229 635T295 702L314 675Q281 649 263 621T245 551L261 494L223 537Q231 546 237 549T254 553Q269 553 282 543T295 513Q295 493 284 482T254 471Z" />
<glyph unicode="&#x201d;" horiz-adv-x="373" d="M78 468L59 495Q93 521 110 549T128 619L112 676L150 633Q143 624 136 621T119 617Q104 617 91 627T77 657Q77 677 89 688T119 699Q142 699 154 681T167 628Q167 574 144 535T78 468ZM226 468L207 495Q241 521
258 549T276 619L260 676L298 633Q291 624 284 621T267 617Q252 617 239 627T225 657Q225 677 237 688T267 699Q290 699 302 681T315 628Q315 574 292 535T226 468Z" />
<glyph unicode="&#x201e;" horiz-adv-x="373" d="M78 -134L59 -107Q93 -81 110 -53T128 17L112 74L150 31Q143 22 136 19T119 15Q104 15 91 25T77 55Q77 75 89 86T119 97Q142 97 154 79T167 26Q167 -28 144 -67T78 -134ZM226 -134L207 -107Q241 -81 258 -53T276
17L260 74L298 31Q291 22 284 19T267 15Q252 15 239 25T225 55Q225 75 237 86T267 97Q290 97 302 79T315 26Q315 -28 292 -67T226 -134Z" />
<glyph unicode="&#x2022;" horiz-adv-x="285" d="M143 152Q116 152 93 166T55 204T40 264Q40 298 54 323T92 362T143 376Q169 376 192 362T230 323T245 264Q245 229 231 205T193 166T143 152Z" />
<glyph unicode="&#x2039;" horiz-adv-x="261" d="M181 71L43 231V273L181 433L207 410L85 252L207 92L181 71Z" />
<glyph unicode="&#x203a;" horiz-adv-x="261" d="M80 71L54 92L176 252L54 410L80 433L218 273V231L80 71Z" />
</font>
</defs>
</svg>
