<?xml version="1.0" standalone="no"?>
<!DOCTYPE svg PUBLIC "-//W3C//DTD SVG 1.1//EN" "http://www.w3.org/Graphics/SVG/1.1/DTD/svg11.dtd">
<svg xmlns="http://www.w3.org/2000/svg">
<defs >
<font id="Heebo" horiz-adv-x="1072" ><font-face
    font-family="Heebo Black"
    units-per-em="2048"
    panose-1="0 0 0 0 0 0 0 0 0 0"
    ascent="2146"
    descent="-862"
    alphabetic="0" />
<glyph unicode=" " horiz-adv-x="512" />
<glyph unicode="!" horiz-adv-x="579" d="M446 473H155L108 1456H493L446 473ZM99 167Q99 247 154 300T297 353Q386 353 440 300T495 167Q495 88 441 34T297 -20Q209 -20 154 34T99 167Z" />
<glyph unicode="&quot;" horiz-adv-x="659" d="M259 1398L213 947H15V1383V1537H259V1398ZM622 1398L576 947H380L379 1392V1537H622V1398Z" />
<glyph unicode="#" horiz-adv-x="1194" d="M417 1456H626L390 0H179L417 1456ZM771 1456H982L745 0H534L771 1456ZM102 842V1040H1143V842H102ZM27 410V609H1067V410H27Z" />
<glyph unicode="$" horiz-adv-x="1192" d="M722 1392H555V1685H722V1392ZM700 -220H533V53H700V-220ZM745 390Q745 442 730 474T680 531T589 579Q456 636 353 694T192 838T134 1064Q134 1189 196 1282T369 1426T623 1477Q768 1477 878 1420T1051 1257T1114 1003H754Q754
1112 714 1153T616 1194Q573 1194 546 1176T507 1127T494 1060Q494 1021 508 992T557 937T652 883Q782 825 884 765T1046 617T1106 392Q1106 261 1044 169T872 28T617 -21Q520 -21 425 4T252 87T127 241T80 477H440Q440 416 454 375T493 309T550 273T617 262Q663
262 691 279T732 326T745 390Z" />
<glyph unicode="%" horiz-adv-x="1520" d="M89 1176Q89 1259 125 1327T234 1436T416 1477Q528 1477 601 1436T709 1327T745 1176V1099Q745 1018 710 950T602 841T418 800Q308 800 235 841T126 950T89 1099V1176ZM318 1099Q318 1073 329 1051T362 1014T418 1000Q452
1000 473 1014T504 1050T515 1099V1176Q515 1203 505 1226T472 1263T416 1277Q384 1277 362 1263T329 1226T318 1176V1099ZM775 357Q775 439 812 507T922 616T1104 657Q1216 657 1289 616T1397 507T1433 357V280Q1433 198 1398 130T1290 21T1106 -20Q996 -20 923
21T812 130T775 280V357ZM1005 280Q1005 253 1019 231T1056 194T1106 180Q1150 180 1170 194T1197 230T1203 280V357Q1203 396 1179 426T1104 457Q1054 457 1030 427T1005 357V280ZM485 107L319 191L1030 1329L1196 1245L485 107Z" />
<glyph unicode="&amp;" horiz-adv-x="1392" d="M616 957Q678 996 689 1028T701 1085Q701 1121 675 1154T599 1187Q544 1187 517 1155T490 1076Q490 1009 545 940T676 779L1358 0H957L405 621Q302 753 241 857T180 1073Q180 1190 232 1281T378 1424T600 1477Q718
1477 805 1427T941 1295T989 1115Q989 1049 965 990T897 880T796 790L455 552Q441 535 432 516T418 475T413 422Q413 375 433 341T486 288T555 269Q634 269 707 303T840 401T933 551T968 743H1269Q1269 559 1214 402T1017 140Q1012 139 997 131T977 120Q870 47
769 13T530 -21Q382 -21 275 32T109 178T51 393Q51 477 83 539T171 653T302 758L616 957Z" />
<glyph unicode="&apos;" horiz-adv-x="314" d="M290 1366L255 935H36L35 1353V1536H290V1366Z" />
<glyph unicode="(" horiz-adv-x="732" d="M119 592Q119 800 162 969T278 1267T441 1479T624 1599L691 1418Q636 1378 585 1311T493 1145T428 910T404 594V559Q404 380 428 244T493 9T585 -156T691 -263L624 -446Q531 -410 441 -326T278 -113T162 184T119 561V592Z" />
<glyph unicode=")" horiz-adv-x="729" d="M639 561Q639 366 594 199T472 -101T302 -321T109 -446L41 -263Q95 -223 146 -157T238 9T304 244T328 559V594Q328 773 304 909T239 1144T147 1310T41 1417L109 1599Q207 1563 301 1475T472 1255T593 955T639 592V561Z" />
<glyph unicode="*" horiz-adv-x="961" d="M350 948L27 1036L95 1239L411 1105L384 1456H610L583 1098L890 1227L958 1022L630 935L847 674L665 547L485 840L305 558L122 680L350 948Z" />
<glyph unicode="+" horiz-adv-x="1089" d="M1041 519H43V841H1041V519ZM711 146H376V1206H711V146Z" />
<glyph unicode="," horiz-adv-x="567" d="M435 36Q435 -92 373 -215T221 -417L40 -333Q60 -287 85 -240T129 -132T148 13V265H436L435 36Z" />
<glyph unicode="-" horiz-adv-x="950" d="M773 481H160V772H773V481Z" />
<glyph unicode="." horiz-adv-x="634" d="M114 175Q114 254 169 307T311 360Q399 360 453 307T508 175Q508 96 454 43T311 -11Q224 -11 169 42T114 175Z" />
<glyph unicode="/" horiz-adv-x="713" d="M219 -125H-35L453 1456H707L219 -125Z" />
<glyph unicode="0" horiz-adv-x="1192" d="M1110 591Q1110 384 1045 249T864 47T598 -20Q447 -20 331 46T149 248T83 591V864Q83 1071 148 1206T329 1409T596 1476Q746 1476 862 1409T1044 1207T1110 864V591ZM749 911Q749 1016 730 1075T677 1160T596 1185Q549
1185 515 1160T462 1076T443 911V545Q443 438 462 378T515 294T598 270Q644 270 678 294T730 378T749 545V911Z" />
<glyph unicode="1" horiz-adv-x="1192" d="M851 0H490V1031L165 944V1227L818 1455H851V0Z" />
<glyph unicode="2" horiz-adv-x="1192" d="M1112 0H85V244L552 727Q611 792 647 844T700 939T717 1015Q717 1103 680 1145T573 1187Q525 1187 490 1159T436 1084T416 978H55Q55 1115 121 1228T306 1409T582 1477Q828 1477 953 1365T1079 1048Q1079 943 1037 852T916
666T725 457L558 290H1112V0Z" />
<glyph unicode="3" horiz-adv-x="1192" d="M564 883Q621 883 658 902T713 959T731 1050Q731 1084 715 1115T663 1167T574 1187Q539 1187 505 1175T448 1139T425 1082H65Q65 1208 134 1296T317 1430T562 1477Q719 1477 838 1430T1025 1289T1092 1059Q1092 981 1057
915T958 799T809 722T625 694H396V883H564ZM396 789H625Q733 789 822 766T977 695T1078 577T1114 411Q1114 274 1041 178T843 31T561 -20Q470 -20 378 4T211 80T89 212T43 408H405Q405 371 428 340T490 289T573 270Q659 270 706 316T754 420Q754 488 732 528T667
586T564 604H396V789Z" />
<glyph unicode="4" horiz-adv-x="1192" d="M1130 299H79L57 532L633 1456H917L614 937L398 589H1130V299ZM991 0H631V1456H991V0Z" />
<glyph unicode="5" horiz-adv-x="1192" d="M99 706L189 1456H1053V1166H483L452 913Q475 925 530 943T653 962Q799 962 899 905T1052 738T1105 470Q1105 348 1050 236T881 52T592 -20Q493 -20 400 11T232 100T114 239T73 421H435Q438 354 480 312T589 270Q652
270 685 303T731 388T744 499Q744 565 725 611T663 682T550 707Q480 707 441 682T386 636L99 706Z" />
<glyph unicode="6" horiz-adv-x="1192" d="M909 1480V1185H890Q796 1185 714 1162T571 1091T475 965T440 780V515Q440 430 459 376T516 296T612 270Q660 270 697 298T756 375T778 485Q778 556 755 603T691 675T600 700Q539 700 499 674T439 610T419 533L335 633Q333
683 357 744T430 860T554 952T727 988Q860 988 951 922T1091 742T1139 483Q1139 340 1073 226T890 46T622 -20Q506 -20 407 18T235 132T120 318T79 575V701Q79 891 141 1036T312 1280T559 1429T851 1480H909Z" />
<glyph unicode="7" horiz-adv-x="1192" d="M1109 1255L574 0H193L730 1166H50V1456H1109V1255Z" />
<glyph unicode="8" horiz-adv-x="1192" d="M1107 404Q1107 263 1041 169T861 28T598 -20Q451 -20 335 27T151 169T83 404Q83 533 151 625T335 765T596 814Q743 814 858 766T1040 625T1107 404ZM746 436Q746 490 728 526T676 580T596 599Q551 599 517 581T464 526T445
436Q445 385 464 348T517 291T598 270Q643 270 676 290T728 348T746 436ZM1078 1064Q1078 949 1017 863T848 730T598 682Q457 682 348 729T176 863T113 1064Q113 1199 175 1291T346 1430T595 1477Q738 1477 846 1430T1016 1291T1078 1064ZM718 1042Q718 1088 705
1120T664 1169T595 1187Q555 1187 528 1170T488 1120T475 1042Q475 997 488 963T528 909T598 889Q640 889 666 908T705 962T718 1042Z" />
<glyph unicode="9" horiz-adv-x="1192" d="M322 279Q417 279 494 295T628 351T714 458T744 630V951Q744 1033 725 1085T672 1162T589 1187Q541 1187 508 1151T457 1061T439 953Q439 888 457 838T513 759T607 731Q648 731 678 745T727 781T755 829T764 881L867
786Q867 728 839 671T760 566T645 490T508 461Q376 461 280 520T131 690T78 954Q78 1097 144 1216T326 1406T591 1477Q695 1477 788 1440T952 1327T1063 1140T1104 879V758Q1104 595 1065 469T954 249T786 96T572 7T328 -23H303V279H322Z" />
<glyph unicode=":" horiz-adv-x="635" d="M117 175Q117 254 172 307T314 360Q402 360 456 307T511 175Q511 96 457 43T314 -11Q227 -11 172 42T117 175ZM117 949Q117 1028 172 1081T314 1134Q402 1134 456 1081T511 949Q511 870 457 817T314 763Q227 763 172 816T117
949Z" />
<glyph unicode=";" horiz-adv-x="608" d="M105 949Q105 1028 160 1081T302 1134Q390 1134 444 1081T499 949Q499 870 445 817T302 763Q215 763 160 816T105 949ZM463 36Q463 -92 401 -215T249 -417L68 -333Q88 -287 113 -240T157 -132T176 13V265H464L463 36Z" />
<glyph unicode="&lt;" horiz-adv-x="1044" d="M932 437V96L43 452V710L337 621L932 437ZM337 579L43 493V751L932 1107V768L337 579Z" />
<glyph unicode="=" horiz-adv-x="1205" d="M1061 699H127V988H1061V699ZM1061 255H127V544H1061V255Z" />
<glyph unicode="&gt;" horiz-adv-x="1050" d="M111 765V1105L994 750V491L702 581L111 765ZM702 625L994 708V451L111 95V435L702 625Z" />
<glyph unicode="?" horiz-adv-x="1056" d="M340 473Q340 560 352 629T395 754T479 851Q525 887 557 921T608 990T626 1058Q626 1127 597 1157T510 1187Q465 1187 428 1153T388 1039H26Q28 1196 92 1292T266 1432T510 1476Q733 1476 860 1376T988 1076Q988 990
955 929T868 816T746 701Q688 651 668 602T645 473H340ZM297 174Q297 254 352 307T495 360Q584 360 638 307T693 174Q693 95 639 42T495 -12Q407 -12 352 41T297 174Z" />
<glyph unicode="@" horiz-adv-x="1829" d="M1754 559Q1750 450 1723 347T1640 160T1501 28T1297 -21Q1170 -21 1089 62T1015 287L1066 880H1306L1255 287Q1250 253 1255 231T1274 195T1306 176T1344 170Q1399 170 1442 219T1511 354T1541 547Q1551 746 1491 898T1299
1135T957 1221Q756 1221 612 1119T387 843T295 454Q287 275 323 144T437 -74T629 -202T894 -244Q981 -244 1071 -226T1225 -182L1264 -364Q1194 -409 1089 -431T890 -453Q619 -453 430 -353T147 -51T63 454Q72 658 138 832T320 1134T599 1334T961 1406Q1224 1406
1405 1299T1675 1000T1754 559ZM764 439Q758 356 769 301T808 218T881 190Q901 190 928 203T984 259T1033 385L1132 260Q1086 122 1002 53T796 -16Q699 -16 627 40T520 198T498 439Q519 607 586 730T755 922T985 990Q1106 990 1174 956T1306 880L1190 707Q1162
732 1116 756T1006 781Q927 781 878 741T803 625T764 439Z" />
<glyph unicode="A" horiz-adv-x="1409" d="M396 0H-7L527 1456H781L737 1105L396 0ZM671 1105L622 1456H879L1416 0H1013L671 1105ZM1009 244H262V547H1009V244Z" />
<glyph unicode="B" horiz-adv-x="1329" d="M337 603L335 856H634Q751 856 798 891T845 998Q845 1082 796 1117T637 1153H479V0H103V1456H637Q911 1456 1065 1356T1220 1050Q1220 961 1182 882T1054 753T805 705L707 603H337ZM246 0L374 302H693Q794 302 834 344T874
441Q874 492 858 528T805 583T707 603H407L409 856H763L851 753Q1002 763 1088 717T1211 594T1248 435Q1248 218 1108 109T693 0H246Z" />
<glyph unicode="C" horiz-adv-x="1346" d="M1297 501Q1291 347 1215 230T1005 46T688 -20Q491 -20 351 66T138 314T64 698V757Q64 981 141 1142T356 1390T682 1477Q876 1477 1008 1407T1213 1216T1299 943H925Q923 1057 870 1113T682 1169Q601 1169 549 1131T471
1003T445 759V698Q445 543 467 454T543 326T688 288Q763 288 815 310T894 379T923 501H1297Z" />
<glyph unicode="D" horiz-adv-x="1323" d="M262 0L264 302H583Q678 302 743 346T842 479T876 703V754Q876 888 843 976T743 1109T577 1153H256V1456H577Q777 1456 930 1366T1171 1118T1258 752V703Q1258 497 1171 338T932 90T583 0H262ZM479 0H103V1456H479V0Z" />
<glyph unicode="E" horiz-adv-x="1144" d="M1115 0H346V302H1115V0ZM479 0H103V1456H479V0ZM1016 601H346V892H1016V601ZM1118 1153H346V1456H1118V1153Z" />
<glyph unicode="F" horiz-adv-x="1116" d="M479 0H103V1456H479V0ZM1030 561H374V863H1030V561ZM1084 1153H374V1456H1084V1153Z" />
<glyph unicode="G" horiz-adv-x="1396" d="M1309 180Q1270 138 1193 92T998 13T723 -20Q527 -20 382 62T156 304T75 694V760Q75 991 156 1151T379 1394T703 1477Q908 1477 1036 1413T1229 1233T1308 968H947Q938 1038 912 1084T839 1153T716 1176Q637 1176 579
1132T488 997T456 762V694Q456 554 486 463T582 327T750 282Q801 282 836 289T896 308T933 330V528H706V794H1309V180Z" />
<glyph unicode="H" horiz-adv-x="1439" d="M1083 590H354V892H1083V590ZM479 0H103V1456H479V0ZM1335 0H961V1456H1335V0Z" />
<glyph unicode="I" horiz-adv-x="626" d="M500 0H126V1456H500V0Z" />
<glyph unicode="J" horiz-adv-x="1154" d="M675 1456H1049V463Q1049 317 982 209T799 40T541 -20Q394 -20 279 30T98 183T32 448H409Q409 346 443 314T541 282Q585 282 615 304T660 366T675 463V1456Z" />
<glyph unicode="K" horiz-adv-x="1311" d="M479 0H103V1456H479V0ZM787 703L454 335L384 692L591 1023L881 1456H1344L787 703ZM546 639L838 858L1340 0H896L546 639Z" />
<glyph unicode="L" horiz-adv-x="1114" d="M1078 0H346V302H1078V0ZM478 0H103V1456H478V0Z" />
<glyph unicode="M" horiz-adv-x="1798" d="M595 1456L898 494L1200 1456H1504L1021 0H774L291 1456H595ZM420 1456L479 280V0H103V1456H420ZM1693 1456V0H1316V280L1375 1456H1693Z" />
<glyph unicode="N" horiz-adv-x="1437" d="M1333 0H959L478 842V0H103V1456H478L959 614V1456H1333V0Z" />
<glyph unicode="O" horiz-adv-x="1418" d="M1352 706Q1352 480 1270 318T1042 68T710 -20Q521 -20 375 67T147 317T64 706V749Q64 975 146 1137T373 1388T708 1476Q895 1476 1040 1388T1269 1138T1352 749V706ZM971 751Q971 889 941 982T851 1122T708 1169Q620
1169 562 1122T475 982T446 751V706Q446 571 475 477T563 335T710 286Q794 286 852 334T941 477T971 706V751Z" />
<glyph unicode="P" horiz-adv-x="1342" d="M339 474V777H694Q762 777 804 799T866 859T886 948Q886 1002 866 1049T804 1124T694 1153H479V0H103V1456H694Q871 1456 999 1390T1197 1210T1267 950Q1267 808 1198 701T1000 534T694 474H339Z" />
<glyph unicode="Q" horiz-adv-x="1418" d="M1339 -66L1107 -269L700 60L925 263L1339 -66ZM1355 706Q1355 480 1273 318T1045 68T713 -20Q524 -20 378 67T150 317T67 706V749Q67 975 149 1137T376 1388T711 1476Q898 1476 1043 1388T1272 1138T1355 749V706ZM974
751Q974 889 943 982T854 1122T711 1169Q623 1169 565 1122T477 982T448 751V706Q448 571 477 477T566 335T713 286Q797 286 855 334T943 477T974 706V751Z" />
<glyph unicode="R" horiz-adv-x="1337" d="M686 1456Q857 1456 982 1406T1175 1257T1243 1014Q1243 884 1205 800T1098 662T937 570L814 495H339L337 798H682Q744 798 785 818T847 877T868 975Q868 1059 822 1106T686 1153H479V0H104V1456H686ZM573 641L971 644L1291
16V0H889L573 641Z" />
<glyph unicode="S" horiz-adv-x="1289" d="M844 392Q844 431 828 461T760 520T603 585Q509 617 420 658T260 754T147 885T105 1062Q105 1190 179 1282T381 1425T672 1476Q833 1476 956 1422T1150 1265T1221 1021H847Q847 1068 828 1104T768 1160T664 1180Q603
1180 562 1163T500 1119T479 1057Q479 1018 511 989T600 935T732 885Q888 835 996 769T1162 611T1219 394Q1219 261 1153 169T964 28T677 -20Q563 -20 454 9T256 99T115 255T62 484H438Q438 424 452 384T497 320T572 285T677 274Q739 274 775 291T828 335T844 392Z"
/>
<glyph unicode="T" horiz-adv-x="1298" d="M831 0H456V1456H831V0ZM1261 1153H35V1456H1261V1153Z" />
<glyph unicode="U" horiz-adv-x="1361" d="M1258 1456V513Q1258 341 1187 222T986 42T681 -20Q508 -20 377 41T172 222T99 513V1456H476V513Q476 430 499 379T568 305T681 282Q749 282 793 305T860 379T883 513V1456H1258Z" />
<glyph unicode="V" horiz-adv-x="1364" d="M952 1456H1372L886 0H615L663 375L952 1456ZM698 375L749 0H476L-7 1456H411L698 375Z" />
<glyph unicode="W" horiz-adv-x="1774" d="M724 1456H905L1015 1397L710 0H508L438 69L724 1456ZM631 54L554 0H321L18 1456H391L631 54ZM1379 1456H1750L1448 0H1215L1140 62L1379 1456ZM1335 60L1261 0H1059L747 1399L861 1456H1041L1335 60Z" />
<glyph unicode="X" horiz-adv-x="1314" d="M657 996L876 1456H1304L905 733L1314 0H882L657 468L432 0H0L409 733L10 1456H438L657 996Z" />
<glyph unicode="Y" horiz-adv-x="1292" d="M646 854L895 1456H1299L837 518V0H456V518L-7 1456H397L646 854Z" />
<glyph unicode="Z" horiz-adv-x="1252" d="M1207 0H149V302H1207V0ZM337 0H65V200L941 1456H1202V1261L337 0ZM1082 1153H56V1456H1082V1153Z" />
<glyph unicode="[" horiz-adv-x="588" d="M573 1442H464V-85H573V-357H102V1715H573V1442Z" />
<glyph unicode="\" horiz-adv-x="882" d="M-27 1456H349L957 -125H580L-27 1456Z" />
<glyph unicode="]" horiz-adv-x="588" d="M16 1715H487V-357H16V-85H126V1442H16V1715Z" />
<glyph unicode="^" horiz-adv-x="923" d="M301 729H32L331 1456H530L470 1181L301 729ZM457 1181L398 1456H597L896 729H627L457 1181Z" />
<glyph unicode="_" horiz-adv-x="909" d="M907 -279H-1V0H907V-279Z" />
<glyph unicode="`" horiz-adv-x="708" d="M628 1216H337L48 1536H427L628 1216Z" />
<glyph unicode="a" horiz-adv-x="1088" d="M641 711Q641 771 616 806T528 842Q495 842 473 832T439 800T427 741H67Q67 847 126 928T293 1055T547 1102Q677 1102 780 1059T943 928T1003 709V282Q1003 165 1015 112T1050 18V0H690Q665 53 653 130T641 291V711ZM686
469H547Q462 469 432 423T402 326Q402 289 429 267T498 244Q549 244 584 262T638 306T653 350L730 199Q710 160 686 122T625 51T537 0T411 -20Q312 -20 228 21T92 136T41 308Q41 475 164 570T550 665H684L686 469Z" />
<glyph unicode="b" horiz-adv-x="1155" d="M452 1536V279L414 0H92V1536H452ZM1107 533Q1107 369 1063 244T925 50T686 -20Q555 -20 474 57T348 264T281 549V537Q303 690 347 818T473 1024T684 1102Q831 1102 924 1030T1062 835T1107 554V533ZM747 554Q747 624
736 682T693 776T593 812Q543 812 509 797T455 750T428 671T423 560V526Q419 441 433 384T487 297T595 268Q664 268 696 300T737 393T747 533V554Z" />
<glyph unicode="c" horiz-adv-x="1067" d="M553 270Q597 270 627 285T671 328T685 397H1022Q1024 270 964 177T799 32T561 -20Q390 -20 277 52T106 248T49 531V550Q49 708 105 833T275 1030T559 1102Q697 1102 801 1051T965 900T1022 658H685Q686 700 673 735T629
791T550 812Q487 812 457 777T418 682T409 550V531Q409 457 417 398T457 305T553 270Z" />
<glyph unicode="d" horiz-adv-x="1155" d="M702 1536H1064V0H740L702 257V1536ZM47 549Q47 713 94 837T236 1032T469 1102Q592 1102 674 1025T805 817T874 526V538Q853 390 805 263T674 58T467 -20Q329 -20 236 51T95 247T47 528V549ZM407 528Q407 455 420 397T467
304T560 270Q621 270 660 299T718 383T731 515V549Q734 618 724 668T693 749T639 796T562 812Q504 812 470 778T422 685T407 549V528Z" />
<glyph unicode="e" horiz-adv-x="1122" d="M624 -20Q444 -20 318 53T125 245T59 504V541Q59 696 117 823T292 1026T586 1102Q743 1102 854 1038T1024 854T1084 568V417H194V648H732V677Q733 724 716 754T666 798T583 812Q513 812 478 773T431 673T419 541V504Q419
432 446 380T524 299T648 271Q714 271 780 294T893 375L1055 168Q1005 98 894 39T624 -20Z" />
<glyph unicode="f" horiz-adv-x="750" d="M162 0V1162Q162 1354 277 1455T587 1557Q632 1557 672 1551T749 1535L751 1259Q734 1264 715 1266T670 1268Q600 1268 562 1241T524 1162V0H162ZM728 822H8V1082H728V822Z" />
<glyph unicode="g" horiz-adv-x="1183" d="M1092 1082V47Q1092 -105 1022 -210T824 -370T529 -425Q457 -425 381 -407T237 -354T124 -269L274 -46Q312 -85 373 -116T517 -148Q621 -148 675 -96T730 51V822L765 1082H1092ZM50 549Q50 713 104 837T258 1032T497
1102Q610 1102 681 1058T795 934T861 751T902 526V538Q879 390 834 263T708 58T495 -20Q358 -20 258 51T104 247T50 528V549ZM411 528Q411 455 430 397T489 304T588 270Q657 270 699 299T759 383T772 515V549Q775 618 766 668T734 749T676 796T590 812Q532 812
492 778T432 685T411 549V528Z" />
<glyph unicode="h" horiz-adv-x="1159" d="M441 0H80V1536H441V0ZM316 567Q315 723 363 843T500 1033T708 1102Q815 1102 897 1060T1026 921T1073 664V0H711V666Q711 725 694 756T645 800T568 812Q512 812 479 796T428 748T405 672T399 574L316 567Z" />
<glyph unicode="i" horiz-adv-x="575" d="M468 0H107V1082H468V0ZM87 1356Q87 1436 142 1486T285 1536Q374 1536 428 1486T483 1356Q483 1277 429 1227T285 1176Q197 1176 142 1226T87 1356Z" />
<glyph unicode="j" horiz-adv-x="562" d="M476 1082V-14Q476 -219 362 -328T50 -437Q5 -437 -32 -434T-115 -420L-116 -135Q-90 -139 -68 -141T-20 -144Q45 -144 79 -112T114 -14V1082H476ZM89 1356Q89 1436 144 1486T287 1536Q376 1536 430 1486T485 1356Q485
1277 431 1227T287 1176Q199 1176 144 1226T89 1356Z" />
<glyph unicode="k" horiz-adv-x="1133" d="M452 0H91V1537H452V0ZM679 520L428 272L269 500L478 781L713 1082H1144L679 520ZM486 482L753 669L1168 0H756L486 482Z" />
<glyph unicode="l" horiz-adv-x="575" d="M468 0H107V1536H468V0Z" />
<glyph unicode="m" horiz-adv-x="1758" d="M453 0H92V1082H430L453 851V0ZM328 567Q327 723 374 843T514 1033T745 1102Q885 1102 972 1014T1059 722V0H698V671Q698 733 685 763T645 802T581 812Q541 812 509 796T455 748T421 672T409 574L328 567ZM919 554Q918
715 963 838T1099 1032T1328 1102Q1427 1102 1503 1063T1622 930T1666 675V0H1304V675Q1304 734 1290 763T1251 802T1188 812Q1144 812 1112 794T1059 741T1028 658T1017 552L919 554Z" />
<glyph unicode="n" horiz-adv-x="1159" d="M442 0H82V1082H419L442 851V0ZM317 567Q316 739 368 858T514 1040T734 1102Q834 1102 910 1062T1029 929T1073 675V0H711V676Q711 734 695 763T647 802T569 812Q521 812 489 796T437 748T409 672T400 574L317 567Z" />
<glyph unicode="o" horiz-adv-x="1152" d="M49 550Q49 709 109 833T286 1030T574 1102Q747 1102 864 1030T1041 834T1101 550V531Q1101 373 1042 248T865 52T576 -20Q404 -20 287 51T109 248T49 531V550ZM410 531Q410 457 423 398T473 304T576 270Q642 270 678
304T727 397T741 531V550Q741 622 728 681T678 776T574 812Q508 812 473 777T424 682T410 550V531Z" />
<glyph unicode="p" horiz-adv-x="1155" d="M452 -416H92V1082H428L452 874V-416ZM1107 534Q1107 377 1059 252T918 53T686 -20Q556 -20 475 59T350 267T282 544V532Q304 692 348 821T474 1026T685 1102Q823 1102 917 1034T1059 842T1107 555V534ZM747 555Q747
632 733 689T686 779T594 812Q544 812 511 798T457 753T430 673T424 555V521Q420 445 434 389T488 301T596 270Q656 270 688 305T734 401T747 534V555Z" />
<glyph unicode="q" horiz-adv-x="1153" d="M702 851L753 1082H1064V-416H702V851ZM47 552Q47 716 95 840T237 1033T468 1102Q599 1102 679 1025T805 819T872 530V541Q849 393 804 265T678 59T466 -20Q329 -20 236 52T95 249T47 531V552ZM407 531Q407 459 420 400T466
305T559 270Q629 270 667 300T720 386T730 519V553Q733 622 726 671T698 751T645 797T561 812Q503 812 469 779T421 688T407 552V531Z" />
<glyph unicode="r" horiz-adv-x="784" d="M452 0H92V1082H428L452 793V0ZM758 738Q737 740 702 743T644 746Q568 746 521 727T452 666T432 558L369 612Q369 759 406 869T510 1041T669 1102Q694 1102 719 1100T764 1090L758 738Z" />
<glyph unicode="s" horiz-adv-x="1052" d="M647 309Q647 334 630 350T568 380T444 412Q340 435 253 477T115 588T63 752Q63 845 116 925T270 1053T515 1102Q663 1102 771 1057T937 932T996 745H636Q636 804 609 831T514 858Q486 858 461 848T420 819T404 771Q404
746 422 727T478 693T572 670Q679 652 775 616T933 510T994 319Q994 223 936 146T769 25T514 -20Q356 -20 248 37T85 180T29 354H365Q367 311 386 283T441 240T524 225Q565 225 592 235T633 264T647 309Z" />
<glyph unicode="t" horiz-adv-x="708" d="M676 822H11V1082H676V822ZM503 1351V373Q503 335 512 314T544 283T609 274Q637 274 656 275T691 279L690 11Q644 -5 597 -12T494 -20Q382 -20 304 15T184 126T143 321V1351H503Z" />
<glyph unicode="u" horiz-adv-x="1159" d="M713 1082H1074V0H737L713 266V1082ZM838 490Q838 343 792 228T658 47T445 -20Q284 -20 184 73T83 381V1082H443V379Q443 345 456 321T497 283T565 270Q636 270 675 298T731 375T747 488L838 490Z" />
<glyph unicode="v" horiz-adv-x="1065" d="M684 1082H1063L715 0H491L485 252L684 1082ZM575 253L571 0H347L-1 1082H380L575 253Z" />
<glyph unicode="w" horiz-adv-x="1482" d="M614 1082H838L763 661L571 0H392L419 344L614 1082ZM477 353L485 0H268L17 1082H362L477 353ZM1117 1082H1461L1212 0H994L1000 371L1117 1082ZM1062 344L1088 0H907L720 658L647 1082H864L1062 344Z" />
<glyph unicode="x" horiz-adv-x="1061" d="M537 811L679 1082H1052L775 556L1066 0H690L536 294L385 0H8L299 556L24 1082H401L537 811Z" />
<glyph unicode="y" horiz-adv-x="1069" d="M694 1082H1080L649 -159Q635 -200 611 -248T547 -339T443 -409T285 -437Q251 -437 231 -436T192 -429T141 -416V-148Q153 -148 161 -148T182 -147Q262 -147 294 -128T340 -74L420 131L694 1082ZM575 355L612 -47L372
-34L-9 1082H377L575 355Z" />
<glyph unicode="z" horiz-adv-x="1061" d="M990 0H150V290H990V0ZM312 0H65V205L735 1082H983V883L312 0ZM866 792H85V1082H866V792Z" />
<glyph unicode="{" horiz-adv-x="665" d="M623 1403Q551 1375 528 1302T504 1132V932Q504 830 456 747T306 615T38 566V747Q120 747 156 797T192 932V1132Q192 1237 225 1328T337 1489T555 1597L623 1403ZM555 -354Q417 -315 338 -246T225 -85T192 112V312Q192
396 156 446T38 496V678Q203 678 305 629T456 498T504 312V112Q504 17 527 -56T623 -159L555 -354Z" />
<glyph unicode="|" horiz-adv-x="533" d="M366 -270H172V1456H366V-270Z" />
<glyph unicode="}" horiz-adv-x="665" d="M112 1597Q251 1559 330 1490T442 1329T475 1132V932Q475 847 511 797T629 747V566Q464 566 362 615T211 747T163 932V1132Q163 1228 140 1301T44 1403L112 1597ZM44 -159Q116 -130 139 -57T163 112V312Q163 415 211 498T361
630T629 679V496Q547 496 511 446T475 312V112Q475 7 442 -84T330 -245T112 -354L44 -159Z" />
<glyph unicode="~" horiz-adv-x="1285" d="M1193 805Q1193 662 1150 562T1029 410T853 357Q777 357 716 386T587 484Q552 520 519 538T451 557Q403 557 373 509T342 396L89 401Q89 546 132 644T251 794T426 845Q502 845 567 815T696 719Q731 684 763 665T829 646Q876
646 906 693T937 807L1193 805Z" />
<glyph unicode="&#xa0;" horiz-adv-x="512" />
<glyph unicode="&#xa1;" horiz-adv-x="633" d="M171 609H462L508 -375H124L171 609ZM517 916Q517 837 463 783T319 729Q231 729 177 783T122 916Q122 996 176 1049T319 1102Q408 1102 462 1049T517 916Z" />
<glyph unicode="&#xa2;" horiz-adv-x="1218" d="M719 1023H508V1318H719V1023ZM719 -245H508V49H719V-245ZM600 270Q644 270 674 285T718 328T732 397H1069Q1071 270 1011 177T846 32T608 -20Q437 -20 324 52T153 248T96 531V550Q96 708 152 833T322 1030T606
1102Q744 1102 848 1051T1012 900T1069 658H732Q733 700 720 735T676 791T597 812Q534 812 504 777T465 682T456 550V531Q456 457 464 398T504 305T600 270Z" />
<glyph unicode="&#xa3;" horiz-adv-x="1236" d="M107 0V302H1185V0H107ZM104 544V835H934V544H104ZM648 464Q648 362 598 301T417 191L210 302Q239 309 250 327T264 374T267 436L249 1039Q249 1177 305 1274T465 1423T709 1475Q944 1475 1068 1356T1192 1039H840Q840
1091 824 1120T781 1161T719 1173Q676 1173 649 1141T622 1039L648 464Z" />
<glyph unicode="&#xa4;" horiz-adv-x="1389" d="M296 608Q296 518 327 441T412 306T539 217T696 185Q779 185 851 217T979 306T1065 440T1096 608Q1096 698 1065 775T979 909T852 998T696 1030Q612 1030 540 999T413 910T327 775T296 608ZM100 608Q100 741 146
855T275 1054T465 1186T696 1234Q819 1234 926 1187T1116 1054T1244 855T1290 608Q1290 475 1244 361T1116 162T927 28T696 -20Q573 -20 465 28T275 161T147 361T100 608ZM1129 906L981 1059L1182 1265L1331 1112L1129 906ZM214 -26L65 126L267 331L416 180L214
-26ZM981 179L1129 331L1331 126L1182 -27L981 179ZM65 1112L214 1264L416 1058L267 906L65 1112Z" />
<glyph unicode="&#xa5;" horiz-adv-x="1114" d="M1003 538H70V747H1003V538ZM1003 249H70V457H1003V249ZM725 1456H1106L720 524H523L476 739L725 1456ZM644 729L593 524H396L8 1456H389L644 729ZM740 0H366V752H740V0Z" />
<glyph unicode="&#xa6;" horiz-adv-x="534" d="M115 -270V528H426V-270H115ZM426 698H115V1456H426V698Z" />
<glyph unicode="&#xa7;" horiz-adv-x="1308" d="M666 320Q753 320 801 361T850 470Q850 506 828 533T751 585T598 639Q446 683 336 736T166 871T106 1084Q106 1203 173 1291T361 1427T647 1476Q897 1476 1041 1367T1185 1052H824Q824 1090 805 1120T746 1167T647
1185Q551 1185 510 1157T468 1086Q468 1051 487 1028T560 984T716 938Q872 900 981 847T1147 715T1204 516Q1204 334 1058 246T666 158V320ZM615 716Q529 716 491 676T452 571Q452 530 471 504T543 454T697 400Q855 359 965 306T1132 170T1190 -45Q1190 -230 1043
-327T653 -424Q548 -424 448 -405T268 -339T141 -214T93 -16L454 -17Q454 -56 471 -79T516 -113T580 -128T653 -132Q741 -132 785 -111T830 -45Q830 -14 808 9T731 54T577 103Q426 143 317 195T150 326T92 523Q92 699 235 790T615 882V716Z" />
<glyph unicode="&#xa8;" horiz-adv-x="1023" d="M89 1361Q89 1421 136 1462T248 1503Q313 1503 360 1462T407 1361Q407 1300 360 1259T248 1218Q183 1218 136 1259T89 1361ZM615 1361Q615 1421 662 1462T774 1503Q839 1503 885 1462T932 1361Q932 1300 886 1259T774
1218Q709 1218 662 1259T615 1361Z" />
<glyph unicode="&#xa9;" horiz-adv-x="1604" d="M1116 595Q1116 438 1025 360T778 281Q616 281 522 388T427 668V790Q427 962 521 1069T778 1177Q934 1177 1025 1098T1117 862H953Q953 956 909 995T778 1035Q716 1035 674 1004T611 918T590 791V668Q590 558 637
490T778 422Q864 422 908 461T952 595H1116ZM210 729Q210 598 255 485T380 288T566 157T793 110Q913 110 1018 157T1204 288T1329 485T1375 729Q1375 860 1330 972T1204 1169T1019 1299T793 1346Q672 1346 566 1300T380 1169T255 973T210 729ZM83 729Q83 888 138
1024T291 1261T517 1419T793 1476Q940 1476 1068 1420T1294 1262T1447 1024T1503 729Q1503 570 1448 434T1295 196T1069 37T793 -20Q646 -20 518 37T291 196T138 434T83 729Z" />
<glyph unicode="&#xaa;" horiz-adv-x="905" d="M571 1201Q571 1260 544 1290T461 1321Q400 1321 365 1297T330 1228L148 1243Q148 1344 233 1410T461 1476Q593 1476 674 1407T755 1200V886Q755 837 760 793T781 705H595Q582 740 577 780T571 861V1201ZM617 1029H475Q391
1029 353 997T315 924Q315 885 342 864T426 842Q465 842 506 859T574 903T602 952L620 830Q605 799 575 767T496 713T380 691Q260 691 196 753T131 920Q131 1030 215 1090T474 1151H616L617 1029Z" />
<glyph unicode="&#xab;" horiz-adv-x="1066" d="M572 505L314 506V519L585 911H802L572 505ZM802 109H585L314 500V513L572 514L802 109ZM740 505L482 506V519L753 911H970L740 505ZM970 109H753L482 500V513L740 514L970 109Z" />
<glyph unicode="&#xac;" horiz-adv-x="1126" d="M964 629H126V809H964V629ZM964 372H753V730H964V372Z" />
<glyph unicode="&#xad;" horiz-adv-x="600" d="M773 481H160V772H773V481Z" />
<glyph unicode="&#xae;" horiz-adv-x="1604" d="M605 651L603 791H773Q843 791 896 819T949 902Q949 973 911 1000T778 1028H652V315H494V1167H778Q927 1167 1016 1099T1106 900Q1106 819 1049 768T884 687Q881 687 878 680T871 672Q854 662 850 658T841 652T816
651H605ZM828 775Q986 775 1045 702T1104 516V458Q1104 421 1107 388T1121 331V315H959Q949 341 948 389T946 459V515Q946 583 915 617T806 651L828 775ZM211 729Q211 598 256 485T381 288T567 157T794 110Q914 110 1019 157T1205 288T1330 485T1376 729Q1376 860
1331 972T1205 1169T1020 1299T794 1346Q673 1346 567 1300T381 1169T256 973T211 729ZM84 729Q84 888 139 1024T292 1261T518 1419T794 1476Q940 1476 1068 1420T1295 1262T1448 1024T1504 729Q1504 570 1449 434T1295 196T1069 37T794 -20Q647 -20 519 37T292
196T139 434T84 729Z" />
<glyph unicode="&#xaf;" horiz-adv-x="1086" d="M889 1276H185V1461H889V1276Z" />
<glyph unicode="&#xb0;" horiz-adv-x="817" d="M123 1189Q123 1268 162 1333T265 1437T408 1476Q485 1476 548 1437T649 1333T687 1190Q687 1111 649 1047T548 944T408 906Q330 906 266 944T162 1046T123 1189ZM286 1189Q286 1137 322 1103T408 1069Q457 1069
490 1103T524 1189Q524 1242 491 1277T408 1313Q359 1313 323 1278T286 1189Z" />
<glyph unicode="&#xb1;" horiz-adv-x="1105" d="M1001 700H85V1004H1001V700ZM698 370H384V1299H698V370ZM981 1H99V297H981V1Z" />
<glyph unicode="&#xb2;" horiz-adv-x="771" d="M701 667H67V827L352 1074Q399 1113 423 1154T447 1212Q447 1243 428 1260T371 1277Q330 1277 309 1248T288 1184H49Q49 1262 87 1326T194 1429T358 1468Q515 1468 599 1402T684 1211Q684 1149 660 1102T585 1009T450
902L383 857H701V667Z" />
<glyph unicode="&#xb3;" horiz-adv-x="771" d="M370 1146Q416 1146 437 1165T459 1219Q459 1236 441 1256T372 1277Q341 1277 317 1268T292 1240H54Q54 1318 98 1368T214 1443T364 1468Q512 1468 604 1410T697 1240Q697 1173 657 1131T550 1069T408 1048H278V1146H370ZM278
1088H408Q489 1088 558 1073T670 1016T712 890Q712 778 612 717T363 656Q290 656 215 680T90 760T39 913H279Q279 890 305 869T381 848Q433 848 453 870T473 918Q473 960 446 977T370 994H278V1088Z" />
<glyph unicode="&#xb4;" horiz-adv-x="706" d="M285 1536H664L380 1216H87L285 1536Z" />
<glyph unicode="&#xb5;" horiz-adv-x="1159" d="M84 568H375L421 -416H37L84 568ZM713 1082H1074V0H737L713 266V1082ZM838 490Q838 343 792 228T658 47T445 -20Q284 -20 184 73T83 381V1082H443V379Q443 345 456 321T497 283T565 270Q636 270 675 298T731 375T747
488L838 490Z" />
<glyph unicode="&#xb6;" horiz-adv-x="1005" d="M653 0V520H573Q414 520 305 580T138 747T81 988Q81 1122 138 1228T304 1395T573 1456H895V0H653Z" />
<glyph unicode="&#xb7;" horiz-adv-x="673" d="M135 677Q135 756 190 809T332 862Q420 862 474 809T529 677Q529 598 475 545T332 491Q245 491 190 544T135 677Z" />
<glyph unicode="&#xb8;" horiz-adv-x="576" d="M388 12L377 -49Q431 -59 478 -97T525 -222Q525 -339 428 -409T143 -480L136 -273Q160 -273 177 -266T203 -244T213 -203Q213 -168 183 -155T83 -137L114 12H388Z" />
<glyph unicode="&#xb9;" horiz-adv-x="771" d="M551 667H315V1177L145 1147V1328L532 1452H551V667Z" />
<glyph unicode="&#xba;" horiz-adv-x="940" d="M115 1119Q115 1275 210 1375T465 1476Q627 1476 721 1376T815 1119V1045Q815 889 722 790T467 690Q305 690 210 789T115 1045V1119ZM300 1045Q300 958 341 901T467 843Q550 843 590 900T631 1045V1119Q631 1205
590 1263T465 1321Q382 1321 341 1263T300 1119V1045Z" />
<glyph unicode="&#xbb;" horiz-adv-x="1067" d="M559 511L817 510V497L547 105H329L559 511ZM547 907L817 516V503L559 502L329 907H547ZM726 511L984 510V497L714 105H496L726 511ZM714 907L984 516V503L726 502L496 907H714Z" />
<glyph unicode="&#xbc;" horiz-adv-x="1575" d="M570 107L404 191L1115 1329L1281 1245L570 107ZM551 546H315V1056L145 1026V1207L532 1331H551V546ZM1512 152H873L857 311L1200 789H1387L1186 484L1079 346H1512V152ZM1438 0H1199V789H1438V0Z" />
<glyph unicode="&#xbd;" horiz-adv-x="1673" d="M560 107L394 191L1105 1329L1271 1245L560 107ZM551 546H315V1056L145 1026V1207L532 1331H551V546ZM1603 0H969V160L1254 407Q1301 446 1325 487T1349 545Q1349 576 1330 593T1273 610Q1232 610 1211 581T1190
517H951Q951 595 989 659T1096 762T1260 801Q1417 801 1501 735T1586 544Q1586 482 1562 435T1487 342T1352 235L1285 190H1603V0Z" />
<glyph unicode="&#xbe;" horiz-adv-x="1655" d="M370 1018Q416 1018 437 1037T459 1091Q459 1108 441 1128T372 1149Q341 1149 317 1140T292 1112H54Q54 1190 98 1240T214 1315T364 1340Q512 1340 604 1282T697 1112Q697 1045 657 1003T550 941T408 920H278V1018H370ZM278
960H408Q489 960 558 945T670 888T712 762Q712 650 612 589T363 528Q290 528 215 552T90 632T39 785H279Q279 762 305 741T381 720Q433 720 453 742T473 790Q473 832 446 849T370 866H278V960ZM650 107L484 191L1195 1329L1361 1245L650 107ZM1592 152H953L937
311L1280 789H1467L1266 484L1159 346H1592V152ZM1518 0H1279V789H1518V0Z" />
<glyph unicode="&#xbf;" horiz-adv-x="1054" d="M720 618Q720 531 709 462T669 339T586 242Q540 202 505 167T451 96T432 15Q432 -46 462 -71T538 -96Q592 -96 629 -63T669 51H1030Q1028 -105 964 -201T790 -341T546 -385Q324 -385 198 -284T71 15Q71 100 106
163T199 281T324 398Q362 432 380 462T406 528T414 618H720ZM774 917Q774 838 720 785T577 731Q489 731 434 784T379 917Q379 997 434 1050T577 1103Q665 1103 719 1050T774 917Z" />
<glyph unicode="&#xc0;" horiz-adv-x="1409" d="M396 0H-7L527 1456H781L737 1105L396 0ZM671 1105L622 1456H879L1416 0H1013L671 1105ZM1009 244H262V547H1009V244ZM911 1525H620L331 1845H711L911 1525Z" />
<glyph unicode="&#xc1;" horiz-adv-x="1409" d="M396 0H-7L527 1456H781L737 1105L396 0ZM671 1105L622 1456H879L1416 0H1013L671 1105ZM1009 244H262V547H1009V244ZM726 1845H1105L821 1525H528L726 1845Z" />
<glyph unicode="&#xc2;" horiz-adv-x="1409" d="M396 0H-7L527 1456H781L737 1105L396 0ZM671 1105L622 1456H879L1416 0H1013L671 1105ZM1009 244H262V547H1009V244ZM1146 1562V1548H864L706 1675L550 1548H274V1566L604 1846H810L1146 1562Z" />
<glyph unicode="&#xc3;" horiz-adv-x="1409" d="M396 0H-7L527 1456H781L737 1105L396 0ZM671 1105L622 1456H879L1416 0H1013L671 1105ZM1009 244H262V547H1009V244ZM1096 1843Q1096 1769 1066 1704T984 1599T861 1559Q815 1559 780 1571T714 1599T652 1627T583
1639Q552 1639 531 1619T510 1555L312 1566Q312 1638 342 1702T424 1808T546 1849Q584 1849 619 1837T687 1810T754 1783T824 1771Q855 1771 877 1790T900 1854L1096 1843Z" />
<glyph unicode="&#xc4;" horiz-adv-x="1409" d="M396 0H-7L527 1456H781L737 1105L396 0ZM671 1105L622 1456H879L1416 0H1013L671 1105ZM1009 244H262V547H1009V244ZM282 1670Q282 1730 329 1771T441 1812Q506 1812 553 1771T600 1670Q600 1609 553 1568T441
1527Q376 1527 329 1568T282 1670ZM808 1670Q808 1730 855 1771T967 1812Q1032 1812 1078 1771T1125 1670Q1125 1609 1079 1568T967 1527Q902 1527 855 1568T808 1670Z" />
<glyph unicode="&#xc5;" horiz-adv-x="1409" d="M396 0H-7L527 1456H781L737 1105L396 0ZM671 1105L622 1456H879L1416 0H1013L671 1105ZM1009 244H262V547H1009V244ZM480 1731Q480 1814 544 1874T709 1935Q809 1935 873 1875T937 1731Q937 1649 873 1590T709
1531Q609 1531 545 1590T480 1731ZM606 1731Q606 1688 633 1659T709 1629Q757 1629 784 1658T811 1731Q811 1773 784 1803T709 1834Q660 1834 633 1804T606 1731Z" />
<glyph unicode="&#xc6;" horiz-adv-x="1934" d="M431 0H14L736 1456H962L1011 1290L431 0ZM1092 319H333V618H1092V319ZM1857 0H1125V295H1857V0ZM1310 0H949L888 1456H1249L1310 0ZM1715 593H1084V888H1715V593ZM1796 1161H1064V1456H1796V1161Z" />
<glyph unicode="&#xc7;" horiz-adv-x="1346" d="M1297 501Q1291 347 1215 230T1005 46T688 -20Q491 -20 351 66T138 314T64 698V757Q64 981 141 1142T356 1390T682 1477Q876 1477 1008 1407T1213 1216T1299 943H925Q923 1057 870 1113T682 1169Q601 1169 549 1131T471
1003T445 759V698Q445 543 467 454T543 326T688 288Q763 288 815 310T894 379T923 501H1297ZM829 14L818 -47Q872 -57 919 -95T966 -220Q966 -337 869 -407T584 -478L577 -271Q601 -271 618 -264T644 -242T654 -201Q654 -166 624 -153T524 -135L555 14H829Z" />
<glyph unicode="&#xc8;" horiz-adv-x="1144" d="M1115 0H346V302H1115V0ZM479 0H103V1456H479V0ZM1016 601H346V892H1016V601ZM1118 1153H346V1456H1118V1153ZM851 1524H560L271 1844H651L851 1524Z" />
<glyph unicode="&#xc9;" horiz-adv-x="1144" d="M1115 0H346V302H1115V0ZM479 0H103V1456H479V0ZM1016 601H346V892H1016V601ZM1118 1153H346V1456H1118V1153ZM666 1844H1045L761 1524H468L666 1844Z" />
<glyph unicode="&#xca;" horiz-adv-x="1144" d="M1115 0H346V302H1115V0ZM479 0H103V1456H479V0ZM1016 601H346V892H1016V601ZM1118 1153H346V1456H1118V1153ZM1086 1561V1547H804L646 1674L490 1547H214V1565L544 1845H750L1086 1561Z" />
<glyph unicode="&#xcb;" horiz-adv-x="1144" d="M1115 0H346V302H1115V0ZM479 0H103V1456H479V0ZM1016 601H346V892H1016V601ZM1118 1153H346V1456H1118V1153ZM222 1669Q222 1729 269 1770T381 1811Q446 1811 493 1770T540 1669Q540 1608 493 1567T381 1526Q316
1526 269 1567T222 1669ZM748 1669Q748 1729 795 1770T907 1811Q972 1811 1018 1770T1065 1669Q1065 1608 1019 1567T907 1526Q842 1526 795 1567T748 1669Z" />
<glyph unicode="&#xcc;" horiz-adv-x="626" d="M500 0H126V1456H500V0ZM516 1524H225L-64 1844H316L516 1524Z" />
<glyph unicode="&#xcd;" horiz-adv-x="626" d="M500 0H126V1456H500V0ZM331 1844H710L426 1524H133L331 1844Z" />
<glyph unicode="&#xce;" horiz-adv-x="626" d="M500 0H126V1456H500V0ZM751 1561V1547H469L311 1674L155 1547H-121V1565L209 1845H415L751 1561Z" />
<glyph unicode="&#xcf;" horiz-adv-x="626" d="M500 0H126V1456H500V0ZM-113 1669Q-113 1729 -66 1770T46 1811Q111 1811 158 1770T205 1669Q205 1608 158 1567T46 1526Q-19 1526 -66 1567T-113 1669ZM413 1669Q413 1729 460 1770T572 1811Q637 1811 683 1770T730
1669Q730 1608 684 1567T572 1526Q507 1526 460 1567T413 1669Z" />
<glyph unicode="&#xd0;" horiz-adv-x="1323" d="M262 0L264 302H583Q678 302 743 346T842 479T876 703V754Q876 888 843 976T743 1109T577 1153H256V1456H577Q777 1456 930 1366T1171 1118T1258 752V703Q1258 497 1171 338T932 90T583 0H262ZM479 0H103V1456H479V0ZM705
626H-38V832H705V626Z" />
<glyph unicode="&#xd1;" horiz-adv-x="1437" d="M1333 0H959L478 842V0H103V1456H478L959 614V1456H1333V0ZM1116 1843Q1116 1769 1086 1704T1004 1599T881 1559Q835 1559 800 1571T734 1599T672 1627T603 1639Q572 1639 551 1619T530 1555L332 1566Q332 1638
362 1702T444 1808T566 1849Q604 1849 639 1837T707 1810T774 1783T844 1771Q875 1771 897 1790T920 1854L1116 1843Z" />
<glyph unicode="&#xd2;" horiz-adv-x="1418" d="M1352 706Q1352 480 1270 318T1042 68T710 -20Q521 -20 375 67T147 317T64 706V749Q64 975 146 1137T373 1388T708 1476Q895 1476 1040 1388T1269 1138T1352 749V706ZM971 751Q971 889 941 982T851 1122T708 1169Q620
1169 562 1122T475 982T446 751V706Q446 571 475 477T563 335T710 286Q794 286 852 334T941 477T971 706V751ZM911 1524H620L331 1844H711L911 1524Z" />
<glyph unicode="&#xd3;" horiz-adv-x="1418" d="M1352 706Q1352 480 1270 318T1042 68T710 -20Q521 -20 375 67T147 317T64 706V749Q64 975 146 1137T373 1388T708 1476Q895 1476 1040 1388T1269 1138T1352 749V706ZM971 751Q971 889 941 982T851 1122T708 1169Q620
1169 562 1122T475 982T446 751V706Q446 571 475 477T563 335T710 286Q794 286 852 334T941 477T971 706V751ZM726 1844H1105L821 1524H528L726 1844Z" />
<glyph unicode="&#xd4;" horiz-adv-x="1418" d="M1352 706Q1352 480 1270 318T1042 68T710 -20Q521 -20 375 67T147 317T64 706V749Q64 975 146 1137T373 1388T708 1476Q895 1476 1040 1388T1269 1138T1352 749V706ZM971 751Q971 889 941 982T851 1122T708 1169Q620
1169 562 1122T475 982T446 751V706Q446 571 475 477T563 335T710 286Q794 286 852 334T941 477T971 706V751ZM1146 1561V1547H864L706 1674L550 1547H274V1565L604 1845H810L1146 1561Z" />
<glyph unicode="&#xd5;" horiz-adv-x="1418" d="M1352 706Q1352 480 1270 318T1042 68T710 -20Q521 -20 375 67T147 317T64 706V749Q64 975 146 1137T373 1388T708 1476Q895 1476 1040 1388T1269 1138T1352 749V706ZM971 751Q971 889 941 982T851 1122T708 1169Q620
1169 562 1122T475 982T446 751V706Q446 571 475 477T563 335T710 286Q794 286 852 334T941 477T971 706V751ZM1097 1841Q1097 1767 1067 1702T985 1597T862 1557Q816 1557 781 1569T715 1597T653 1625T584 1637Q553 1637 532 1617T511 1553L313 1564Q313 1636
343 1700T425 1806T547 1847Q585 1847 620 1835T688 1808T755 1781T825 1769Q856 1769 878 1788T901 1852L1097 1841Z" />
<glyph unicode="&#xd6;" horiz-adv-x="1418" d="M1352 706Q1352 480 1270 318T1042 68T710 -20Q521 -20 375 67T147 317T64 706V749Q64 975 146 1137T373 1388T708 1476Q895 1476 1040 1388T1269 1138T1352 749V706ZM971 751Q971 889 941 982T851 1122T708 1169Q620
1169 562 1122T475 982T446 751V706Q446 571 475 477T563 335T710 286Q794 286 852 334T941 477T971 706V751ZM282 1669Q282 1729 329 1770T441 1811Q506 1811 553 1770T600 1669Q600 1608 553 1567T441 1526Q376 1526 329 1567T282 1669ZM808 1669Q808 1729 855
1770T967 1811Q1032 1811 1078 1770T1125 1669Q1125 1608 1079 1567T967 1526Q902 1526 855 1567T808 1669Z" />
<glyph unicode="&#xd7;" horiz-adv-x="1086" d="M49 411L828 1205L1034 1003L255 209L49 411ZM47 1003L253 1205L1032 411L826 209L47 1003Z" />
<glyph unicode="&#xd8;" horiz-adv-x="1413" d="M355 -97H136L1056 1520H1275L355 -97ZM1364 706Q1364 480 1282 318T1054 68T722 -20Q533 -20 387 67T159 317T76 706V749Q76 975 158 1137T385 1388T720 1476Q907 1476 1052 1388T1281 1138T1364 749V706ZM983
751Q983 889 953 982T863 1122T720 1169Q632 1169 574 1122T487 982T458 751V706Q458 571 487 477T575 335T722 286Q806 286 864 334T953 477T983 706V751Z" />
<glyph unicode="&#xd9;" horiz-adv-x="1361" d="M1258 1456V513Q1258 341 1187 222T986 42T681 -20Q508 -20 377 41T172 222T99 513V1456H476V513Q476 430 499 379T568 305T681 282Q749 282 793 305T860 379T883 513V1456H1258ZM877 1525H586L297 1845H677L877 1525Z" />
<glyph unicode="&#xda;" horiz-adv-x="1361" d="M1258 1456V513Q1258 341 1187 222T986 42T681 -20Q508 -20 377 41T172 222T99 513V1456H476V513Q476 430 499 379T568 305T681 282Q749 282 793 305T860 379T883 513V1456H1258ZM692 1845H1071L787 1525H494L692 1845Z" />
<glyph unicode="&#xdb;" horiz-adv-x="1361" d="M1258 1456V513Q1258 341 1187 222T986 42T681 -20Q508 -20 377 41T172 222T99 513V1456H476V513Q476 430 499 379T568 305T681 282Q749 282 793 305T860 379T883 513V1456H1258ZM1112 1562V1548H830L672 1675L516
1548H240V1566L570 1846H776L1112 1562Z" />
<glyph unicode="&#xdc;" horiz-adv-x="1361" d="M1258 1456V513Q1258 341 1187 222T986 42T681 -20Q508 -20 377 41T172 222T99 513V1456H476V513Q476 430 499 379T568 305T681 282Q749 282 793 305T860 379T883 513V1456H1258ZM248 1670Q248 1730 295 1771T407
1812Q472 1812 519 1771T566 1670Q566 1609 519 1568T407 1527Q342 1527 295 1568T248 1670ZM774 1670Q774 1730 821 1771T933 1812Q998 1812 1044 1771T1091 1670Q1091 1609 1045 1568T933 1527Q868 1527 821 1568T774 1670Z" />
<glyph unicode="&#xdd;" horiz-adv-x="1292" d="M646 854L895 1456H1299L837 518V0H456V518L-7 1456H397L646 854ZM666 1846H1045L761 1526H468L666 1846Z" />
<glyph unicode="&#xde;" horiz-adv-x="1271" d="M472 1456V0H110V1456H472ZM656 1207Q841 1207 968 1147T1160 982T1226 738Q1226 601 1161 495T968 329T656 269H431V559H656Q731 559 777 583T843 648T864 736Q864 784 844 825T777 892T656 917H473L218 1207H656Z" />
<glyph unicode="&#xdf;" horiz-adv-x="1343" d="M493 0H133V1094Q133 1327 274 1445T662 1564Q784 1564 887 1519T1052 1387T1115 1171Q1115 1101 1101 1063T1069 997T1036 936T1022 838Q1022 807 1049 775T1116 704T1195 619T1262 514T1289 381Q1289 259 1236
169T1075 29T803 -20Q754 -20 704 -15T610 0T538 25L600 307Q630 294 681 283T806 271Q841 271 869 282T913 318T930 378Q930 422 903 456T836 523T756 595T688 687T661 815Q661 886 675 927T707 998T739 1063T753 1156Q753 1189 736 1216T690 1258T620 1274Q563
1274 528 1237T493 1087V0Z" />
<glyph unicode="&#xe0;" horiz-adv-x="1088" d="M641 711Q641 771 616 806T528 842Q495 842 473 832T439 800T427 741H67Q67 847 126 928T293 1055T547 1102Q677 1102 780 1059T943 928T1003 709V282Q1003 165 1015 112T1050 18V0H690Q665 53 653 130T641 291V711ZM686
469H547Q462 469 432 423T402 326Q402 289 429 267T498 244Q549 244 584 262T638 306T653 350L730 199Q710 160 686 122T625 51T537 0T411 -20Q312 -20 228 21T92 136T41 308Q41 475 164 570T550 665H684L686 469ZM736 1216H445L156 1536H536L736 1216Z" />
<glyph unicode="&#xe1;" horiz-adv-x="1088" d="M641 711Q641 771 616 806T528 842Q495 842 473 832T439 800T427 741H67Q67 847 126 928T293 1055T547 1102Q677 1102 780 1059T943 928T1003 709V282Q1003 165 1015 112T1050 18V0H690Q665 53 653 130T641 291V711ZM686
469H547Q462 469 432 423T402 326Q402 289 429 267T498 244Q549 244 584 262T638 306T653 350L730 199Q710 160 686 122T625 51T537 0T411 -20Q312 -20 228 21T92 136T41 308Q41 475 164 570T550 665H684L686 469ZM551 1536H930L646 1216H353L551 1536Z" />
<glyph unicode="&#xe2;" horiz-adv-x="1088" d="M641 711Q641 771 616 806T528 842Q495 842 473 832T439 800T427 741H67Q67 847 126 928T293 1055T547 1102Q677 1102 780 1059T943 928T1003 709V282Q1003 165 1015 112T1050 18V0H690Q665 53 653 130T641 291V711ZM686
469H547Q462 469 432 423T402 326Q402 289 429 267T498 244Q549 244 584 262T638 306T653 350L730 199Q710 160 686 122T625 51T537 0T411 -20Q312 -20 228 21T92 136T41 308Q41 475 164 570T550 665H684L686 469ZM971 1253V1239H689L531 1366L375 1239H99V1257L429
1537H635L971 1253Z" />
<glyph unicode="&#xe3;" horiz-adv-x="1088" d="M641 711Q641 771 616 806T528 842Q495 842 473 832T439 800T427 741H67Q67 847 126 928T293 1055T547 1102Q677 1102 780 1059T943 928T1003 709V282Q1003 165 1015 112T1050 18V0H690Q665 53 653 130T641 291V711ZM686
469H547Q462 469 432 423T402 326Q402 289 429 267T498 244Q549 244 584 262T638 306T653 350L730 199Q710 160 686 122T625 51T537 0T411 -20Q312 -20 228 21T92 136T41 308Q41 475 164 570T550 665H684L686 469ZM921 1533Q921 1459 891 1394T809 1289T686 1249Q640
1249 605 1261T539 1289T477 1317T408 1329Q377 1329 356 1309T335 1245L137 1256Q137 1328 167 1392T249 1498T371 1539Q409 1539 444 1527T512 1500T579 1473T649 1461Q680 1461 702 1480T725 1544L921 1533Z" />
<glyph unicode="&#xe4;" horiz-adv-x="1088" d="M641 711Q641 771 616 806T528 842Q495 842 473 832T439 800T427 741H67Q67 847 126 928T293 1055T547 1102Q677 1102 780 1059T943 928T1003 709V282Q1003 165 1015 112T1050 18V0H690Q665 53 653 130T641 291V711ZM686
469H547Q462 469 432 423T402 326Q402 289 429 267T498 244Q549 244 584 262T638 306T653 350L730 199Q710 160 686 122T625 51T537 0T411 -20Q312 -20 228 21T92 136T41 308Q41 475 164 570T550 665H684L686 469ZM107 1361Q107 1421 154 1462T266 1503Q331 1503
378 1462T425 1361Q425 1300 378 1259T266 1218Q201 1218 154 1259T107 1361ZM633 1361Q633 1421 680 1462T792 1503Q857 1503 903 1462T950 1361Q950 1300 904 1259T792 1218Q727 1218 680 1259T633 1361Z" />
<glyph unicode="&#xe5;" horiz-adv-x="1088" d="M641 711Q641 771 616 806T528 842Q495 842 473 832T439 800T427 741H67Q67 847 126 928T293 1055T547 1102Q677 1102 780 1059T943 928T1003 709V282Q1003 165 1015 112T1050 18V0H690Q665 53 653 130T641 291V711ZM686
469H547Q462 469 432 423T402 326Q402 289 429 267T498 244Q549 244 584 262T638 306T653 350L730 199Q710 160 686 122T625 51T537 0T411 -20Q312 -20 228 21T92 136T41 308Q41 475 164 570T550 665H684L686 469ZM305 1421Q305 1504 369 1564T534 1625Q634 1625
698 1565T762 1421Q762 1339 698 1280T534 1221Q434 1221 370 1280T305 1421ZM431 1421Q431 1378 458 1349T534 1319Q582 1319 609 1348T636 1421Q636 1463 609 1493T534 1524Q485 1524 458 1494T431 1421Z" />
<glyph unicode="&#xe6;" horiz-adv-x="1730" d="M710 697Q710 750 679 781T590 812Q526 812 492 790T458 735L98 755Q98 856 159 934T331 1057T595 1102Q807 1102 933 1000T1059 695V218L710 183V697ZM758 436H588Q533 436 496 420T439 379T419 326Q419 283 452
260T557 236Q591 236 627 247T694 277T743 316T761 358L922 191Q897 143 841 95T698 13T488 -20Q280 -20 170 75T59 330Q59 488 193 574T586 660H755L758 436ZM1236 -20Q1066 -20 948 44T769 220T708 478V564Q708 722 764 844T935 1034T1226 1102Q1439 1102 1563
969T1688 608V416H844V648H1336V673Q1336 720 1323 750T1286 796T1226 812Q1157 812 1121 781T1072 693T1058 564V478Q1058 418 1080 371T1153 298T1286 271Q1382 271 1443 286T1567 327L1652 100Q1610 67 1545 40T1400 -4T1236 -20Z" />
<glyph unicode="&#xe7;" horiz-adv-x="1067" d="M553 270Q597 270 627 285T671 328T685 397H1022Q1024 270 964 177T799 32T561 -20Q390 -20 277 52T106 248T49 531V550Q49 708 105 833T275 1030T559 1102Q697 1102 801 1051T965 900T1022 658H685Q686 700 673
735T629 791T550 812Q487 812 457 777T418 682T409 550V531Q409 457 417 398T457 305T553 270ZM709 14L698 -47Q752 -57 799 -95T846 -220Q846 -337 749 -407T464 -478L457 -271Q481 -271 498 -264T524 -242T534 -201Q534 -166 504 -153T404 -135L435 14H709Z"
/>
<glyph unicode="&#xe8;" horiz-adv-x="1122" d="M624 -20Q444 -20 318 53T125 245T59 504V541Q59 696 117 823T292 1026T586 1102Q743 1102 854 1038T1024 854T1084 568V417H194V648H732V677Q733 724 716 754T666 798T583 812Q513 812 478 773T431 673T419 541V504Q419
432 446 380T524 299T648 271Q714 271 780 294T893 375L1055 168Q1005 98 894 39T624 -20ZM735 1217H444L155 1537H535L735 1217Z" />
<glyph unicode="&#xe9;" horiz-adv-x="1122" d="M624 -20Q444 -20 318 53T125 245T59 504V541Q59 696 117 823T292 1026T586 1102Q743 1102 854 1038T1024 854T1084 568V417H194V648H732V677Q733 724 716 754T666 798T583 812Q513 812 478 773T431 673T419 541V504Q419
432 446 380T524 299T648 271Q714 271 780 294T893 375L1055 168Q1005 98 894 39T624 -20ZM550 1537H929L645 1217H352L550 1537Z" />
<glyph unicode="&#xea;" horiz-adv-x="1122" d="M624 -20Q444 -20 318 53T125 245T59 504V541Q59 696 117 823T292 1026T586 1102Q743 1102 854 1038T1024 854T1084 568V417H194V648H732V677Q733 724 716 754T666 798T583 812Q513 812 478 773T431 673T419 541V504Q419
432 446 380T524 299T648 271Q714 271 780 294T893 375L1055 168Q1005 98 894 39T624 -20ZM970 1254V1240H688L530 1367L374 1240H98V1258L428 1538H634L970 1254Z" />
<glyph unicode="&#xeb;" horiz-adv-x="1122" d="M624 -20Q444 -20 318 53T125 245T59 504V541Q59 696 117 823T292 1026T586 1102Q743 1102 854 1038T1024 854T1084 568V417H194V648H732V677Q733 724 716 754T666 798T583 812Q513 812 478 773T431 673T419 541V504Q419
432 446 380T524 299T648 271Q714 271 780 294T893 375L1055 168Q1005 98 894 39T624 -20ZM106 1362Q106 1422 153 1463T265 1504Q330 1504 377 1463T424 1362Q424 1301 377 1260T265 1219Q200 1219 153 1260T106 1362ZM632 1362Q632 1422 679 1463T791 1504Q856
1504 902 1463T949 1362Q949 1301 903 1260T791 1219Q726 1219 679 1260T632 1362Z" />
<glyph unicode="&#xec;" horiz-adv-x="599" d="M481 0H119V1082H481V0ZM505 1192H214L-75 1512H305L505 1192Z" />
<glyph unicode="&#xed;" horiz-adv-x="599" d="M481 0H119V1082H481V0ZM320 1512H699L415 1192H122L320 1512Z" />
<glyph unicode="&#xee;" horiz-adv-x="599" d="M481 0H119V1082H481V0ZM740 1229V1215H458L300 1342L144 1215H-132V1233L198 1513H404L740 1229Z" />
<glyph unicode="&#xef;" horiz-adv-x="599" d="M481 0H119V1082H481V0ZM-125 1337Q-125 1397 -78 1438T34 1479Q99 1479 146 1438T193 1337Q193 1276 146 1235T34 1194Q-31 1194 -78 1235T-125 1337ZM401 1337Q401 1397 448 1438T560 1479Q625 1479 671 1438T718
1337Q718 1276 672 1235T560 1194Q495 1194 448 1235T401 1337Z" />
<glyph unicode="&#xf0;" horiz-adv-x="1164" d="M333 1579Q565 1536 745 1412T1028 1097T1131 662V606Q1131 420 1059 279T861 59T577 -20Q420 -20 303 45T121 221T56 468Q56 615 107 725T259 897T511 959Q624 959 714 911T862 777T931 572L805 575Q805 595 792
615T753 653T686 681T591 692Q531 692 493 666T435 589T416 468Q416 408 436 364T493 295T581 270Q646 270 687 307T749 410T769 557V664Q769 808 723 917T597 1105T420 1233T218 1309L333 1579ZM404 1019L322 1144L909 1505L989 1379L404 1019Z" />
<glyph unicode="&#xf1;" horiz-adv-x="1159" d="M442 0H82V1082H419L442 851V0ZM317 567Q316 739 368 858T514 1040T734 1102Q834 1102 910 1062T1029 929T1073 675V0H711V676Q711 734 695 763T647 802T569 812Q521 812 489 796T437 748T409 672T400 574L317 567ZM968
1534Q968 1460 938 1395T856 1290T733 1250Q687 1250 652 1262T586 1290T524 1318T455 1330Q424 1330 403 1310T382 1246L184 1257Q184 1329 214 1393T296 1499T418 1540Q456 1540 491 1528T559 1501T626 1474T696 1462Q727 1462 749 1481T772 1545L968 1534Z"
/>
<glyph unicode="&#xf2;" horiz-adv-x="1152" d="M49 550Q49 709 109 833T286 1030T574 1102Q747 1102 864 1030T1041 834T1101 550V531Q1101 373 1042 248T865 52T576 -20Q404 -20 287 51T109 248T49 531V550ZM410 531Q410 457 423 398T473 304T576 270Q642 270
678 304T727 397T741 531V550Q741 622 728 681T678 776T574 812Q508 812 473 777T424 682T410 550V531ZM782 1216H491L202 1536H582L782 1216Z" />
<glyph unicode="&#xf3;" horiz-adv-x="1152" d="M49 550Q49 709 109 833T286 1030T574 1102Q747 1102 864 1030T1041 834T1101 550V531Q1101 373 1042 248T865 52T576 -20Q404 -20 287 51T109 248T49 531V550ZM410 531Q410 457 423 398T473 304T576 270Q642 270
678 304T727 397T741 531V550Q741 622 728 681T678 776T574 812Q508 812 473 777T424 682T410 550V531ZM596 1536H975L691 1216H398L596 1536Z" />
<glyph unicode="&#xf4;" horiz-adv-x="1152" d="M49 550Q49 709 109 833T286 1030T574 1102Q747 1102 864 1030T1041 834T1101 550V531Q1101 373 1042 248T865 52T576 -20Q404 -20 287 51T109 248T49 531V550ZM410 531Q410 457 423 398T473 304T576 270Q642 270
678 304T727 397T741 531V550Q741 622 728 681T678 776T574 812Q508 812 473 777T424 682T410 550V531ZM1016 1253V1239H734L576 1366L420 1239H144V1257L474 1537H680L1016 1253Z" />
<glyph unicode="&#xf5;" horiz-adv-x="1152" d="M49 550Q49 709 109 833T286 1030T574 1102Q747 1102 864 1030T1041 834T1101 550V531Q1101 373 1042 248T865 52T576 -20Q404 -20 287 51T109 248T49 531V550ZM410 531Q410 457 423 398T473 304T576 270Q642 270
678 304T727 397T741 531V550Q741 622 728 681T678 776T574 812Q508 812 473 777T424 682T410 550V531ZM967 1534Q967 1460 937 1395T855 1290T732 1250Q686 1250 651 1262T585 1290T523 1318T454 1330Q423 1330 402 1310T381 1246L183 1257Q183 1329 213 1393T295
1499T417 1540Q455 1540 490 1528T558 1501T625 1474T695 1462Q726 1462 748 1481T771 1545L967 1534Z" />
<glyph unicode="&#xf6;" horiz-adv-x="1152" d="M49 550Q49 709 109 833T286 1030T574 1102Q747 1102 864 1030T1041 834T1101 550V531Q1101 373 1042 248T865 52T576 -20Q404 -20 287 51T109 248T49 531V550ZM410 531Q410 457 423 398T473 304T576 270Q642 270
678 304T727 397T741 531V550Q741 622 728 681T678 776T574 812Q508 812 473 777T424 682T410 550V531ZM152 1361Q152 1421 199 1462T311 1503Q376 1503 423 1462T470 1361Q470 1300 423 1259T311 1218Q246 1218 199 1259T152 1361ZM678 1361Q678 1421 725 1462T837
1503Q902 1503 948 1462T995 1361Q995 1300 949 1259T837 1218Q772 1218 725 1259T678 1361Z" />
<glyph unicode="&#xf7;" horiz-adv-x="1167" d="M1107 549H59V815H1107V549ZM383 1084Q383 1164 438 1214T580 1264Q668 1264 722 1214T777 1084Q777 1005 723 955T580 905Q493 905 438 955T383 1084ZM383 275Q383 354 438 404T580 454Q668 454 722 404T777 275Q777
196 723 146T580 95Q493 95 438 145T383 275Z" />
<glyph unicode="&#xf8;" horiz-adv-x="1154" d="M339 -147H152L815 1221H1002L339 -147ZM49 550Q49 709 109 833T286 1030T574 1102Q747 1102 864 1030T1041 834T1101 550V531Q1101 373 1042 248T865 52T576 -20Q404 -20 287 51T109 248T49 531V550ZM410 531Q410
457 423 398T473 304T576 270Q642 270 678 304T727 397T741 531V550Q741 622 728 681T678 776T574 812Q508 812 473 777T424 682T410 550V531Z" />
<glyph unicode="&#xf9;" horiz-adv-x="1159" d="M713 1082H1074V0H737L713 266V1082ZM838 490Q838 343 792 228T658 47T445 -20Q284 -20 184 73T83 381V1082H443V379Q443 345 456 321T497 283T565 270Q636 270 675 298T731 375T747 488L838 490ZM781 1216H490L201
1536H581L781 1216Z" />
<glyph unicode="&#xfa;" horiz-adv-x="1159" d="M713 1082H1074V0H737L713 266V1082ZM838 490Q838 343 792 228T658 47T445 -20Q284 -20 184 73T83 381V1082H443V379Q443 345 456 321T497 283T565 270Q636 270 675 298T731 375T747 488L838 490ZM596 1536H975L691
1216H398L596 1536Z" />
<glyph unicode="&#xfb;" horiz-adv-x="1159" d="M713 1082H1074V0H737L713 266V1082ZM838 490Q838 343 792 228T658 47T445 -20Q284 -20 184 73T83 381V1082H443V379Q443 345 456 321T497 283T565 270Q636 270 675 298T731 375T747 488L838 490ZM1016 1253V1239H734L576
1366L420 1239H144V1257L474 1537H680L1016 1253Z" />
<glyph unicode="&#xfc;" horiz-adv-x="1159" d="M713 1082H1074V0H737L713 266V1082ZM838 490Q838 343 792 228T658 47T445 -20Q284 -20 184 73T83 381V1082H443V379Q443 345 456 321T497 283T565 270Q636 270 675 298T731 375T747 488L838 490ZM152 1361Q152
1421 199 1462T311 1503Q376 1503 423 1462T470 1361Q470 1300 423 1259T311 1218Q246 1218 199 1259T152 1361ZM678 1361Q678 1421 725 1462T837 1503Q902 1503 948 1462T995 1361Q995 1300 949 1259T837 1218Q772 1218 725 1259T678 1361Z" />
<glyph unicode="&#xfd;" horiz-adv-x="1069" d="M694 1082H1080L649 -159Q635 -200 611 -248T547 -339T443 -409T285 -437Q251 -437 231 -436T192 -429T141 -416V-148Q153 -148 161 -148T182 -147Q262 -147 294 -128T340 -74L420 131L694 1082ZM575 355L612 -47L372
-34L-9 1082H377L575 355ZM549 1536H928L644 1216H351L549 1536Z" />
<glyph unicode="&#xfe;" horiz-adv-x="1150" d="M451 -416H89V1536H451V-416ZM1105 534Q1105 377 1057 252T916 53T684 -20Q553 -20 472 59T347 267T280 544V532Q302 692 346 821T471 1026T682 1102Q820 1102 914 1034T1056 842T1105 555V534ZM744 555Q744 632
730 689T683 779T592 812Q542 812 508 798T454 753T427 673T422 555V521Q418 445 432 389T485 301T594 270Q653 270 685 305T731 401T744 534V555Z" />
<glyph unicode="&#xff;" horiz-adv-x="1069" d="M694 1082H1080L649 -159Q635 -200 611 -248T547 -339T443 -409T285 -437Q251 -437 231 -436T192 -429T141 -416V-148Q153 -148 161 -148T182 -147Q262 -147 294 -128T340 -74L420 131L694 1082ZM575 355L612 -47L372
-34L-9 1082H377L575 355ZM105 1361Q105 1421 152 1462T264 1503Q329 1503 376 1462T423 1361Q423 1300 376 1259T264 1218Q199 1218 152 1259T105 1361ZM631 1361Q631 1421 678 1462T790 1503Q855 1503 901 1462T948 1361Q948 1300 902 1259T790 1218Q725 1218
678 1259T631 1361Z" />
<glyph unicode="&#x2013;" horiz-adv-x="1261" d="M1460 557H402V853H1460V557Z" />
<glyph unicode="&#x2014;" horiz-adv-x="1539" d="M1752 557H341V853H1752V557Z" />
<glyph unicode="&#x2018;" horiz-adv-x="527" d="M109 1201Q109 1270 136 1341T207 1476T298 1581L455 1496Q425 1441 398 1371T371 1200V1029H109V1201Z" />
<glyph unicode="&#x2019;" horiz-adv-x="512" d="M411 1362Q411 1294 384 1223T313 1088T223 983L66 1067Q96 1123 123 1193T150 1364V1536H411V1362Z" />
<glyph unicode="&#x201a;" horiz-adv-x="577" d="M432 57Q432 -11 405 -83T334 -217T243 -322L87 -238Q117 -182 138 -113T159 59V261H434L432 57Z" />
<glyph unicode="&#x201c;" horiz-adv-x="905" d="M117 1201Q117 1270 144 1341T215 1476T306 1581L463 1496Q433 1441 406 1371T379 1200V1029H117V1201ZM481 1201Q481 1270 508 1341T579 1476T670 1581L827 1496Q797 1441 770 1371T743 1200V1029H481V1201Z" />
<glyph unicode="&#x201d;" horiz-adv-x="911" d="M426 1362Q426 1294 399 1223T328 1088T238 983L81 1067Q111 1123 138 1193T165 1364V1536H426V1362ZM802 1362Q802 1294 775 1223T704 1088T614 983L457 1067Q487 1123 514 1193T541 1364V1536H802V1362Z" />
<glyph unicode="&#x201e;" horiz-adv-x="908" d="M432 57Q432 -15 408 -91T343 -233T256 -344L87 -260Q117 -200 138 -125T159 59V275H434L432 57ZM809 57Q809 -15 782 -91T711 -233T620 -344L451 -260Q481 -200 508 -125T536 59V275H810L809 57Z" />
<glyph unicode="&#x2022;" horiz-adv-x="768" d="M133 763Q133 875 203 945T392 1016Q515 1016 585 946T655 763V726Q655 616 586 547T395 477Q275 477 204 546T133 726V763Z" />
<glyph unicode="&#x2039;" horiz-adv-x="655" d="M366 502L108 503V516L379 908H596L366 502ZM596 106H379L108 497V510L366 511L596 106Z" />
<glyph unicode="&#x203a;" horiz-adv-x="622" d="M304 511L562 510V497L292 105H74L304 511ZM292 907L562 516V503L304 502L74 907H292Z" />
</font>
</defs>
</svg>
