<?xml version="1.0" standalone="no"?>
<!DOCTYPE svg PUBLIC "-//W3C//DTD SVG 1.1//EN" "http://www.w3.org/Graphics/SVG/1.1/DTD/svg11.dtd">
<svg xmlns="http://www.w3.org/2000/svg">
<defs >
<font id="Assistant" horiz-adv-x="458" ><font-face
    font-family="Assistant ExtraLight SemiBold"
    units-per-em="1000"
    panose-1="0 0 0 0 0 0 0 0 0 0"
    ascent="1021"
    descent="-287"
    alphabetic="0" />
<glyph unicode=" " horiz-adv-x="200" />
<glyph unicode="!" horiz-adv-x="304" d="M118 208L104 565L101 670H203L200 565L186 208H118ZM152 -12Q124 -12 104 8T84 59Q84 91 104 111T152 131Q181 131 200 111T220 59Q220 29 201 9T152 -12Z" />
<glyph unicode="&quot;" d="M102 409L82 585L79 689H184L181 585L161 409H102ZM296 409L276 585L273 689H378L375 585L355 409H296Z" />
<glyph unicode="#" horiz-adv-x="506" d="M89 0L113 199H35V267H121L138 404H55V472H146L169 650H231L209 472H333L356 650H418L396 472H476V404H388L371 267H456V199H363L339 0H276L300 199H176L152 0H89ZM184 267H308L325 404H201L184 267Z" />
<glyph unicode="$" horiz-adv-x="506" d="M245 -12Q211 -12 175 -2T106 25T48 66L94 135Q128 108 165 90T245 71Q297 71 322 96T348 164Q348 201 329 225T278 267T211 302T145 341T93 395T73 474Q73 527 96 566T162 627T260 649Q321 649 362 627T435 570L382 511Q355
538 329 552T264 566Q221 566 196 543T171 479Q171 447 191 425T242 387T309 354T375 315T426 258T446 171Q446 117 422 76T353 11T245 -12ZM220 -110V26H291V-110H220ZM220 614V747H291V614H220Z" />
<glyph unicode="%" horiz-adv-x="829" d="M202 -12L561 667H625L266 -12H202ZM185 263Q140 263 106 287T52 358T32 471Q32 570 74 623T185 677Q254 677 296 624T338 471Q338 405 319 359T266 288T185 263ZM185 323Q220 323 242 359T264 471Q264 547 242 582T185
617Q151 617 129 582T106 471Q106 396 128 360T185 323ZM644 -12Q599 -12 565 12T511 83T491 196Q491 295 533 348T644 402Q713 402 755 349T797 196Q797 130 778 84T725 13T644 -12ZM644 48Q679 48 701 84T723 196Q723 272 701 307T644 342Q610 342 588 307T565
196Q565 121 587 85T644 48Z" />
<glyph unicode="&amp;" horiz-adv-x="626" d="M235 -12Q173 -12 127 12T55 77T30 171Q30 221 52 258T108 323T180 374T253 421T309 470T331 531Q331 558 318 577T274 597Q241 597 221 573T200 508Q200 464 223 415T284 317T369 223T464 145Q504 117 541 98T610
71L584 -12Q543 -1 497 21T404 79Q348 120 296 172T203 283T138 398T114 507Q114 552 134 588T189 645T273 667Q338 667 374 630T411 532Q411 490 391 457T338 395T270 342T201 293T148 240T127 177Q127 144 143 120T186 81T247 67Q287 67 324 88T393 141Q433 183
463 238T510 358H603Q582 285 548 218T463 94Q421 47 365 18T235 -12Z" />
<glyph unicode="&apos;" horiz-adv-x="264" d="M102 409L82 585L79 689H184L181 585L161 409H102Z" />
<glyph unicode="(" horiz-adv-x="315" d="M211 -177Q149 -75 114 35T79 278Q79 410 114 521T211 733L274 705Q217 610 190 500T162 278Q162 167 189 58T274 -149L211 -177Z" />
<glyph unicode=")" horiz-adv-x="315" d="M104 -177L41 -149Q98 -52 125 57T153 278Q153 390 126 500T41 705L104 733Q167 632 201 521T236 278Q236 146 202 36T104 -177Z" />
<glyph unicode="*" horiz-adv-x="429" d="M141 400L95 433L152 530L52 573L70 626L176 601L186 712H243L253 602L360 626L377 573L277 530L334 433L288 400L215 486L141 400Z" />
<glyph unicode="+" horiz-adv-x="506" d="M214 101V293H34V367H214V559H292V367H472V293H292V101H214Z" />
<glyph unicode="," horiz-adv-x="264" d="M70 -177L47 -120Q94 -101 119 -69T144 4L137 85L179 19Q170 9 159 5T134 1Q107 1 87 18T66 66Q66 96 87 113T136 131Q174 131 194 103T215 22Q215 -47 177 -99T70 -177Z" />
<glyph unicode="-" horiz-adv-x="317" d="M42 214V289H276V214H42Z" />
<glyph unicode="." horiz-adv-x="264" d="M132 -12Q104 -12 84 8T64 59Q64 91 84 111T132 131Q161 131 180 111T200 59Q200 29 181 9T132 -12Z" />
<glyph unicode="/" horiz-adv-x="347" d="M11 -160L259 710H329L81 -160H11Z" />
<glyph unicode="0" horiz-adv-x="506" d="M253 -12Q156 -12 99 74T42 321Q42 482 99 565T253 649Q351 649 407 566T464 321Q464 160 408 74T253 -12ZM253 68Q287 68 312 93T352 174T367 321Q367 413 353 467T313 545T253 569Q220 569 194 546T154 468T139 321Q139
230 153 174T194 93T253 68Z" />
<glyph unicode="1" horiz-adv-x="463" d="M45 0V83H189V523H72V587Q118 596 152 608T214 637H290V83H418V0H45Z" />
<glyph unicode="2" horiz-adv-x="506" d="M39 0V59Q131 149 196 219T297 345T332 452Q332 505 304 536T220 568Q182 568 150 547T91 495L34 551Q77 597 123 623T233 649Q293 649 337 626T406 559T430 457Q430 399 398 340T310 216T186 80Q212 83 240 84T293 86H461V0H39Z" />
<glyph unicode="3" horiz-adv-x="506" d="M238 -12Q187 -12 147 0T77 33T25 78L74 143Q103 114 141 93T230 71Q285 71 319 99T354 176Q354 211 337 237T277 277T160 292V367Q225 367 262 381T316 420T332 476Q332 519 305 543T231 568Q193 568 161 551T100 506L47
569Q87 605 133 627T235 649Q294 649 338 630T408 574T434 484Q434 429 404 392T321 335V331Q359 322 389 301T438 247T456 171Q456 114 427 73T348 10T238 -12Z" />
<glyph unicode="4" horiz-adv-x="506" d="M301 0V410Q301 437 303 474T306 538H302Q290 515 277 492T250 443L120 248H479V169H18V237L279 637H396V0H301Z" />
<glyph unicode="5" horiz-adv-x="506" d="M238 -12Q187 -12 147 0T77 33T24 76L72 141Q101 114 138 93T226 71Q263 71 292 87T339 132T356 203Q356 264 322 297T231 331Q200 331 178 322T126 294L76 326L96 637H427V551H184L169 382Q191 393 212 399T259 405Q314
405 359 384T431 319T458 206Q458 137 427 88T346 14T238 -12Z" />
<glyph unicode="6" horiz-adv-x="506" d="M272 -12Q225 -12 184 7T113 64T64 160T46 297Q46 391 66 458T121 567T200 629T293 649Q348 649 388 629T456 579L401 517Q383 539 356 552T298 566Q255 566 219 541T162 457T140 297Q140 219 156 168T201 91T271 66Q300
66 323 81T359 126T373 195Q373 235 361 262T324 303T265 318Q236 318 203 299T139 234L135 308Q164 348 204 370T283 392Q338 392 379 371T444 305T467 195Q467 133 441 87T370 14T272 -12Z" />
<glyph unicode="7" horiz-adv-x="506" d="M172 0Q178 116 196 208T252 382T352 551H44V637H464V575Q408 505 373 441T318 310T289 169T275 0H172Z" />
<glyph unicode="8" horiz-adv-x="506" d="M254 -12Q193 -12 145 10T69 72T41 163Q41 204 58 235T101 290T158 330V334Q123 360 97 396T70 482Q70 533 94 570T161 628T257 649Q342 649 391 602T441 478Q441 446 428 418T395 367T355 329V325Q384 308 409 286T449
234T465 160Q465 112 439 73T366 11T254 -12ZM256 61Q290 61 315 73T355 109T370 163Q370 201 348 225T290 266T208 301Q175 278 153 246T131 173Q131 140 147 115T192 76T256 61ZM297 354Q326 382 341 411T356 472Q356 502 345 525T310 562T255 576Q215 576 188
551T161 482Q161 448 180 425T230 386T297 354Z" />
<glyph unicode="9" horiz-adv-x="506" d="M212 -12Q158 -12 118 8T49 58L104 120Q123 99 150 85T207 71Q251 71 286 96T343 181T365 340Q365 419 349 470T304 546T234 571Q206 571 183 556T146 512T132 442Q132 403 144 376T181 334T240 319Q270 319 303 338T366
403L370 329Q342 291 301 268T222 245Q167 245 126 267T61 332T38 442Q38 505 65 551T136 623T233 649Q280 649 321 631T393 574T441 477T459 340Q459 246 439 179T384 70T305 8T212 -12Z" />
<glyph unicode=":" horiz-adv-x="264" d="M132 338Q104 338 84 358T64 409Q64 441 84 461T132 481Q161 481 180 461T200 409Q200 379 181 359T132 338ZM132 -12Q104 -12 84 8T64 59Q64 91 84 111T132 131Q161 131 180 111T200 59Q200 29 181 9T132 -12Z" />
<glyph unicode=";" horiz-adv-x="264" d="M132 338Q104 338 84 358T64 409Q64 441 84 461T132 481Q161 481 180 461T200 409Q200 379 181 359T132 338ZM70 -177L47 -120Q94 -101 119 -69T144 4L137 85L179 19Q170 9 159 5T134 1Q107 1 87 18T66 66Q66 96 87 113T136
131Q174 131 194 103T215 22Q215 -47 177 -99T70 -177Z" />
<glyph unicode="&lt;" horiz-adv-x="506" d="M472 123L34 294V370L472 541V455L271 383L137 334V330L271 281L472 209V123Z" />
<glyph unicode="=" horiz-adv-x="506" d="M34 403V477H472V403H34ZM34 439V513H472V439H34Z" />
<glyph unicode="&gt;" horiz-adv-x="506" d="M34 123V209L235 281L369 330V334L235 383L34 455V541L472 370V294L34 123Z" />
<glyph unicode="?" horiz-adv-x="436" d="M158 208Q152 253 163 288T196 352T239 406T276 457T292 512Q292 537 282 557T253 588T204 599Q173 599 146 585T96 545L39 597Q72 634 116 658T216 682Q268 682 307 663T368 608T390 519Q390 481 375 450T336 392T291
338T256 280T247 208H158ZM204 -12Q176 -12 156 8T136 59Q136 91 156 111T204 131Q233 131 252 111T272 59Q272 29 253 9T204 -12Z" />
<glyph unicode="@" horiz-adv-x="863" d="M410 -160Q336 -160 271 -137T157 -68T79 46T50 204Q50 306 84 388T177 530T314 621T477 653Q580 653 655 610T772 491T813 314Q813 248 794 198T745 114T678 63T605 46Q564 46 534 65T498 122H496Q473 93 441 74T375
54Q322 54 287 92T251 198Q251 240 265 282T305 358T367 413T446 434Q472 434 492 423T525 385H527L539 426H604L563 220Q537 112 615 112Q646 112 676 136T725 204T745 311Q745 370 728 420T677 508T591 567T469 588Q403 588 341 561T230 484T151 364T122 207Q122
134 145 78T208 -17T302 -75T418 -95Q462 -95 503 -83T577 -52L602 -110Q558 -135 511 -147T410 -160ZM395 121Q415 121 436 134T480 176L507 328Q495 349 481 357T448 366Q412 366 386 341T345 278T330 204Q330 160 348 141T395 121Z" />
<glyph unicode="A" horiz-adv-x="552" d="M0 0L217 655H335L552 0H444L338 356Q322 410 307 464T276 574H272Q258 519 243 465T211 356L104 0H0ZM122 187V268H428V187H122Z" />
<glyph unicode="B" horiz-adv-x="593" d="M86 0V655H289Q356 655 408 640T489 589T519 494Q519 447 495 407T426 352V348Q483 337 519 298T555 192Q555 127 523 85T435 21T305 0H86ZM188 80H293Q371 80 413 108T455 197Q455 253 414 278T293 304H188V80ZM188 381H277Q352
381 385 408T419 480Q419 532 384 553T280 575H188V381Z" />
<glyph unicode="C" horiz-adv-x="574" d="M341 -12Q259 -12 193 27T89 143T50 326Q50 406 72 469T136 576T230 644T346 667Q407 667 454 643T531 585L476 519Q451 546 420 562T348 578Q291 578 248 548T180 462T155 329Q155 251 178 195T244 108T345 77Q391 77
426 96T490 147L545 83Q506 38 456 13T341 -12Z" />
<glyph unicode="D" horiz-adv-x="621" d="M86 0V655H256Q357 655 427 619T534 510T571 330Q571 224 535 150T429 38T261 0H86ZM188 83H249Q320 83 368 111T441 194T466 330Q466 412 441 465T368 545T249 572H188V83Z" />
<glyph unicode="E" horiz-adv-x="533" d="M86 0V655H473V569H188V385H429V299H188V86H483V0H86Z" />
<glyph unicode="F" horiz-adv-x="503" d="M86 0V655H474V569H188V368H431V282H188V0H86Z" />
<glyph unicode="G" horiz-adv-x="623" d="M353 -12Q266 -12 198 27T90 143T50 326Q50 406 73 469T138 576T235 644T356 667Q425 667 473 642T550 585L495 519Q471 544 439 561T359 578Q298 578 252 548T181 462T155 329Q155 251 179 195T249 108T363 77Q394 77
422 86T467 110V264H337V348H559V65Q527 32 474 10T353 -12Z" />
<glyph unicode="H" horiz-adv-x="658" d="M86 0V655H188V387H470V655H572V0H470V298H188V0H86Z" />
<glyph unicode="I" horiz-adv-x="274" d="M86 0V655H188V0H86Z" />
<glyph unicode="J" horiz-adv-x="488" d="M216 -12Q151 -12 104 15T27 97L98 148Q120 111 146 94T205 77Q254 77 278 107T303 209V655H405V200Q405 142 386 94T325 17T216 -12Z" />
<glyph unicode="K" horiz-adv-x="589" d="M86 0V655H188V344H191L441 655H555L352 402L588 0H475L290 322L188 198V0H86Z" />
<glyph unicode="L" horiz-adv-x="495" d="M86 0V655H188V86H466V0H86Z" />
<glyph unicode="M" horiz-adv-x="737" d="M86 0V655H204L324 322Q336 290 346 257T368 190H372Q384 224 394 257T415 322L533 655H651V0H557V326Q557 356 559 391T565 463T570 528H566L514 377L399 64H336L221 377L169 528H165Q168 499 171 463T176 392T178 326V0H86Z" />
<glyph unicode="N" horiz-adv-x="652" d="M86 0V655H191L409 268L478 130H482Q479 181 474 237T469 347V655H566V0H461L243 388L174 525H170Q174 475 178 420T183 311V0H86Z" />
<glyph unicode="O" horiz-adv-x="670" d="M335 -12Q251 -12 187 29T87 148T50 330Q50 436 86 511T187 627T335 667Q419 667 483 627T584 512T620 330Q620 225 584 148T484 30T335 -12ZM335 77Q390 77 430 108T493 196T515 330Q515 407 493 462T431 548T335 578Q281
578 241 548T178 463T155 330Q155 253 177 197T240 109T335 77Z" />
<glyph unicode="P" horiz-adv-x="575" d="M86 0V655H284Q357 655 413 637T502 575T534 457Q534 386 503 340T415 272T288 249H188V0H86ZM188 331H278Q357 331 395 362T433 457Q433 523 393 548T274 573H188V331Z" />
<glyph unicode="Q" horiz-adv-x="670" d="M335 -12Q251 -12 187 29T87 148T50 330Q50 436 86 511T187 627T335 667Q419 667 483 627T584 512T620 330Q620 225 584 148T484 30T335 -12ZM540 -170Q442 -170 377 -121T282 3L387 12Q400 -21 425 -43T482 -75T551 -86Q573
-86 590 -83T621 -76L640 -153Q625 -159 599 -164T540 -170ZM335 72Q390 72 430 103T493 193T515 330Q515 407 493 462T431 548T335 578Q281 578 241 548T178 463T155 330Q155 251 177 193T240 104T335 72Z" />
<glyph unicode="R" horiz-adv-x="582" d="M86 0V655H300Q368 655 421 638T505 578T536 465Q536 397 505 353T421 287T300 265H188V0H86ZM444 0L281 293L357 351L559 0H444ZM188 347H288Q360 347 397 376T435 465Q435 525 398 549T288 573H188V347Z" />
<glyph unicode="S" horiz-adv-x="540" d="M273 -12Q206 -12 146 14T40 85L100 155Q136 120 181 99T275 77Q335 77 367 103T399 171Q399 201 386 219T349 250T294 276L203 316Q171 329 141 351T90 406T70 487Q70 539 98 579T174 643T284 667Q342 667 394 645T482
585L429 520Q399 547 364 562T284 578Q234 578 204 556T173 493Q173 465 188 447T228 417T279 394L370 355Q409 339 438 317T485 261T503 179Q503 127 476 84T397 14T273 -12Z" />
<glyph unicode="T" horiz-adv-x="542" d="M220 0V569H27V655H515V569H322V0H220Z" />
<glyph unicode="U" horiz-adv-x="651" d="M326 -12Q272 -12 228 4T151 54T101 145T83 280V655H185V274Q185 200 203 157T253 96T326 77Q368 77 400 95T451 157T470 274V655H568V280Q568 201 551 145T501 55T425 4T326 -12Z" />
<glyph unicode="V" horiz-adv-x="527" d="M204 0L-2 655H106L204 315Q221 259 234 209T264 101H268Q286 158 299 208T328 315L425 655H529L324 0H204Z" />
<glyph unicode="W" horiz-adv-x="794" d="M154 0L20 655H125L187 313Q196 261 205 209T222 103H226Q237 156 248 208T270 313L355 655H445L530 313Q542 262 553 209T575 103H579Q588 156 596 209T613 313L675 655H773L643 0H518L429 366Q421 405 414 442T399 516H395Q388
479 381 442T364 366L277 0H154Z" />
<glyph unicode="X" horiz-adv-x="529" d="M14 0L202 338L26 655H139L219 500Q232 478 243 455T269 402H273Q286 432 296 455T318 500L395 655H503L327 333L515 0H402L315 164Q303 189 290 214T261 270H257Q244 240 232 215T207 164L122 0H14Z" />
<glyph unicode="Y" horiz-adv-x="490" d="M194 0V248L-3 655H106L183 480Q198 444 213 409T244 337H248Q264 374 280 409T310 480L387 655H493L296 248V0H194Z" />
<glyph unicode="Z" horiz-adv-x="540" d="M42 0V61L371 569H72V655H497V594L168 86H500V0H42Z" />
<glyph unicode="[" horiz-adv-x="315" d="M92 -152V708H280V652H168V-96H280V-152H92Z" />
<glyph unicode="\" horiz-adv-x="347" d="M266 -160L18 710H88L336 -160H266Z" />
<glyph unicode="]" horiz-adv-x="315" d="M35 -152V-96H147V652H35V708H223V-152H35Z" />
<glyph unicode="^" horiz-adv-x="506" d="M57 281L210 670H296L449 281H363L303 443L255 577H251L203 443L143 281H57Z" />
<glyph unicode="_" horiz-adv-x="500" d="M12 -130V-67H488V-130H12Z" />
<glyph unicode="`" horiz-adv-x="546" d="M280 573L116 727L186 794L331 623L280 573Z" />
<glyph unicode="a" horiz-adv-x="511" d="M193 -12Q151 -12 119 5T68 55T49 130Q49 209 119 252T342 311Q342 340 334 364T305 404T248 419Q209 419 174 404T107 369L69 437Q94 453 125 468T191 492T266 501Q327 501 366 477T424 406T443 294V0H360L352 56H349Q316
28 277 8T193 -12ZM224 68Q257 68 284 83T342 126V247Q269 238 227 223T166 187T147 137Q147 101 169 85T224 68Z" />
<glyph unicode="b" horiz-adv-x="559" d="M305 -12Q272 -12 237 4T169 51H166L157 0H77V709H178V521L175 437Q207 465 245 483T322 501Q384 501 427 471T492 384T515 253Q515 169 486 110T408 20T305 -12ZM285 72Q321 72 349 93T394 154T411 251Q411 302 399 339T362
397T295 417Q267 417 238 403T178 357V117Q207 93 235 83T285 72Z" />
<glyph unicode="c" horiz-adv-x="459" d="M276 -12Q210 -12 158 18T74 106T43 244Q43 326 77 383T165 471T284 501Q332 501 366 485T427 445L377 379Q357 398 336 408T289 418Q248 418 216 397T166 336T147 244Q147 192 165 153T214 93T286 71Q317 71 344 84T393
116L435 49Q402 19 361 4T276 -12Z" />
<glyph unicode="d" horiz-adv-x="560" d="M246 -12Q155 -12 100 55T45 244Q45 324 74 381T152 470T254 501Q297 501 327 487T386 446L382 527V709H483V0H400L392 55H389Q362 28 325 8T246 -12ZM270 72Q301 72 328 87T382 132V372Q355 397 329 407T274 417Q240
417 212 397T166 337T149 245Q149 162 181 117T270 72Z" />
<glyph unicode="e" horiz-adv-x="502" d="M281 -12Q215 -12 161 18T75 106T43 244Q43 324 75 381T158 470T266 501Q331 501 375 472T442 391T465 270Q465 256 464 242T461 218H122L121 288H377Q377 352 350 387T268 422Q236 422 206 404T157 347T137 244Q137 183
159 144T217 86T294 67Q328 67 356 77T411 104L446 40Q413 18 371 3T281 -12Z" />
<glyph unicode="f" horiz-adv-x="306" d="M94 0V551Q94 602 110 640T160 699T248 721Q273 721 295 716T334 704L314 628Q301 635 287 637T260 640Q228 640 212 619T195 552V0H94ZM28 408V484L99 489H294V408H28Z" />
<glyph unicode="g" horiz-adv-x="513" d="M245 -220Q186 -220 140 -205T68 -162T42 -91Q42 -59 61 -32T113 16V20Q95 33 82 52T69 101Q69 131 86 154T123 192V196Q99 215 79 249T59 326Q59 381 85 420T155 480T248 501Q269 501 287 498T319 489H492V413H398Q413
398 422 375T431 323Q431 270 407 233T341 175T248 155Q232 155 214 159T179 170Q168 160 160 149T152 118Q152 97 170 84T234 70H325Q412 70 456 42T500 -49Q500 -96 469 -134T381 -196T245 -220ZM260 -153Q303 -153 334 -141T384 -108T402 -65Q402 -34 379 -23T311
-11H236Q219 -11 203 -9T171 -4Q149 -20 139 -38T128 -76Q128 -112 163 -132T260 -153ZM248 220Q274 220 295 233T328 269T341 326Q341 359 329 382T295 417T248 430Q209 430 182 403T155 326Q155 293 168 270T202 233T248 220Z" />
<glyph unicode="h" horiz-adv-x="552" d="M77 0V709H178V521L174 424Q207 455 245 478T333 501Q412 501 447 451T483 308V0H382V295Q382 359 363 386T299 414Q265 414 239 397T178 347V0H77Z" />
<glyph unicode="i" horiz-adv-x="255" d="M77 0V489H178V0H77ZM128 581Q102 581 84 598T66 642Q66 669 84 685T128 702Q156 702 173 686T190 642Q190 616 173 599T128 581Z" />
<glyph unicode="j" horiz-adv-x="256" d="M36 -211Q12 -211 -7 -207T-40 -198L-21 -122Q-11 -125 0 -127T23 -130Q58 -130 69 -106T81 -39L82 489H183L182 -38Q182 -89 168 -128T122 -189T36 -211ZM36 -211Q12 -211 -7 -207T-40 -198L-21 -122Q-11 -125 0 -127T23
-130Q58 -130 69 -106T81 -39L82 489H183L182 -38Q182 -89 168 -128T122 -189T36 -211ZM129 581Q103 581 85 598T67 642Q67 669 85 685T129 702Q157 702 174 686T191 642Q191 616 174 599T129 581Z" />
<glyph unicode="k" horiz-adv-x="510" d="M77 0V709H176V250H179L372 489H483L317 291L502 0H392L259 222L176 126V0H77Z" />
<glyph unicode="l" horiz-adv-x="264" d="M178 -12Q142 -12 120 3T87 46T77 114V709H178V108Q178 88 185 80T202 71Q206 71 210 71T220 73L233 -3Q224 -6 211 -9T178 -12Z" />
<glyph unicode="m" horiz-adv-x="837" d="M77 0V489H160L168 421H171Q203 454 240 477T322 501Q377 501 409 477T457 411Q494 451 532 476T616 501Q693 501 729 451T766 308V0H665V295Q665 359 646 386T583 414Q558 414 531 398T472 347V0H371V295Q371 359 352
386T289 414Q239 414 178 347V0H77Z" />
<glyph unicode="n" horiz-adv-x="554" d="M77 0V489H160L168 421H171Q205 455 244 478T333 501Q412 501 447 451T483 308V0H382V295Q382 359 363 386T299 414Q265 414 239 397T178 347V0H77Z" />
<glyph unicode="o" horiz-adv-x="546" d="M273 -12Q213 -12 161 18T76 106T43 244Q43 326 75 383T160 471T273 501Q334 501 386 471T470 384T503 244Q503 163 471 106T386 19T273 -12ZM273 71Q312 71 340 92T384 153T399 244Q399 296 384 335T341 396T273 418Q235
418 207 397T163 336T147 244Q147 192 162 153T206 93T273 71Z" />
<glyph unicode="p" horiz-adv-x="560" d="M77 -199V489H160L168 435H171Q203 463 242 482T322 501Q384 501 427 471T492 384T515 252Q515 169 486 110T408 20T305 -12Q273 -12 240 2T175 43L178 -40V-199H77ZM285 72Q321 72 349 93T394 154T411 251Q411 302 399
339T362 397T295 417Q267 417 239 403T178 357V117Q208 93 235 83T285 72Z" />
<glyph unicode="q" horiz-adv-x="560" d="M382 -199V-32L386 52Q359 26 323 7T246 -12Q155 -12 100 55T45 244Q45 324 74 381T152 470T254 501Q296 501 328 487T391 442H394L403 489H483V-199H382ZM270 72Q301 72 328 87T382 132V372Q355 397 329 407T274 417Q240
417 212 397T166 337T149 245Q149 162 181 117T270 72Z" />
<glyph unicode="r" horiz-adv-x="362" d="M77 0V489H160L168 401H171Q197 449 233 475T310 501Q328 501 340 499T364 491L346 403Q334 407 324 409T297 411Q267 411 235 388T178 305V0H77Z" />
<glyph unicode="s" horiz-adv-x="426" d="M210 -12Q159 -12 111 7T26 56L74 121Q107 96 140 81T213 65Q257 65 278 84T299 131Q299 154 283 169T243 195T191 216Q158 229 126 246T72 290T50 358Q50 420 97 460T224 501Q273 501 313 484T382 444L335 381Q310 400
284 412T226 424Q185 424 166 406T146 363Q146 342 161 329T200 305T251 285Q285 272 318 256T373 211T395 137Q395 96 374 63T312 9T210 -12Z" />
<glyph unicode="t" horiz-adv-x="351" d="M241 -12Q160 -12 127 35T93 159V408H22V484L98 489L110 624H194V489H322V408H194V159Q194 115 211 92T266 69Q279 69 293 73T319 81L337 6Q317 0 293 -6T241 -12Z" />
<glyph unicode="u" horiz-adv-x="551" d="M221 -12Q144 -12 108 38T71 181V489H172V194Q172 131 192 103T255 75Q290 75 316 92T373 149V489H474V0H391L383 74H380Q347 35 310 12T221 -12Z" />
<glyph unicode="v" horiz-adv-x="483" d="M185 0L12 489H115L199 225Q210 190 221 153T242 79H246Q257 116 268 153T289 225L373 489H471L302 0H185Z" />
<glyph unicode="w" horiz-adv-x="735" d="M156 0L24 489H126L191 223Q199 188 205 154T218 84H222Q230 120 237 154T254 223L323 489H417L487 223Q496 188 504 154T520 84H524Q532 120 538 154T552 223L616 489H711L584 0H463L400 243Q392 278 385 312T369 385H365Q358
347 351 312T334 242L273 0H156Z" />
<glyph unicode="x" horiz-adv-x="466" d="M14 0L171 255L25 489H134L193 390Q204 370 216 350T239 308H243Q254 329 264 349T284 390L336 489H441L295 244L452 0H343L278 104Q266 126 253 148T227 191H223Q212 170 201 149T177 104L119 0H14Z" />
<glyph unicode="y" horiz-adv-x="483" d="M99 -205Q81 -205 66 -202T38 -195L57 -116Q65 -118 75 -120T93 -123Q133 -123 158 -97T196 -30L206 3L12 489H115L206 236Q218 204 229 169T251 98H255Q265 132 275 167T294 236L373 489H471L291 -30Q272 -82 247 -121T187
-183T99 -205Z" />
<glyph unicode="z" horiz-adv-x="435" d="M33 0V54L275 408H60V489H402V435L160 81H410V0H33Z" />
<glyph unicode="{" horiz-adv-x="315" d="M230 -152Q169 -152 140 -123T110 -16Q110 20 112 50T117 108T119 170Q119 199 102 223T33 247V309Q67 310 85 321T111 349T119 385Q119 419 117 448T113 506T110 572Q110 651 139 679T230 708H280V652H256Q218 652 205
633T192 567Q192 524 194 483T197 391Q197 340 183 315T133 280V276Q168 267 182 242T197 165Q197 116 195 75T192 -11Q192 -57 205 -76T256 -96H280V-152H230Z" />
<glyph unicode="|" horiz-adv-x="249" d="M90 -250V750H159V-250H90Z" />
<glyph unicode="}" horiz-adv-x="315" d="M35 -152V-96H59Q97 -96 110 -77T123 -11Q123 33 121 74T118 165Q118 216 133 241T182 276V280Q148 289 133 314T118 391Q118 441 120 482T123 567Q123 614 110 633T59 652H35V708H85Q147 708 176 680T205 572Q205 536
203 507T199 448T196 385Q196 367 203 350T230 321T282 309V247Q232 247 214 223T196 170Q196 137 198 109T203 50T205 -16Q205 -94 176 -123T85 -152H35Z" />
<glyph unicode="~" horiz-adv-x="506" d="M340 252Q311 252 287 264T243 293T204 321T164 334Q144 334 125 320T89 274L34 314Q65 365 99 386T166 408Q197 408 220 396T263 367T302 339T342 326Q364 326 382 341T417 386L472 345Q443 296 409 274T340 252Z" />
<glyph unicode="&#xa0;" horiz-adv-x="200" />
<glyph unicode="&#xa1;" horiz-adv-x="304" d="M101 -181L104 -76L118 281H186L200 -76L203 -181H101ZM152 358Q124 358 104 378T84 430Q84 461 104 481T152 501Q181 501 200 481T220 430Q220 399 201 379T152 358Z" />
<glyph unicode="&#xa2;" horiz-adv-x="506" d="M304 64Q233 64 178 93T92 176T61 309Q61 388 95 442T186 525T312 554Q360 554 395 538T455 496L407 433Q387 452 365 461T317 471Q269 471 234 451T179 395T160 309Q160 236 201 192T314 147Q347 147 374 160T421
191L464 127Q431 97 389 81T304 64ZM266 -35V654H326V-35H266Z" />
<glyph unicode="&#xa3;" horiz-adv-x="506" d="M52 0V62Q102 88 130 133T158 234Q158 273 147 310T123 385T111 459Q111 518 136 560T204 626T305 649Q359 649 398 628T465 572L408 516Q390 539 367 552T313 566Q264 566 237 537T209 455Q209 419 219 384T238
312T248 233Q248 186 234 154T191 90V86H466V0H52ZM53 281V343L120 347H385V281H53Z" />
<glyph unicode="&#xa4;" horiz-adv-x="506" d="M77 97L25 151L88 215Q71 238 62 267T52 329Q52 364 61 392T87 444L25 509L77 562L145 493Q194 526 253 526Q312 526 361 493L429 562L482 509L418 444Q435 421 444 393T454 329Q454 296 445 267T418 215L482 151L429
97L361 167Q338 150 310 142T253 133Q193 133 145 167L77 97ZM253 206Q283 206 308 221T347 264T362 329Q362 366 348 394T308 437T253 453Q223 453 199 438T159 394T144 329Q144 292 159 265T198 222T253 206Z" />
<glyph unicode="&#xa5;" horiz-adv-x="506" d="M202 0V155H43V209H202V271H43V325H178L20 637H125L195 477Q209 444 223 411T252 343H256Q272 378 286 411T314 477L384 637H486L327 325H463V271H303V209H463V155H303V0H202Z" />
<glyph unicode="&#xa6;" horiz-adv-x="249" d="M90 297V750H159V297H90ZM90 -250V211H159V-250H90Z" />
<glyph unicode="&#xa7;" horiz-adv-x="506" d="M354 140L298 187Q337 203 356 222T376 276Q376 309 356 330T304 367T236 398T169 432T117 479T96 549Q96 587 114 618T168 667T255 686Q306 686 347 668T417 626L369 562Q346 582 319 595T260 609Q222 609 205 593T188
553Q188 529 208 512T259 481T326 451T392 414T443 361T463 284Q463 249 450 223T412 176T354 140ZM237 -70Q184 -70 137 -50T58 5L118 59Q143 35 172 21T237 7Q275 7 295 25T315 68Q315 94 296 111T245 143T179 172T113 208T63 260T43 338Q43 387 74 424T154 480L203
433Q169 418 150 398T130 345Q130 314 150 293T201 257T268 226T335 192T387 145T407 73Q407 32 386 0T327 -51T237 -70Z" />
<glyph unicode="&#xa8;" horiz-adv-x="546" d="M373 582Q349 582 333 598T317 638Q317 662 333 678T373 694Q398 694 413 678T429 638Q429 615 414 599T373 582ZM173 582Q149 582 133 598T117 638Q117 662 133 678T173 694Q198 694 213 678T229 638Q229 615 214
599T173 582Z" />
<glyph unicode="&#xa9;" horiz-adv-x="746" d="M373 -10Q308 -10 249 13T145 80T74 185T48 324Q48 401 74 462T145 566T249 631T373 654Q439 654 497 631T601 566T672 462T698 324Q698 247 673 186T602 81T498 14T373 -10ZM382 126Q330 126 289 149T222 217T197
323Q197 382 223 424T292 490T384 513Q428 513 457 497T511 456L471 410Q452 429 433 439T389 449Q337 449 306 414T275 323Q275 262 305 226T385 190Q416 190 438 202T481 231L516 181Q489 158 458 142T382 126ZM373 37Q430 37 479 57T565 116T624 207T645 324Q645
388 624 440T566 530T479 587T373 607Q317 607 268 587T181 530T123 441T101 324Q101 260 122 207T181 116T267 58T373 37Z" />
<glyph unicode="&#xaa;" horiz-adv-x="349" d="M134 381Q89 381 62 408T35 477Q35 530 81 558T230 596Q229 625 217 643T172 661Q148 661 122 651T74 628L47 678Q74 695 109 708T184 721Q245 721 274 686T304 583V389H245L237 425H233Q214 407 189 394T134 381ZM158
439Q176 439 194 448T230 475V551Q161 544 134 526T107 483Q107 461 120 450T158 439Z" />
<glyph unicode="&#xab;" horiz-adv-x="444" d="M182 63L46 215V289L182 441L223 407L107 252L223 96L182 63ZM349 63L213 215V289L349 441L390 407L274 252L390 96L349 63Z" />
<glyph unicode="&#xac;" horiz-adv-x="506" d="M394 101V293H34V367H472V101H394Z" />
<glyph unicode="&#xad;" horiz-adv-x="317" d="M42 214V289H276V214H42Z" />
<glyph unicode="&#xae;" horiz-adv-x="435" d="M217 317Q165 317 122 342T52 412T26 515Q26 574 52 618T121 688T217 714Q270 714 313 689T382 619T408 515Q408 457 383 413T314 343T217 317ZM217 357Q259 357 292 377T345 432T364 515Q364 562 345 598T293 654T217
674Q175 674 142 654T90 598T70 515Q70 468 89 433T142 377T217 357ZM142 417V618H222Q255 618 278 604T301 553Q301 536 292 521T264 498L309 417H259L225 484H188V417H142ZM188 519H212Q231 519 241 527T252 550Q252 564 244 573T214 582H188V519Z" />
<glyph unicode="&#xaf;" horiz-adv-x="546" d="M136 598V666H410V598H136Z" />
<glyph unicode="&#xb0;" horiz-adv-x="341" d="M171 420Q136 420 106 436T58 483T40 552Q40 592 58 622T106 668T171 685Q207 685 236 669T284 622T302 552Q302 513 284 483T237 437T171 420ZM171 473Q204 473 224 495T244 552Q244 588 224 610T171 632Q139 632
119 610T98 552Q98 518 118 496T171 473Z" />
<glyph unicode="&#xb1;" horiz-adv-x="506" d="M214 136V301H34V375H214V559H292V375H472V301H292V136H214ZM34 0V74H472V0H34Z" />
<glyph unicode="&#xb2;" horiz-adv-x="380" d="M60 405V448Q117 499 157 538T219 608T241 667Q241 703 222 723T171 743Q148 743 128 728T91 689L46 730Q71 766 106 786T182 807Q242 807 279 775T316 679Q316 644 298 611T250 543T183 470H334V405H60Z" />
<glyph unicode="&#xb3;" horiz-adv-x="370" d="M182 393Q134 393 96 414T33 470L82 508Q100 482 124 468T176 453Q206 453 227 469T248 516Q248 548 219 564T135 580V627Q182 627 207 645T233 691Q233 717 216 732T169 747Q148 747 129 735T94 702L49 742Q77 773
108 790T181 807Q216 807 245 795T291 758T309 701Q309 668 292 645T244 607Q277 598 300 574T324 511Q324 475 305 449T253 408T182 393Z" />
<glyph unicode="&#xb4;" horiz-adv-x="546" d="M266 573L215 623L360 794L430 727L266 573Z" />
<glyph unicode="&#xb5;" horiz-adv-x="551" d="M55 -181L58 -76L72 281H140L154 -76L157 -181H55ZM221 -12Q144 -12 108 38T71 181V489H172V194Q172 131 192 103T255 75Q290 75 316 92T373 149V489H474V0H391L383 74H380Q347 35 310 12T221 -12Z" />
<glyph unicode="&#xb6;" horiz-adv-x="582" d="M294 218Q222 218 165 241T74 314T40 439Q40 519 72 566T160 634T285 655H329V218H294ZM384 -80V655H486V-80H384Z" />
<glyph unicode="&#xb7;" horiz-adv-x="264" d="M132 250Q104 250 84 270T64 321Q64 353 84 373T132 393Q161 393 180 373T200 321Q200 291 181 271T132 250Z" />
<glyph unicode="&#xb8;" horiz-adv-x="546" d="M182 -230L173 -184Q235 -180 257 -169T280 -136Q280 -117 264 -107T203 -90L248 3H311L282 -63Q318 -71 337 -87T356 -135Q356 -180 311 -203T182 -230Z" />
<glyph unicode="&#xb9;" horiz-adv-x="340" d="M160 405V705H74V754Q110 760 132 770T175 795H237V405H160Z" />
<glyph unicode="&#xba;" horiz-adv-x="367" d="M183 381Q142 381 107 401T50 460T28 551Q28 605 49 643T106 701T183 721Q225 721 260 701T316 643T338 551Q338 498 317 460T260 402T183 381ZM183 441Q221 441 241 471T262 551Q262 601 242 631T183 661Q145 661
125 631T104 551Q104 502 124 472T183 441Z" />
<glyph unicode="&#xbb;" horiz-adv-x="444" d="M95 63L54 96L170 252L54 407L95 441L231 289V215L95 63ZM262 63L221 96L337 252L221 407L262 441L398 289V215L262 63Z" />
<glyph unicode="&#xbc;" horiz-adv-x="809" d="M192 -12L551 667H615L256 -12H192ZM160 285V585H74V634Q110 640 132 650T175 675H237V285H160ZM657 0V214L662 325H658L611 245L555 152H784V99H479V138L636 390H726V0H657Z" />
<glyph unicode="&#xbd;" horiz-adv-x="819" d="M180 -12L539 667H603L244 -12H180ZM160 285V585H74V634Q110 640 132 650T175 675H237V285H160ZM499 0V43Q557 94 597 133T659 203T680 262Q680 298 662 318T610 338Q587 338 567 323T530 284L485 325Q510 361 545
381T621 402Q682 402 718 370T755 274Q755 239 738 206T690 138T622 65H773V0H499Z" />
<glyph unicode="&#xbe;" horiz-adv-x="819" d="M217 -12L576 667H640L281 -12H217ZM182 273Q134 273 96 294T33 350L82 388Q100 362 124 348T176 333Q206 333 227 349T248 396Q248 428 219 444T135 460V507Q182 507 207 525T233 571Q233 597 216 612T169 627Q148
627 129 615T94 582L49 622Q77 653 108 670T181 687Q216 687 245 675T291 638T309 581Q309 548 292 525T244 487Q277 478 300 454T324 391Q324 355 305 329T253 288T182 273ZM667 0V214L672 325H668L621 245L565 152H794V99H489V138L646 390H736V0H667Z" />
<glyph unicode="&#xbf;" horiz-adv-x="436" d="M220 -193Q169 -193 130 -174T68 -118T46 -30Q46 9 62 39T101 97T145 151T180 210T189 281H278Q285 236 273 201T241 137T198 83T160 32T144 -23Q144 -48 154 -67T184 -98T232 -110Q264 -110 291 -95T340 -56L397
-108Q365 -144 321 -168T220 -193ZM232 358Q204 358 184 378T164 430Q164 461 184 481T232 501Q261 501 280 481T300 430Q300 399 281 379T232 358Z" />
<glyph unicode="&#xc0;" horiz-adv-x="552" d="M0 0L217 655H335L552 0H444L338 356Q322 410 307 464T276 574H272Q258 519 243 465T211 356L104 0H0ZM122 187V268H428V187H122ZM289 692L128 808L184 875L334 743L289 692Z" />
<glyph unicode="&#xc1;" horiz-adv-x="552" d="M0 0L217 655H335L552 0H444L338 356Q322 410 307 464T276 574H272Q258 519 243 465T211 356L104 0H0ZM122 187V268H428V187H122ZM259 692L214 743L364 875L420 808L259 692Z" />
<glyph unicode="&#xc2;" horiz-adv-x="552" d="M0 0L217 655H335L552 0H444L338 356Q322 410 307 464T276 574H272Q258 519 243 465T211 356L104 0H0ZM122 187V268H428V187H122ZM164 695L120 725L220 837H328L428 725L384 695L276 785H272L164 695Z" />
<glyph unicode="&#xc3;" horiz-adv-x="552" d="M0 0L217 655H335L552 0H444L338 356Q322 410 307 464T276 574H272Q258 519 243 465T211 356L104 0H0ZM122 187V268H428V187H122ZM348 704Q321 704 301 714T264 738T234 761T203 771Q186 771 174 756T158 710L91
715Q95 778 124 811T200 844Q228 844 248 834T285 811T315 788T345 777Q363 777 375 792T390 838L457 833Q455 771 425 738T348 704Z" />
<glyph unicode="&#xc4;" horiz-adv-x="552" d="M0 0L217 655H335L552 0H444L338 356Q322 410 307 464T276 574H272Q258 519 243 465T211 356L104 0H0ZM122 187V268H428V187H122ZM379 711Q356 711 340 726T324 766Q324 790 340 805T379 821Q404 821 419 806T434
766Q434 742 419 727T379 711ZM169 711Q146 711 130 726T114 766Q114 790 130 805T169 821Q194 821 209 806T224 766Q224 742 209 727T169 711Z" />
<glyph unicode="&#xc5;" horiz-adv-x="552" d="M0 0L217 655H335L552 0H444L338 356Q322 410 307 464T276 574H272Q258 519 243 465T211 356L104 0H0ZM122 187V268H428V187H122ZM274 698Q230 698 201 724T172 791Q172 834 201 859T274 884Q318 884 347 859T376
791Q376 750 347 724T274 698ZM274 740Q294 740 308 753T322 791Q322 815 308 828T274 842Q254 842 240 829T225 791Q225 767 239 754T274 740Z" />
<glyph unicode="&#xc6;" horiz-adv-x="829" d="M2 0L336 655H769V569H499V385H725V299H499V86H779V0H397V576H393Q369 525 344 473T294 370L109 0H2ZM152 179V260H455V179H152Z" />
<glyph unicode="&#xc8;" horiz-adv-x="533" d="M86 0V655H473V569H188V385H429V299H188V86H483V0H86ZM301 692L140 808L196 875L346 743L301 692Z" />
<glyph unicode="&#xc9;" horiz-adv-x="533" d="M86 0V655H473V569H188V385H429V299H188V86H483V0H86ZM271 692L226 743L376 875L432 808L271 692Z" />
<glyph unicode="&#xca;" horiz-adv-x="533" d="M86 0V655H473V569H188V385H429V299H188V86H483V0H86ZM176 695L132 725L232 837H340L440 725L396 695L288 785H284L176 695Z" />
<glyph unicode="&#xcb;" horiz-adv-x="533" d="M86 0V655H473V569H188V385H429V299H188V86H483V0H86ZM391 711Q368 711 352 726T336 766Q336 790 352 805T391 821Q416 821 431 806T446 766Q446 742 431 727T391 711ZM181 711Q158 711 142 726T126 766Q126 790
142 805T181 821Q206 821 221 806T236 766Q236 742 221 727T181 711Z" />
<glyph unicode="&#xcc;" horiz-adv-x="274" d="M86 0V655H188V0H86ZM152 692L-9 808L47 875L197 743L152 692Z" />
<glyph unicode="&#xcd;" horiz-adv-x="274" d="M86 0V655H188V0H86ZM122 692L77 743L227 875L283 808L122 692Z" />
<glyph unicode="&#xce;" horiz-adv-x="274" d="M86 0V655H188V0H86ZM27 695L-17 725L83 837H191L291 725L247 695L139 785H135L27 695Z" />
<glyph unicode="&#xcf;" horiz-adv-x="274" d="M86 0V655H188V0H86ZM242 711Q219 711 203 726T187 766Q187 790 203 805T242 821Q267 821 282 806T297 766Q297 742 282 727T242 711ZM32 711Q9 711 -7 726T-23 766Q-23 790 -7 805T32 821Q57 821 72 806T87 766Q87
742 72 727T32 711Z" />
<glyph unicode="&#xd0;" horiz-adv-x="644" d="M31 315V365L111 369H353V315H31ZM109 0V655H279Q380 655 450 619T557 510T594 330Q594 224 558 150T452 38T284 0H109ZM211 83H272Q343 83 391 111T464 194T489 330Q489 412 464 465T391 545T272 572H211V83Z" />
<glyph unicode="&#xd1;" horiz-adv-x="652" d="M86 0V655H191L409 268L478 130H482Q479 181 474 237T469 347V655H566V0H461L243 388L174 525H170Q174 475 178 420T183 311V0H86ZM403 704Q376 704 356 714T319 738T289 761T258 771Q241 771 229 756T213 710L146
715Q150 778 179 811T255 844Q283 844 303 834T340 811T370 788T400 777Q418 777 430 792T445 838L512 833Q510 771 480 738T403 704Z" />
<glyph unicode="&#xd2;" horiz-adv-x="670" d="M335 -12Q251 -12 187 29T87 148T50 330Q50 436 86 511T187 627T335 667Q419 667 483 627T584 512T620 330Q620 225 584 148T484 30T335 -12ZM335 77Q390 77 430 108T493 196T515 330Q515 407 493 462T431 548T335
578Q281 578 241 548T178 463T155 330Q155 253 177 197T240 109T335 77ZM350 692L189 808L245 875L395 743L350 692Z" />
<glyph unicode="&#xd3;" horiz-adv-x="670" d="M335 -12Q251 -12 187 29T87 148T50 330Q50 436 86 511T187 627T335 667Q419 667 483 627T584 512T620 330Q620 225 584 148T484 30T335 -12ZM335 77Q390 77 430 108T493 196T515 330Q515 407 493 462T431 548T335
578Q281 578 241 548T178 463T155 330Q155 253 177 197T240 109T335 77ZM320 692L275 743L425 875L481 808L320 692Z" />
<glyph unicode="&#xd4;" horiz-adv-x="670" d="M335 -12Q251 -12 187 29T87 148T50 330Q50 436 86 511T187 627T335 667Q419 667 483 627T584 512T620 330Q620 225 584 148T484 30T335 -12ZM335 77Q390 77 430 108T493 196T515 330Q515 407 493 462T431 548T335
578Q281 578 241 548T178 463T155 330Q155 253 177 197T240 109T335 77ZM225 695L181 725L281 837H389L489 725L445 695L337 785H333L225 695Z" />
<glyph unicode="&#xd5;" horiz-adv-x="670" d="M335 -12Q251 -12 187 29T87 148T50 330Q50 436 86 511T187 627T335 667Q419 667 483 627T584 512T620 330Q620 225 584 148T484 30T335 -12ZM335 77Q390 77 430 108T493 196T515 330Q515 407 493 462T431 548T335
578Q281 578 241 548T178 463T155 330Q155 253 177 197T240 109T335 77ZM409 704Q382 704 362 714T325 738T295 761T264 771Q247 771 235 756T219 710L152 715Q156 778 185 811T261 844Q289 844 309 834T346 811T376 788T406 777Q424 777 436 792T451 838L518 833Q516
771 486 738T409 704Z" />
<glyph unicode="&#xd6;" horiz-adv-x="670" d="M335 -12Q251 -12 187 29T87 148T50 330Q50 436 86 511T187 627T335 667Q419 667 483 627T584 512T620 330Q620 225 584 148T484 30T335 -12ZM335 77Q390 77 430 108T493 196T515 330Q515 407 493 462T431 548T335
578Q281 578 241 548T178 463T155 330Q155 253 177 197T240 109T335 77ZM440 711Q417 711 401 726T385 766Q385 790 401 805T440 821Q465 821 480 806T495 766Q495 742 480 727T440 711ZM230 711Q207 711 191 726T175 766Q175 790 191 805T230 821Q255 821 270
806T285 766Q285 742 270 727T230 711Z" />
<glyph unicode="&#xd7;" horiz-adv-x="506" d="M102 122L50 176L201 330L50 484L102 537L253 382L404 537L457 484L306 330L457 176L404 122L253 277L102 122Z" />
<glyph unicode="&#xd8;" horiz-adv-x="670" d="M102 -33L47 9L576 688L631 646L102 -33ZM337 -12Q253 -12 189 29T89 148T52 330Q52 436 88 511T189 627T337 667Q421 667 485 627T586 512T622 330Q622 225 586 148T486 30T337 -12ZM337 77Q392 77 432 108T495
196T517 330Q517 407 495 462T433 548T337 578Q283 578 243 548T180 463T157 330Q157 253 179 197T242 109T337 77Z" />
<glyph unicode="&#xd9;" horiz-adv-x="651" d="M326 -12Q272 -12 228 4T151 54T101 145T83 280V655H185V274Q185 200 203 157T253 96T326 77Q368 77 400 95T451 157T470 274V655H568V280Q568 201 551 145T501 55T425 4T326 -12ZM340 692L179 808L235 875L385 743L340
692Z" />
<glyph unicode="&#xda;" horiz-adv-x="651" d="M326 -12Q272 -12 228 4T151 54T101 145T83 280V655H185V274Q185 200 203 157T253 96T326 77Q368 77 400 95T451 157T470 274V655H568V280Q568 201 551 145T501 55T425 4T326 -12ZM310 692L265 743L415 875L471 808L310
692Z" />
<glyph unicode="&#xdb;" horiz-adv-x="651" d="M326 -12Q272 -12 228 4T151 54T101 145T83 280V655H185V274Q185 200 203 157T253 96T326 77Q368 77 400 95T451 157T470 274V655H568V280Q568 201 551 145T501 55T425 4T326 -12ZM215 695L171 725L271 837H379L479
725L435 695L327 785H323L215 695Z" />
<glyph unicode="&#xdc;" horiz-adv-x="651" d="M326 -12Q272 -12 228 4T151 54T101 145T83 280V655H185V274Q185 200 203 157T253 96T326 77Q368 77 400 95T451 157T470 274V655H568V280Q568 201 551 145T501 55T425 4T326 -12ZM430 711Q407 711 391 726T375 766Q375
790 391 805T430 821Q455 821 470 806T485 766Q485 742 470 727T430 711ZM220 711Q197 711 181 726T165 766Q165 790 181 805T220 821Q245 821 260 806T275 766Q275 742 260 727T220 711Z" />
<glyph unicode="&#xdd;" horiz-adv-x="490" d="M194 0V248L-3 655H106L183 480Q198 444 213 409T244 337H248Q264 374 280 409T310 480L387 655H493L296 248V0H194ZM230 692L185 743L335 875L391 808L230 692Z" />
<glyph unicode="&#xde;" horiz-adv-x="593" d="M86 0V655H188V548H298Q370 548 425 530T512 468T544 350Q544 279 513 233T425 165T298 142H188V0H86ZM188 224H288Q367 224 405 255T443 350Q443 416 405 441T288 466H188V224Z" />
<glyph unicode="&#xdf;" horiz-adv-x="592" d="M397 -12Q355 -12 321 1T253 36L291 106Q318 85 342 75T394 65Q431 65 450 86T470 136Q470 162 457 179T421 210T375 236T329 264T293 303T279 360Q279 393 291 416T320 460T349 503T362 556Q362 592 343 615T284
638Q234 638 206 601T177 491V0H77V507Q77 570 101 618T171 692T285 719Q342 719 381 698T440 643T460 567Q460 530 447 504T417 457T387 417T373 372Q373 351 387 336T423 309T469 284T515 253T550 209T564 141Q564 98 544 64T487 9T397 -12Z" />
<glyph unicode="&#xe0;" horiz-adv-x="511" d="M193 -12Q151 -12 119 5T68 55T49 130Q49 209 119 252T342 311Q342 340 334 364T305 404T248 419Q209 419 174 404T107 369L69 437Q94 453 125 468T191 492T266 501Q327 501 366 477T424 406T443 294V0H360L352 56H349Q316
28 277 8T193 -12ZM224 68Q257 68 284 83T342 126V247Q269 238 227 223T166 187T147 137Q147 101 169 85T224 68ZM282 573L118 727L188 794L333 623L282 573Z" />
<glyph unicode="&#xe1;" horiz-adv-x="511" d="M193 -12Q151 -12 119 5T68 55T49 130Q49 209 119 252T342 311Q342 340 334 364T305 404T248 419Q209 419 174 404T107 369L69 437Q94 453 125 468T191 492T266 501Q327 501 366 477T424 406T443 294V0H360L352 56H349Q316
28 277 8T193 -12ZM224 68Q257 68 284 83T342 126V247Q269 238 227 223T166 187T147 137Q147 101 169 85T224 68ZM268 573L217 623L362 794L432 727L268 573Z" />
<glyph unicode="&#xe2;" horiz-adv-x="511" d="M193 -12Q151 -12 119 5T68 55T49 130Q49 209 119 252T342 311Q342 340 334 364T305 404T248 419Q209 419 174 404T107 369L69 437Q94 453 125 468T191 492T266 501Q327 501 366 477T424 406T443 294V0H360L352 56H349Q316
28 277 8T193 -12ZM224 68Q257 68 284 83T342 126V247Q269 238 227 223T166 187T147 137Q147 101 169 85T224 68ZM153 566L112 604L224 741H326L438 604L397 566L277 673H273L153 566Z" />
<glyph unicode="&#xe3;" horiz-adv-x="511" d="M193 -12Q151 -12 119 5T68 55T49 130Q49 209 119 252T342 311Q342 340 334 364T305 404T248 419Q209 419 174 404T107 369L69 437Q94 453 125 468T191 492T266 501Q327 501 366 477T424 406T443 294V0H360L352 56H349Q316
28 277 8T193 -12ZM224 68Q257 68 284 83T342 126V247Q269 238 227 223T166 187T147 137Q147 101 169 85T224 68ZM346 576Q320 576 301 588T266 615T236 642T206 654Q186 654 176 635T163 582L97 586Q99 629 111 660T146 709T205 726Q231 726 250 715T284 688T314
660T345 648Q365 648 375 667T387 720L453 716Q452 674 440 643T405 594T346 576Z" />
<glyph unicode="&#xe4;" horiz-adv-x="511" d="M193 -12Q151 -12 119 5T68 55T49 130Q49 209 119 252T342 311Q342 340 334 364T305 404T248 419Q209 419 174 404T107 369L69 437Q94 453 125 468T191 492T266 501Q327 501 366 477T424 406T443 294V0H360L352 56H349Q316
28 277 8T193 -12ZM224 68Q257 68 284 83T342 126V247Q269 238 227 223T166 187T147 137Q147 101 169 85T224 68ZM375 582Q351 582 335 598T319 638Q319 662 335 678T375 694Q400 694 415 678T431 638Q431 615 416 599T375 582ZM175 582Q151 582 135 598T119 638Q119
662 135 678T175 694Q200 694 215 678T231 638Q231 615 216 599T175 582Z" />
<glyph unicode="&#xe5;" horiz-adv-x="511" d="M193 -12Q151 -12 119 5T68 55T49 130Q49 209 119 252T342 311Q342 340 334 364T305 404T248 419Q209 419 174 404T107 369L69 437Q94 453 125 468T191 492T266 501Q327 501 366 477T424 406T443 294V0H360L352 56H349Q316
28 277 8T193 -12ZM224 68Q257 68 284 83T342 126V247Q269 238 227 223T166 187T147 137Q147 101 169 85T224 68ZM275 557Q221 557 190 586T159 657Q159 700 190 728T275 757Q330 757 360 729T391 657Q391 615 361 586T275 557ZM275 599Q298 599 313 615T328 657Q328
684 313 699T275 715Q253 715 238 700T222 657Q222 631 237 615T275 599Z" />
<glyph unicode="&#xe6;" horiz-adv-x="785" d="M199 -12Q157 -12 125 5T74 54T55 129Q55 209 124 252T344 312Q344 340 336 364T308 404T251 419Q215 419 180 404T113 369L75 437Q100 453 130 468T194 492T264 501Q316 501 351 476T403 406Q433 451 472 476T559
501Q621 501 663 472T726 390T748 268Q748 254 747 241T744 218H437Q440 172 459 139T510 88T579 69Q613 69 639 80T693 108L729 40Q696 18 655 3T566 -12Q527 -12 496 0T440 32T395 75Q345 32 296 10T199 -12ZM230 68Q262 68 297 85T361 133Q354 152 350 175T344
224L343 247Q240 234 197 207T153 137Q153 101 175 85T230 68ZM437 283H660Q660 349 634 385T556 422Q526 422 501 406T459 358T437 283Z" />
<glyph unicode="&#xe7;" horiz-adv-x="459" d="M276 -12Q210 -12 158 18T74 106T43 244Q43 326 77 383T165 471T284 501Q332 501 366 485T427 445L377 379Q357 398 336 408T289 418Q248 418 216 397T166 336T147 244Q147 192 165 153T214 93T286 71Q317 71 344
84T393 116L435 49Q402 19 361 4T276 -12ZM182 -230L173 -184Q235 -180 257 -169T280 -136Q280 -117 264 -107T203 -90L248 3H311L282 -63Q318 -71 337 -87T356 -135Q356 -180 311 -203T182 -230Z" />
<glyph unicode="&#xe8;" horiz-adv-x="502" d="M281 -12Q215 -12 161 18T75 106T43 244Q43 324 75 381T158 470T266 501Q331 501 375 472T442 391T465 270Q465 256 464 242T461 218H122L121 288H377Q377 352 350 387T268 422Q236 422 206 404T157 347T137 244Q137
183 159 144T217 86T294 67Q328 67 356 77T411 104L446 40Q413 18 371 3T281 -12ZM277 573L113 727L183 794L328 623L277 573Z" />
<glyph unicode="&#xe9;" horiz-adv-x="502" d="M281 -12Q215 -12 161 18T75 106T43 244Q43 324 75 381T158 470T266 501Q331 501 375 472T442 391T465 270Q465 256 464 242T461 218H122L121 288H377Q377 352 350 387T268 422Q236 422 206 404T157 347T137 244Q137
183 159 144T217 86T294 67Q328 67 356 77T411 104L446 40Q413 18 371 3T281 -12ZM263 573L212 623L357 794L427 727L263 573Z" />
<glyph unicode="&#xea;" horiz-adv-x="502" d="M281 -12Q215 -12 161 18T75 106T43 244Q43 324 75 381T158 470T266 501Q331 501 375 472T442 391T465 270Q465 256 464 242T461 218H122L121 288H377Q377 352 350 387T268 422Q236 422 206 404T157 347T137 244Q137
183 159 144T217 86T294 67Q328 67 356 77T411 104L446 40Q413 18 371 3T281 -12ZM148 566L107 604L219 741H321L433 604L392 566L272 673H268L148 566Z" />
<glyph unicode="&#xeb;" horiz-adv-x="502" d="M281 -12Q215 -12 161 18T75 106T43 244Q43 324 75 381T158 470T266 501Q331 501 375 472T442 391T465 270Q465 256 464 242T461 218H122L121 288H377Q377 352 350 387T268 422Q236 422 206 404T157 347T137 244Q137
183 159 144T217 86T294 67Q328 67 356 77T411 104L446 40Q413 18 371 3T281 -12ZM370 582Q346 582 330 598T314 638Q314 662 330 678T370 694Q395 694 410 678T426 638Q426 615 411 599T370 582ZM170 582Q146 582 130 598T114 638Q114 662 130 678T170 694Q195
694 210 678T226 638Q226 615 211 599T170 582Z" />
<glyph unicode="&#xec;" horiz-adv-x="255" d="M77 0V489H178V0H77ZM135 573L-29 727L41 794L186 623L135 573Z" />
<glyph unicode="&#xed;" horiz-adv-x="255" d="M77 0V489H178V0H77ZM121 573L70 623L215 794L285 727L121 573Z" />
<glyph unicode="&#xee;" horiz-adv-x="255" d="M77 0V489H178V0H77ZM6 566L-35 604L77 741H179L291 604L250 566L130 673H126L6 566Z" />
<glyph unicode="&#xef;" horiz-adv-x="255" d="M77 0V489H178V0H77ZM228 582Q204 582 188 598T172 638Q172 662 188 678T228 694Q253 694 268 678T284 638Q284 615 269 599T228 582ZM28 582Q4 582 -12 598T-28 638Q-28 662 -12 678T28 694Q53 694 68 678T84 638Q84
615 69 599T28 582Z" />
<glyph unicode="&#xf0;" horiz-adv-x="549" d="M270 -12Q212 -12 162 16T81 98T50 224Q50 293 78 343T152 421T255 449Q298 449 337 429T399 362L400 300Q370 344 338 358T273 372Q233 372 204 354T160 302T144 224Q144 177 162 143T209 90T273 71Q313 71 340
93T382 157T396 255Q396 340 378 403T324 514T240 599T130 670L175 733Q236 702 292 660T394 562T466 431T492 260Q492 180 465 119T388 23T270 -12ZM139 493L111 541L455 717L483 668L139 493Z" />
<glyph unicode="&#xf1;" horiz-adv-x="554" d="M77 0V489H160L168 421H171Q205 455 244 478T333 501Q412 501 447 451T483 308V0H382V295Q382 359 363 386T299 414Q265 414 239 397T178 347V0H77ZM370 576Q344 576 325 588T290 615T260 642T230 654Q210 654 200
635T187 582L121 586Q123 629 135 660T170 709T229 726Q255 726 274 715T308 688T338 660T369 648Q389 648 399 667T411 720L477 716Q476 674 464 643T429 594T370 576Z" />
<glyph unicode="&#xf2;" horiz-adv-x="546" d="M273 -12Q213 -12 161 18T76 106T43 244Q43 326 75 383T160 471T273 501Q334 501 386 471T470 384T503 244Q503 163 471 106T386 19T273 -12ZM273 71Q312 71 340 92T384 153T399 244Q399 296 384 335T341 396T273
418Q235 418 207 397T163 336T147 244Q147 192 162 153T206 93T273 71ZM280 573L116 727L186 794L331 623L280 573Z" />
<glyph unicode="&#xf3;" horiz-adv-x="546" d="M273 -12Q213 -12 161 18T76 106T43 244Q43 326 75 383T160 471T273 501Q334 501 386 471T470 384T503 244Q503 163 471 106T386 19T273 -12ZM273 71Q312 71 340 92T384 153T399 244Q399 296 384 335T341 396T273
418Q235 418 207 397T163 336T147 244Q147 192 162 153T206 93T273 71ZM266 573L215 623L360 794L430 727L266 573Z" />
<glyph unicode="&#xf4;" horiz-adv-x="546" d="M273 -12Q213 -12 161 18T76 106T43 244Q43 326 75 383T160 471T273 501Q334 501 386 471T470 384T503 244Q503 163 471 106T386 19T273 -12ZM273 71Q312 71 340 92T384 153T399 244Q399 296 384 335T341 396T273
418Q235 418 207 397T163 336T147 244Q147 192 162 153T206 93T273 71ZM151 566L110 604L222 741H324L436 604L395 566L275 673H271L151 566Z" />
<glyph unicode="&#xf5;" horiz-adv-x="546" d="M273 -12Q213 -12 161 18T76 106T43 244Q43 326 75 383T160 471T273 501Q334 501 386 471T470 384T503 244Q503 163 471 106T386 19T273 -12ZM273 71Q312 71 340 92T384 153T399 244Q399 296 384 335T341 396T273
418Q235 418 207 397T163 336T147 244Q147 192 162 153T206 93T273 71ZM344 576Q318 576 299 588T264 615T234 642T204 654Q184 654 174 635T161 582L95 586Q97 629 109 660T144 709T203 726Q229 726 248 715T282 688T312 660T343 648Q363 648 373 667T385 720L451
716Q450 674 438 643T403 594T344 576Z" />
<glyph unicode="&#xf6;" horiz-adv-x="546" d="M273 -12Q213 -12 161 18T76 106T43 244Q43 326 75 383T160 471T273 501Q334 501 386 471T470 384T503 244Q503 163 471 106T386 19T273 -12ZM273 71Q312 71 340 92T384 153T399 244Q399 296 384 335T341 396T273
418Q235 418 207 397T163 336T147 244Q147 192 162 153T206 93T273 71ZM373 582Q349 582 333 598T317 638Q317 662 333 678T373 694Q398 694 413 678T429 638Q429 615 414 599T373 582ZM173 582Q149 582 133 598T117 638Q117 662 133 678T173 694Q198 694 213 678T229
638Q229 615 214 599T173 582Z" />
<glyph unicode="&#xf7;" horiz-adv-x="506" d="M34 293V367H472V293H34ZM253 89Q227 89 209 106T191 150Q191 177 209 193T253 210Q280 210 297 194T315 150Q315 124 298 107T253 89ZM253 449Q227 449 209 466T191 510Q191 537 209 553T253 570Q280 570 297 554T315
510Q315 484 298 467T253 449Z" />
<glyph unicode="&#xf8;" horiz-adv-x="546" d="M88 -24L46 9L458 513L500 480L88 -24ZM273 -12Q213 -12 161 18T76 106T43 244Q43 326 75 383T160 471T273 501Q334 501 386 471T470 384T503 244Q503 163 471 106T386 19T273 -12ZM273 68Q312 68 341 89T387 149T404
239Q404 297 388 337T342 399T273 421Q235 421 206 400T159 339T142 249Q142 192 159 152T205 90T273 68Z" />
<glyph unicode="&#xf9;" horiz-adv-x="551" d="M221 -12Q144 -12 108 38T71 181V489H172V194Q172 131 192 103T255 75Q290 75 316 92T373 149V489H474V0H391L383 74H380Q347 35 310 12T221 -12ZM288 573L124 727L194 794L339 623L288 573Z" />
<glyph unicode="&#xfa;" horiz-adv-x="551" d="M221 -12Q144 -12 108 38T71 181V489H172V194Q172 131 192 103T255 75Q290 75 316 92T373 149V489H474V0H391L383 74H380Q347 35 310 12T221 -12ZM274 573L223 623L368 794L438 727L274 573Z" />
<glyph unicode="&#xfb;" horiz-adv-x="551" d="M221 -12Q144 -12 108 38T71 181V489H172V194Q172 131 192 103T255 75Q290 75 316 92T373 149V489H474V0H391L383 74H380Q347 35 310 12T221 -12ZM159 566L118 604L230 741H332L444 604L403 566L283 673H279L159 566Z" />
<glyph unicode="&#xfc;" horiz-adv-x="551" d="M221 -12Q144 -12 108 38T71 181V489H172V194Q172 131 192 103T255 75Q290 75 316 92T373 149V489H474V0H391L383 74H380Q347 35 310 12T221 -12ZM381 582Q357 582 341 598T325 638Q325 662 341 678T381 694Q406
694 421 678T437 638Q437 615 422 599T381 582ZM181 582Q157 582 141 598T125 638Q125 662 141 678T181 694Q206 694 221 678T237 638Q237 615 222 599T181 582Z" />
<glyph unicode="&#xfd;" horiz-adv-x="483" d="M99 -205Q81 -205 66 -202T38 -195L57 -116Q65 -118 75 -120T93 -123Q133 -123 158 -97T196 -30L206 3L12 489H115L206 236Q218 204 229 169T251 98H255Q265 132 275 167T294 236L373 489H471L291 -30Q272 -82 247
-121T187 -183T99 -205ZM245 573L194 623L339 794L409 727L245 573Z" />
<glyph unicode="&#xfe;" horiz-adv-x="560" d="M77 -199V709H178V522L176 442Q207 467 243 484T317 501Q381 501 425 471T492 384T515 252Q515 169 486 110T408 20T305 -12Q270 -12 239 2T176 40L178 -40V-199H77ZM285 72Q321 72 349 93T394 154T411 251Q411 302
399 339T362 397T295 417Q267 417 239 403T178 357V117Q208 93 235 83T285 72Z" />
<glyph unicode="&#xff;" horiz-adv-x="483" d="M99 -205Q81 -205 66 -202T38 -195L57 -116Q65 -118 75 -120T93 -123Q133 -123 158 -97T196 -30L206 3L12 489H115L206 236Q218 204 229 169T251 98H255Q265 132 275 167T294 236L373 489H471L291 -30Q272 -82 247
-121T187 -183T99 -205ZM352 582Q328 582 312 598T296 638Q296 662 312 678T352 694Q377 694 392 678T408 638Q408 615 393 599T352 582ZM152 582Q128 582 112 598T96 638Q96 662 112 678T152 694Q177 694 192 678T208 638Q208 615 193 599T152 582Z" />
<glyph unicode="&#x2013;" horiz-adv-x="480" d="M42 218V286H438V218H42Z" />
<glyph unicode="&#x2014;" horiz-adv-x="800" d="M42 218V286H758V218H42Z" />
<glyph unicode="&#x2018;" horiz-adv-x="264" d="M128 402Q94 402 75 429T56 504Q56 567 86 614T173 692L199 646Q160 622 140 593T119 520L129 448L85 504Q95 513 105 517T128 522Q152 522 170 508T188 465Q188 436 172 419T128 402Z" />
<glyph unicode="&#x2019;" horiz-adv-x="264" d="M91 408L65 454Q105 478 125 507T145 580L136 652L179 597Q170 588 160 583T136 578Q112 578 94 593T76 635Q76 665 93 681T136 698Q171 698 189 672T208 596Q208 533 179 487T91 408Z" />
<glyph unicode="&#x201a;" horiz-adv-x="264" d="M91 -152L65 -106Q105 -82 125 -53T145 20L136 92L179 37Q170 28 160 23T136 18Q112 18 94 33T76 75Q76 105 93 121T136 138Q171 138 189 112T208 36Q208 -27 179 -73T91 -152Z" />
<glyph unicode="&#x201c;" d="M128 402Q94 402 75 429T56 504Q56 567 86 614T173 692L199 646Q160 622 140 593T119 520L129 448L85 504Q95 513 105 517T128 522Q152 522 170 508T188 465Q188 436 172 419T128 402ZM322 402Q288 402 269 429T250 504Q250 567 280
614T367 692L393 646Q354 622 334 593T313 520L323 448L279 504Q289 513 299 517T322 522Q346 522 364 508T382 465Q382 436 366 419T322 402Z" />
<glyph unicode="&#x201d;" d="M91 408L65 454Q105 478 125 507T145 580L136 652L179 597Q170 588 160 583T136 578Q112 578 94 593T76 635Q76 665 93 681T136 698Q171 698 189 672T208 596Q208 533 179 487T91 408ZM285 408L259 454Q299 478 319 507T339 580L330
652L373 597Q364 588 354 583T330 578Q306 578 288 593T270 635Q270 665 287 681T330 698Q365 698 383 672T402 596Q402 533 373 487T285 408Z" />
<glyph unicode="&#x201e;" d="M91 -152L65 -106Q105 -82 125 -53T145 20L136 92L179 37Q170 28 160 23T136 18Q112 18 94 33T76 75Q76 105 93 121T136 138Q171 138 189 112T208 36Q208 -27 179 -73T91 -152ZM285 -152L259 -106Q299 -82 319 -53T339 20L330 92L373
37Q364 28 354 23T330 18Q306 18 288 33T270 75Q270 105 287 121T330 138Q365 138 383 112T402 36Q402 -27 373 -73T285 -152Z" />
<glyph unicode="&#x2022;" horiz-adv-x="316" d="M158 137Q126 137 100 153T57 198T40 263Q40 300 56 328T99 373T158 389Q190 389 217 373T260 329T276 263Q276 226 260 198T217 154T158 137Z" />
<glyph unicode="&#x2039;" horiz-adv-x="277" d="M182 63L46 215V289L182 441L223 407L107 252L223 96L182 63Z" />
<glyph unicode="&#x203a;" horiz-adv-x="277" d="M95 63L54 96L170 252L54 407L95 441L231 289V215L95 63Z" />
</font>
</defs>
</svg>
